  0
SECTION
  2
HEADER
  9
$ACADVER
  1
AC1015
  9
$ACADMAINTVER
 70
     6
  9
$DWGCODEPAGE
  3
ANSI_1252
  9
$INSBASE
 10
0.0
 20
0.0
 30
0.0
  9
$EXTMIN
 10
-139.452240405383
 20
503.043569128378
 30
0.0
  9
$EXTMAX
 10
444.5477595946171
 20
913.0435691283781
 30
0.0
  9
$LIMMIN
 10
0.0
 20
0.0
  9
$LIMMAX
 10
12.0
 20
9.0
  9
$ORTHOMODE
 70
     0
  9
$REGENMODE
 70
     1
  9
$FILLMODE
 70
     1
  9
$QTEXTMODE
 70
     0
  9
$MIRRTEXT
 70
     1
  9
$LTSCALE
 40
1.0
  9
$ATTMODE
 70
     1
  9
$TEXTSIZE
 40
0.2
  9
$TRACEWID
 40
0.05
  9
$TEXTSTYLE
  7
Standard
  9
$CLAYER
  8
0
  9
$CELTYPE
  6
ByLayer
  9
$CECOLOR
 62
   256
  9
$CELTSCALE
 40
1.0
  9
$DISPSILH
 70
     0
  9
$DIMSCALE
 40
1.0
  9
$DIMASZ
 40
0.18
  9
$DIMEXO
 40
0.0625
  9
$DIMDLI
 40
0.38
  9
$DIMRND
 40
0.0
  9
$DIMDLE
 40
0.0
  9
$DIMEXE
 40
0.18
  9
$DIMTP
 40
0.0
  9
$DIMTM
 40
0.0
  9
$DIMTXT
 40
0.18
  9
$DIMCEN
 40
0.09
  9
$DIMTSZ
 40
0.0
  9
$DIMTOL
 70
     0
  9
$DIMLIM
 70
     0
  9
$DIMTIH
 70
     1
  9
$DIMTOH
 70
     1
  9
$DIMSE1
 70
     0
  9
$DIMSE2
 70
     0
  9
$DIMTAD
 70
     0
  9
$DIMZIN
 70
     0
  9
$DIMBLK
  1

  9
$DIMASO
 70
     1
  9
$DIMSHO
 70
     1
  9
$DIMPOST
  1

  9
$DIMAPOST
  1

  9
$DIMALT
 70
     0
  9
$DIMALTD
 70
     2
  9
$DIMALTF
 40
25.4
  9
$DIMLFAC
 40
1.0
  9
$DIMTOFL
 70
     0
  9
$DIMTVP
 40
0.0
  9
$DIMTIX
 70
     0
  9
$DIMSOXD
 70
     0
  9
$DIMSAH
 70
     0
  9
$DIMBLK1
  1

  9
$DIMBLK2
  1

  9
$DIMSTYLE
  2
Standard
  9
$DIMCLRD
 70
     0
  9
$DIMCLRE
 70
     0
  9
$DIMCLRT
 70
     0
  9
$DIMTFAC
 40
1.0
  9
$DIMGAP
 40
0.09
  9
$DIMJUST
 70
     0
  9
$DIMSD1
 70
     0
  9
$DIMSD2
 70
     0
  9
$DIMTOLJ
 70
     1
  9
$DIMTZIN
 70
     0
  9
$DIMALTZ
 70
     0
  9
$DIMALTTZ
 70
     0
  9
$DIMUPT
 70
     0
  9
$DIMDEC
 70
     4
  9
$DIMTDEC
 70
     4
  9
$DIMALTU
 70
     2
  9
$DIMALTTD
 70
     2
  9
$DIMTXSTY
  7
Standard
  9
$DIMAUNIT
 70
     0
  9
$DIMADEC
 70
     0
  9
$DIMALTRND
 40
0.0
  9
$DIMAZIN
 70
     0
  9
$DIMDSEP
 70
    46
  9
$DIMATFIT
 70
     3
  9
$DIMFRAC
 70
     0
  9
$DIMLDRBLK
  1

  9
$DIMLUNIT
 70
     2
  9
$DIMLWD
 70
    -2
  9
$DIMLWE
 70
    -2
  9
$DIMTMOVE
 70
     0
  9
$LUNITS
 70
     2
  9
$LUPREC
 70
     4
  9
$SKETCHINC
 40
0.1
  9
$FILLETRAD
 40
0.5
  9
$AUNITS
 70
     0
  9
$AUPREC
 70
     0
  9
$MENU
  1
.
  9
$ELEVATION
 40
0.0
  9
$PELEVATION
 40
0.0
  9
$THICKNESS
 40
0.0
  9
$LIMCHECK
 70
     0
  9
$CHAMFERA
 40
0.5
  9
$CHAMFERB
 40
0.5
  9
$CHAMFERC
 40
1.0
  9
$CHAMFERD
 40
0.0
  9
$SKPOLY
 70
     0
  9
$TDCREATE
 40
2454326.469930463
  9
$TDUCREATE
 40
2454326.38659713
  9
$TDUPDATE
 40
2454326.469930475
  9
$TDUUPDATE
 40
2454326.386597141
  9
$TDINDWG
 40
0.0000000116
  9
$TDUSRTIMER
 40
0.0000000116
  9
$USRTIMER
 70
     1
  9
$ANGBASE
 50
0.0
  9
$ANGDIR
 70
     0
  9
$PDMODE
 70
     0
  9
$PDSIZE
 40
0.0
  9
$PLINEWID
 40
0.0
  9
$SPLFRAME
 70
     0
  9
$SPLINETYPE
 70
     6
  9
$SPLINESEGS
 70
     8
  9
$HANDSEED
  5
582
  9
$SURFTAB1
 70
     6
  9
$SURFTAB2
 70
     6
  9
$SURFTYPE
 70
     6
  9
$SURFU
 70
     6
  9
$SURFV
 70
     6
  9
$UCSBASE
  2

  9
$UCSNAME
  2

  9
$UCSORG
 10
0.0
 20
0.0
 30
0.0
  9
$UCSXDIR
 10
1.0
 20
0.0
 30
0.0
  9
$UCSYDIR
 10
0.0
 20
1.0
 30
0.0
  9
$UCSORTHOREF
  2

  9
$UCSORTHOVIEW
 70
     0
  9
$UCSORGTOP
 10
0.0
 20
0.0
 30
0.0
  9
$UCSORGBOTTOM
 10
0.0
 20
0.0
 30
0.0
  9
$UCSORGLEFT
 10
0.0
 20
0.0
 30
0.0
  9
$UCSORGRIGHT
 10
0.0
 20
0.0
 30
0.0
  9
$UCSORGFRONT
 10
0.0
 20
0.0
 30
0.0
  9
$UCSORGBACK
 10
0.0
 20
0.0
 30
0.0
  9
$PUCSBASE
  2

  9
$PUCSNAME
  2

  9
$PUCSORG
 10
0.0
 20
0.0
 30
0.0
  9
$PUCSXDIR
 10
1.0
 20
0.0
 30
0.0
  9
$PUCSYDIR
 10
0.0
 20
1.0
 30
0.0
  9
$PUCSORTHOREF
  2

  9
$PUCSORTHOVIEW
 70
     0
  9
$PUCSORGTOP
 10
0.0
 20
0.0
 30
0.0
  9
$PUCSORGBOTTOM
 10
0.0
 20
0.0
 30
0.0
  9
$PUCSORGLEFT
 10
0.0
 20
0.0
 30
0.0
  9
$PUCSORGRIGHT
 10
0.0
 20
0.0
 30
0.0
  9
$PUCSORGFRONT
 10
0.0
 20
0.0
 30
0.0
  9
$PUCSORGBACK
 10
0.0
 20
0.0
 30
0.0
  9
$USERI1
 70
     0
  9
$USERI2
 70
     0
  9
$USERI3
 70
     0
  9
$USERI4
 70
     0
  9
$USERI5
 70
     0
  9
$USERR1
 40
14.5
  9
$USERR2
 40
0.0
  9
$USERR3
 40
0.0
  9
$USERR4
 40
0.0
  9
$USERR5
 40
0.0
  9
$WORLDVIEW
 70
     1
  9
$SHADEDGE
 70
     3
  9
$SHADEDIF
 70
    70
  9
$TILEMODE
 70
     1
  9
$MAXACTVP
 70
    64
  9
$PINSBASE
 10
0.0
 20
0.0
 30
0.0
  9
$PLIMCHECK
 70
     0
  9
$PEXTMIN
 10
1.00000000000000E+20
 20
1.00000000000000E+20
 30
1.00000000000000E+20
  9
$PEXTMAX
 10
-1.00000000000000E+20
 20
-1.00000000000000E+20
 30
-1.00000000000000E+20
  9
$PLIMMIN
 10
0.0
 20
0.0
  9
$PLIMMAX
 10
12.0
 20
9.0
  9
$UNITMODE
 70
     0
  9
$VISRETAIN
 70
     1
  9
$PLINEGEN
 70
     0
  9
$PSLTSCALE
 70
     1
  9
$TREEDEPTH
 70
  3020
  9
$CMLSTYLE
  2
Standard
  9
$CMLJUST
 70
     0
  9
$CMLSCALE
 40
1.0
  9
$PROXYGRAPHICS
 70
     1
  9
$MEASUREMENT
 70
     1
  9
$CELWEIGHT
370
    -1
  9
$ENDCAPS
280
     0
  9
$JOINSTYLE
280
     0
  9
$LWDISPLAY
290
     0
  9
$INSUNITS
 70
     1
  9
$HYPERLINKBASE
  1

  9
$STYLESHEET
  1

  9
$XEDIT
290
     1
  9
$CEPSNTYPE
380
     0
  9
$PSTYLEMODE
290
     1
  9
$FINGERPRINTGUID
  2
{2351B3E9-3538-429D-BE70-172E2FE187EA}
  9
$VERSIONGUID
  2
{FAEB1C32-E019-11D5-929B-00C0DF256EC4}
  9
$EXTNAMES
290
     1
  9
$PSVPSCALE
 40
0.0
  9
$OLESTARTUP
290
     0
  0
ENDSEC
  0
SECTION
  2
CLASSES
  0
CLASS
  1
ACDBDICTIONARYWDFLT
  2
AcDbDictionaryWithDefault
  3
ObjectDBX Classes
 90
        0
280
     0
281
     0
  0
CLASS
  1

  2
exOdDbCircle
  3

 90
        0
280
     0
281
     1
  0
CLASS
  1

  2
exOdDbSpline
  3

 90
        0
280
     0
281
     1
  0
CLASS
  1

  2
exOdDbPolyline
  3

 90
        0
280
     0
281
     1
  0
CLASS
  1
ACDBPLACEHOLDER
  2
AcDbPlaceHolder
  3
ObjectDBX Classes
 90
        0
280
     0
281
     0
  0
CLASS
  1
LAYOUT
  2
AcDbLayout
  3
ObjectDBX Classes
 90
        0
280
     0
281
     0
  0
ENDSEC
  0
SECTION
  2
TABLES
  0
TABLE
  2
VPORT
  5
8
330
0
100
AcDbSymbolTable
 70
     1
  0
VPORT
  5
29
330
8
100
AcDbSymbolTableRecord
100
AcDbViewportTableRecord
  2
*Active
 70
     0
 10
0.0
 20
0.0
 11
1.0
 21
1.0
 12
152.547759594617
 22
708.0435691283781
 13
0.0
 23
0.0
 14
0.5
 24
0.5
 15
0.5
 25
0.5
 16
0.0
 26
0.0
 36
1.0
 17
0.0
 27
0.0
 37
0.0
 40
451.0000000000001
 41
1.60267857142857
 42
50.0
 43
0.0
 44
0.0
 50
0.0
 51
0.0
 71
     0
 72
   100
 73
     1
 74
     3
 75
     0
 76
     0
 77
     0
 78
     0
281
     0
 65
     1
110
0.0
120
0.0
130
0.0
111
1.0
121
0.0
131
0.0
112
0.0
122
1.0
132
0.0
 79
     0
146
0.0
  0
ENDTAB
  0
TABLE
  2
LTYPE
  5
5
330
0
100
AcDbSymbolTable
 70
     8
  0
LTYPE
  5
14
330
5
100
AcDbSymbolTableRecord
100
AcDbLinetypeTableRecord
  2
ByBlock
 70
     0
  3

 72
    65
 73
     0
 40
0.0
  0
LTYPE
  5
15
330
5
100
AcDbSymbolTableRecord
100
AcDbLinetypeTableRecord
  2
ByLayer
 70
     0
  3

 72
    65
 73
     0
 40
0.0
  0
LTYPE
  5
16
330
5
100
AcDbSymbolTableRecord
100
AcDbLinetypeTableRecord
  2
Continuous
 70
     0
  3
Solid line
 72
    65
 73
     0
 40
0.0
  0
LTYPE
  5
2A
330
5
100
AcDbSymbolTableRecord
100
AcDbLinetypeTableRecord
  2
DASHED
 70
     0
  3
Dashed
 72
    65
 73
     2
 40
15.0
 49
7.0
 74
     0
 49
-8.0
 74
     0
  0
LTYPE
  5
2B
330
5
100
AcDbSymbolTableRecord
100
AcDbLinetypeTableRecord
  2
DOTTED
 70
     0
  3
Dotted
 72
    65
 73
     2
 40
1.0
 49
0.0
 74
     0
 49
-1.0
 74
     0
  0
LTYPE
  5
2C
330
5
100
AcDbSymbolTableRecord
100
AcDbLinetypeTableRecord
  2
DOT_CENTER
 70
     0
  3
Dot_Center
 72
    65
 73
     4
 40
14.0
 49
12.0
 74
     0
 49
-1.0
 74
     0
 49
0.0
 74
     0
 49
-1.0
 74
     0
  0
LTYPE
  5
2D
330
5
100
AcDbSymbolTableRecord
100
AcDbLinetypeTableRecord
  2
LONG_DASHED
 70
     0
  3
Long_Dashed
 72
    65
 73
     2
 40
15.0
 49
10.0
 74
     0
 49
-5.0
 74
     0
  0
LTYPE
  5
2E
330
5
100
AcDbSymbolTableRecord
100
AcDbLinetypeTableRecord
  2
DASH_CENTER
 70
     0
  3
Dash_Center
 72
    65
 73
     4
 40
14.0
 49
11.0
 74
     0
 49
-1.0
 74
     0
 49
1.0
 74
     0
 49
-1.0
 74
     0
  0
LTYPE
  5
2F
330
5
100
AcDbSymbolTableRecord
100
AcDbLinetypeTableRecord
  2
PHANTOM
 70
     0
  3
Phantom
 72
    65
 73
     6
 40
13.0
 49
10.0
 74
     0
 49
-1.0
 74
     0
 49
0.0
 74
     0
 49
-1.0
 74
     0
 49
0.0
 74
     0
 49
-1.0
 74
     0
  0
LTYPE
  5
30
330
5
100
AcDbSymbolTableRecord
100
AcDbLinetypeTableRecord
  2
CENTER_DASH_DASH
 70
     0
  3
Center_Dash_Dash
 72
    65
 73
     6
 40
14.0
 49
9.0
 74
     0
 49
-1.0
 74
     0
 49
1.0
 74
     0
 49
-1.0
 74
     0
 49
1.0
 74
     0
 49
-1.0
 74
     0
  0
ENDTAB
  0
TABLE
  2
LAYER
  5
2
330
0
100
AcDbSymbolTable
 70
     2
  0
LAYER
  5
10
330
2
100
AcDbSymbolTableRecord
100
AcDbLayerTableRecord
  2
0
 70
     0
 62
     7
  6
Continuous
370
    -3
390
F
  0
LAYER
  5
31
330
2
100
AcDbSymbolTableRecord
100
AcDbLayerTableRecord
  2
1
 70
     0
 62
     7
  6
Continuous
370
    -3
390
F
  0
ENDTAB
  0
TABLE
  2
STYLE
  5
3
330
0
100
AcDbSymbolTable
 70
    10
  0
STYLE
  5
11
330
3
100
AcDbSymbolTableRecord
100
AcDbTextStyleTableRecord
  2
Standard
 70
     0
 40
0.0
 41
1.0
 50
0.0
 71
     0
 42
0.2
  3
txt
  4

  0
STYLE
  5
106
330
3
100
AcDbSymbolTableRecord
100
AcDbTextStyleTableRecord
  2
CONVERTER_11
 70
     0
 40
0.0
 41
0.81
 50
0.0
 71
     0
 42
0.2
  3
txt.shx
  4

  0
STYLE
  5
108
330
3
100
AcDbSymbolTableRecord
100
AcDbTextStyleTableRecord
  2
CONVERTER_12
 70
     0
 40
0.0
 41
0.9
 50
0.0
 71
     0
 42
0.2
  3
txt.shx
  4

  0
STYLE
  5
10B
330
3
100
AcDbSymbolTableRecord
100
AcDbTextStyleTableRecord
  2
CONVERTER_13
 70
     0
 40
0.0
 41
0.72
 50
0.0
 71
     0
 42
0.2
  3
txt.shx
  4

  0
STYLE
  5
118
330
3
100
AcDbSymbolTableRecord
100
AcDbTextStyleTableRecord
  2
CONVERTER_14
 70
     0
 40
0.0
 41
0.66696267749507
 50
0.0
 71
     0
 42
0.2
  3
txt.shx
  4

  0
STYLE
  5
11B
330
3
100
AcDbSymbolTableRecord
100
AcDbTextStyleTableRecord
  2
CONVERTER_15
 70
     0
 40
0.0
 41
0.54
 50
0.0
 71
     0
 42
0.2
  3
txt.shx
  4

  0
STYLE
  5
156
330
3
100
AcDbSymbolTableRecord
100
AcDbTextStyleTableRecord
  2
CONVERTER_16
 70
     0
 40
0.0
 41
0.765
 50
0.0
 71
     0
 42
0.2
  3
txt.shx
  4

  0
STYLE
  5
2A2
330
3
100
AcDbSymbolTableRecord
100
AcDbTextStyleTableRecord
  2
CONVERTER_17
 70
     0
 40
0.0
 41
0.95
 50
0.0
 71
     0
 42
0.2
  3
complex.shx
  4

  0
STYLE
  5
423
330
3
100
AcDbSymbolTableRecord
100
AcDbTextStyleTableRecord
  2
CONVERTER_18
 70
     0
 40
0.0
 41
0.99
 50
0.0
 71
     0
 42
0.2
  3
txt.shx
  4

  0
STYLE
  5
54D
330
3
100
AcDbSymbolTableRecord
100
AcDbTextStyleTableRecord
  2
CONVERTER_19
 70
     0
 40
0.0
 41
1.045
 50
0.0
 71
     0
 42
0.2
  3
complex.shx
  4

  0
ENDTAB
  0
TABLE
  2
VIEW
  5
6
330
0
100
AcDbSymbolTable
 70
     0
  0
ENDTAB
  0
TABLE
  2
UCS
  5
7
330
0
100
AcDbSymbolTable
 70
     0
  0
ENDTAB
  0
TABLE
  2
APPID
  5
9
330
0
100
AcDbSymbolTable
 70
     1
  0
APPID
  5
12
330
9
100
AcDbSymbolTableRecord
100
AcDbRegAppTableRecord
  2
ACAD
 70
     0
  0
ENDTAB
  0
TABLE
  2
DIMSTYLE
  5
A
330
0
100
AcDbSymbolTable
 70
    14
100
AcDbDimStyleTable
  0
DIMSTYLE
105
27
330
A
100
AcDbSymbolTableRecord
100
AcDbDimStyleTableRecord
  2
Standard
 70
     0
340
11
  0
DIMSTYLE
105
2B3
102
{ACAD_REACTORS
330
2B4
102
}
330
A
100
AcDbSymbolTableRecord
100
AcDbDimStyleTableRecord
  2
ME10_DIM_10
 70
     0
 41
4.0
 42
0.0
 44
2.0
 73
     0
 74
     0
 77
     1
 78
     8
140
4.0
147
2.0
172
     1
173
     1
176
     3
177
     3
178
     1
271
     2
340
108
  0
DIMSTYLE
105
431
102
{ACAD_REACTORS
330
432
102
}
330
A
100
AcDbSymbolTableRecord
100
AcDbDimStyleTableRecord
  2
ME10_DIM_11
 70
     0
 41
7.0
 42
0.0
 44
4.0
 47
1.0
 48
1.0
 71
     1
 73
     0
 74
     0
 77
     1
 78
     8
140
7.0
146
0.6
147
4.0
172
     1
173
     1
176
     3
177
     3
178
     4
271
     2
272
     0
340
108
  0
DIMSTYLE
105
43C
102
{ACAD_REACTORS
330
43D
102
}
330
A
100
AcDbSymbolTableRecord
100
AcDbDimStyleTableRecord
  2
ME10_DIM_12
 70
     0
 41
7.0
 42
0.0
 44
4.0
 47
0.2
 48
0.2
 71
     1
 73
     0
 74
     0
 77
     1
 78
     8
140
7.0
146
0.6
147
4.0
172
     1
173
     1
176
     3
177
     3
178
     4
271
     2
272
     1
340
108
  0
DIMSTYLE
105
447
102
{ACAD_REACTORS
330
448
102
}
330
A
100
AcDbSymbolTableRecord
100
AcDbDimStyleTableRecord
  2
ME10_DIM_13
 70
     0
 41
7.0
 42
0.0
 44
4.0
 47
1.0
 48
1.0
 71
     1
 73
     0
 74
     0
 77
     1
 78
     8
140
7.0
146
0.6
147
4.0
172
     1
173
     1
176
     3
177
     3
178
     4
271
     2
272
     0
340
108
  0
DIMSTYLE
105
452
102
{ACAD_REACTORS
330
453
102
}
330
A
100
AcDbSymbolTableRecord
100
AcDbDimStyleTableRecord
  2
ME10_DIM_14
 70
     0
 41
7.0
 42
0.0
 44
4.0
 47
0.2
 48
0.2
 71
     1
 73
     0
 74
     0
 77
     1
 78
     8
140
7.0
146
0.6
147
4.0
172
     1
173
     1
176
     3
177
     3
178
     4
271
     2
272
     1
340
108
  0
DIMSTYLE
105
45D
102
{ACAD_REACTORS
330
45E
102
}
330
A
100
AcDbSymbolTableRecord
100
AcDbDimStyleTableRecord
  2
ME10_DIM_15
 70
     0
 41
7.0
 42
0.0
 44
4.0
 47
1.0
 48
1.0
 71
     1
 73
     0
 74
     0
 77
     1
 78
     8
140
7.0
146
0.6
147
4.0
172
     1
173
     1
176
     3
177
     3
178
     4
271
     2
272
     0
340
108
  0
DIMSTYLE
105
468
102
{ACAD_REACTORS
330
469
102
}
330
A
100
AcDbSymbolTableRecord
100
AcDbDimStyleTableRecord
  2
ME10_DIM_16
 70
     0
 41
7.0
 42
0.0
 44
4.0
 47
0.2
 48
0.2
 71
     1
 73
     0
 74
     0
 77
     1
 78
     8
140
7.0
146
0.6
147
4.0
172
     1
173
     1
176
     3
177
     3
178
     4
271
     2
272
     1
340
108
  0
DIMSTYLE
105
473
102
{ACAD_REACTORS
330
474
102
}
330
A
100
AcDbSymbolTableRecord
100
AcDbDimStyleTableRecord
  2
ME10_DIM_17
 70
     0
 41
7.0
 42
0.0
 44
4.0
 47
1.0
 48
1.0
 71
     1
 73
     0
 74
     0
 77
     1
 78
     8
140
7.0
146
0.6
147
4.0
172
     1
173
     1
176
     3
177
     3
178
     4
271
     2
272
     0
340
108
  0
DIMSTYLE
105
47E
102
{ACAD_REACTORS
330
47F
102
}
330
A
100
AcDbSymbolTableRecord
100
AcDbDimStyleTableRecord
  2
ME10_DIM_18
 70
     0
 41
7.0
 42
0.0
 44
4.0
 47
0.2
 48
0.2
 71
     1
 73
     0
 74
     0
 77
     1
 78
     8
140
7.0
146
0.6
147
4.0
172
     1
173
     1
176
     3
177
     3
178
     4
271
     2
272
     1
340
108
  0
DIMSTYLE
105
55F
102
{ACAD_REACTORS
330
560
102
}
330
A
100
AcDbSymbolTableRecord
100
AcDbDimStyleTableRecord
  2
ME10_DIM_19
 70
     0
 41
3.5
 42
0.0
 44
2.0
 73
     0
 74
     0
 77
     1
 78
     8
140
3.5
147
2.0
172
     1
173
     1
176
     3
177
     3
178
     4
271
     2
340
108
  0
DIMSTYLE
105
56A
102
{ACAD_REACTORS
330
56B
102
}
330
A
100
AcDbSymbolTableRecord
100
AcDbDimStyleTableRecord
  2
ME10_DIM_20
 70
     0
 41
3.5
 42
0.0
 44
2.0
 47
0.1
 48
0.1
 71
     1
 73
     0
 74
     0
 77
     1
 78
     8
140
3.5
146
0.6
147
2.0
172
     1
173
     1
176
     3
177
     3
178
     4
271
     2
272
     1
340
108
  0
DIMSTYLE
105
575
102
{ACAD_REACTORS
330
576
102
}
330
A
100
AcDbSymbolTableRecord
100
AcDbDimStyleTableRecord
  2
ME10_DIM_21
 70
     0
 41
3.5
 42
0.0
 44
2.0
 73
     0
 74
     0
 77
     1
 78
     8
140
3.5
147
2.0
172
     1
173
     1
176
     3
177
     3
178
     4
271
     2
340
108
  0
DIMSTYLE
105
580
102
{ACAD_REACTORS
330
581
102
}
330
A
100
AcDbSymbolTableRecord
100
AcDbDimStyleTableRecord
  2
ME10_DIM_22
 70
     0
 41
3.5
 42
0.0
 44
2.0
 47
1.0
 48
1.0
 71
     1
 73
     0
 74
     0
 77
     1
 78
     8
140
3.5
146
0.6
147
2.0
172
     1
173
     1
176
     3
177
     3
178
     4
271
     2
272
     0
340
108
  0
ENDTAB
  0
TABLE
  2
BLOCK_RECORD
  5
1
330
0
100
AcDbSymbolTable
 70
    25
  0
BLOCK_RECORD
  5
1F
330
1
100
AcDbSymbolTableRecord
100
AcDbBlockTableRecord
  2
*Model_Space
340
22
  0
BLOCK_RECORD
  5
1B
330
1
100
AcDbSymbolTableRecord
100
AcDbBlockTableRecord
  2
*Paper_Space
340
1E
  0
BLOCK_RECORD
  5
23
330
1
100
AcDbSymbolTableRecord
100
AcDbBlockTableRecord
  2
*Paper_Space0
340
26
  0
BLOCK_RECORD
  5
32
330
1
100
AcDbSymbolTableRecord
100
AcDbBlockTableRecord
  2
a2kl
340
0
102
{BLKREFS
331
36
102
}
  0
BLOCK_RECORD
  5
35
330
1
100
AcDbSymbolTableRecord
100
AcDbBlockTableRecord
  2
rahmen
340
0
102
{BLKREFS
331
59
102
}
  0
BLOCK_RECORD
  5
39
330
1
100
AcDbSymbolTableRecord
100
AcDbBlockTableRecord
  2
Tuer__1
340
0
102
{BLKREFS
331
3D
102
}
  0
BLOCK_RECORD
  5
3C
330
1
100
AcDbSymbolTableRecord
100
AcDbBlockTableRecord
  2
Tuer__2
340
0
102
{BLKREFS
331
44
102
}
  0
BLOCK_RECORD
  5
40
330
1
100
AcDbSymbolTableRecord
100
AcDbBlockTableRecord
  2
1__3
340
0
102
{BLKREFS
331
45
102
}
  0
BLOCK_RECORD
  5
43
330
1
100
AcDbSymbolTableRecord
100
AcDbBlockTableRecord
  2
TOP__4
340
0
102
{BLKREFS
331
5A
102
}
  0
BLOCK_RECORD
  5
48
330
1
100
AcDbSymbolTableRecord
100
AcDbBlockTableRecord
  2
1__5
340
0
102
{BLKREFS
331
4C
102
}
  0
BLOCK_RECORD
  5
4B
330
1
100
AcDbSymbolTableRecord
100
AcDbBlockTableRecord
  2
TOP__6
340
0
102
{BLKREFS
331
50
102
}
  0
BLOCK_RECORD
  5
4F
330
1
100
AcDbSymbolTableRecord
100
AcDbBlockTableRecord
  2
Blindlager
340
0
102
{BLKREFS
331
5B
102
}
  0
BLOCK_RECORD
  5
53
330
1
100
AcDbSymbolTableRecord
100
AcDbBlockTableRecord
  2
Schiene
340
0
102
{BLKREFS
331
5C
102
}
  0
BLOCK_RECORD
  5
56
330
1
100
AcDbSymbolTableRecord
100
AcDbBlockTableRecord
  2
Profil-Stahltuer
340
0
102
{BLKREFS
331
5D
102
}
  0
BLOCK_RECORD
  5
2AA
330
1
100
AcDbSymbolTableRecord
100
AcDbBlockTableRecord
  2
*D12
340
0
  0
BLOCK_RECORD
  5
428
330
1
100
AcDbSymbolTableRecord
100
AcDbBlockTableRecord
  2
*D13
340
0
  0
BLOCK_RECORD
  5
433
330
1
100
AcDbSymbolTableRecord
100
AcDbBlockTableRecord
  2
*D14
340
0
  0
BLOCK_RECORD
  5
43E
330
1
100
AcDbSymbolTableRecord
100
AcDbBlockTableRecord
  2
*D15
340
0
  0
BLOCK_RECORD
  5
449
330
1
100
AcDbSymbolTableRecord
100
AcDbBlockTableRecord
  2
*D16
340
0
  0
BLOCK_RECORD
  5
454
330
1
100
AcDbSymbolTableRecord
100
AcDbBlockTableRecord
  2
*D17
340
0
  0
BLOCK_RECORD
  5
45F
330
1
100
AcDbSymbolTableRecord
100
AcDbBlockTableRecord
  2
*D18
340
0
  0
BLOCK_RECORD
  5
46A
330
1
100
AcDbSymbolTableRecord
100
AcDbBlockTableRecord
  2
*D19
340
0
  0
BLOCK_RECORD
  5
475
330
1
100
AcDbSymbolTableRecord
100
AcDbBlockTableRecord
  2
*D20
340
0
  0
BLOCK_RECORD
  5
556
330
1
100
AcDbSymbolTableRecord
100
AcDbBlockTableRecord
  2
*D21
340
0
  0
BLOCK_RECORD
  5
561
330
1
100
AcDbSymbolTableRecord
100
AcDbBlockTableRecord
  2
*D22
340
0
  0
BLOCK_RECORD
  5
56C
330
1
100
AcDbSymbolTableRecord
100
AcDbBlockTableRecord
  2
*D23
340
0
  0
BLOCK_RECORD
  5
577
330
1
100
AcDbSymbolTableRecord
100
AcDbBlockTableRecord
  2
*D24
340
0
  0
ENDTAB
  0
ENDSEC
  0
SECTION
  2
BLOCKS
  0
BLOCK
  5
20
330
1F
100
AcDbEntity
  8
0
100
AcDbBlockBegin
  2
*Model_Space
 70
     0
 71
     0
 10
0.0
 20
0.0
 30
0.0
  3
*Model_Space
  1

  0
ENDBLK
  5
21
330
1F
100
AcDbEntity
  8
0
100
AcDbBlockEnd
  0
BLOCK
  5
1C
330
1B
100
AcDbEntity
 67
     1
  8
0
100
AcDbBlockBegin
  2
*Paper_Space
 70
     0
 71
     0
 10
0.0
 20
0.0
 30
0.0
  3
*Paper_Space
  1

  0
ENDBLK
  5
1D
330
1B
100
AcDbEntity
 67
     1
  8
0
100
AcDbBlockEnd
  0
BLOCK
  5
24
330
23
100
AcDbEntity
  8
0
100
AcDbBlockBegin
  2
*Paper_Space0
 70
     0
 71
     0
 10
0.0
 20
0.0
 30
0.0
  3
*Paper_Space0
  1

  0
ENDBLK
  5
25
330
23
100
AcDbEntity
  8
0
100
AcDbBlockEnd
  0
BLOCK
  5
33
330
32
100
AcDbEntity
  8
0
100
AcDbBlockBegin
  2
a2kl
 70
     0
 71
     0
 10
34.54775959461699
 20
503.043569128378
 30
0.0
  3
a2kl
  1

  0
POINT
  5
5E
330
32
100
AcDbEntity
  8
1
 62
     3
 60
     1
100
AcDbPoint
 10
379.516220065067
 20
519.123704302136
 30
0.0
  0
POINT
  5
5F
330
32
100
AcDbEntity
  8
1
 62
     3
 60
     1
100
AcDbPoint
 10
374.516220065067
 20
519.123704302136
 30
0.0
  0
POINT
  5
60
330
32
100
AcDbEntity
  8
1
 62
     3
 60
     1
100
AcDbPoint
 10
362.547759594617
 20
508.543569128378
 30
0.0
  0
POINT
  5
61
330
32
100
AcDbEntity
  8
1
 62
     3
 60
     1
100
AcDbPoint
 10
389.547759594617
 20
508.543569128378
 30
0.0
  0
POINT
  5
62
330
32
100
AcDbEntity
  8
1
 62
     3
 60
     1
100
AcDbPoint
 10
367.5810606667054
 20
506.793569128378
 30
0.0
  0
POINT
  5
63
330
32
100
AcDbEntity
  8
1
 62
     3
 60
     1
100
AcDbPoint
 10
367.5810606667054
 20
504.793569128378
 30
0.0
  0
POINT
  5
64
330
32
100
AcDbEntity
  8
1
 62
     3
 60
     1
100
AcDbPoint
 10
366.8682185609992
 20
505.793569128378
 30
0.0
  0
POINT
  5
65
330
32
100
AcDbEntity
  8
1
 62
     3
 60
     1
100
AcDbPoint
 10
375.2658697299263
 20
505.793569128378
 30
0.0
  0
POINT
  5
66
330
32
100
AcDbEntity
  8
1
 62
     3
 60
     1
100
AcDbPoint
 10
381.4823128030281
 20
505.793569128378
 30
0.0
  0
POINT
  5
67
330
32
100
AcDbEntity
  8
1
 62
     3
 60
     1
100
AcDbPoint
 10
378.973923492829
 20
505.793569128378
 30
0.0
  0
POINT
  5
68
330
32
100
AcDbEntity
  8
1
 62
     3
 60
     1
100
AcDbPoint
 10
384.1270276192162
 20
505.793569128378
 30
0.0
  0
POINT
  5
69
330
32
100
AcDbEntity
  8
1
 62
     3
 60
     1
100
AcDbPoint
 10
381.4823128030281
 20
503.3710666414879
 30
0.0
  0
POINT
  5
6A
330
32
100
AcDbEntity
  8
1
 62
     3
 60
     1
100
AcDbPoint
 10
381.4823128030281
 20
508.2515197558968
 30
0.0
  0
LINE
  5
6B
330
32
100
AcDbEntity
  8
1
  6
Continuous
 62
     1
100
AcDbLine
 10
374.516220065067
 20
519.123704302136
 30
0.0
 11
379.516220065067
 21
519.123704302136
 31
0.0
  0
LINE
  5
6C
330
32
100
AcDbEntity
  8
0
  6
Continuous
 62
     2
100
AcDbLine
 10
-139.452240405383
 20
795.0435691283781
 30
0.0
 11
-139.452240405383
 21
913.0435691283781
 31
0.0
  0
LINE
  5
6D
330
32
100
AcDbEntity
  8
1
  6
Continuous
 62
     3
100
AcDbLine
 10
-124.452240405383
 20
795.0435691283781
 30
0.0
 11
-139.452240405383
 21
795.0435691283781
 31
0.0
  0
LINE
  5
6E
330
32
100
AcDbEntity
  8
0
  6
Continuous
 62
     3
100
AcDbLine
 10
-124.452240405383
 20
524.5435691283781
 30
0.0
 11
-124.452240405383
 21
795.0435691283781
 31
0.0
  0
LINE
  5
6F
330
32
100
AcDbEntity
  8
0
  6
Continuous
 62
     2
100
AcDbLine
 10
-139.452240405383
 20
503.043569128378
 30
0.0
 11
-139.452240405383
 21
795.0435691283781
 31
0.0
  0
LINE
  5
70
330
32
100
AcDbEntity
  8
0
  6
Continuous
 62
     2
100
AcDbLine
 10
-139.452240405383
 20
913.0435691283781
 30
0.0
 11
444.547759594617
 21
913.0435691283781
 31
0.0
  0
LINE
  5
71
330
32
100
AcDbEntity
  8
1
  6
Continuous
 62
     2
100
AcDbLine
 10
-139.452240405383
 20
503.043569128378
 30
0.0
 11
265.5477595946171
 21
503.043569128378
 31
0.0
  0
LINE
  5
72
330
32
100
AcDbEntity
  8
0
  6
Continuous
 62
     2
100
AcDbLine
 10
444.547759594617
 20
913.0435691283781
 30
0.0
 11
444.547759594617
 21
503.043569128378
 31
0.0
  0
LINE
  5
73
330
32
100
AcDbEntity
  8
0
  6
Continuous
 62
     1
100
AcDbLine
 10
265.5477595946171
 20
503.043569128378
 30
0.0
 11
265.547759594617
 21
546.0435691283781
 31
0.0
  0
LINE
  5
74
330
32
100
AcDbEntity
  8
0
  6
Continuous
 62
     3
100
AcDbLine
 10
271.047759594617
 20
503.043569128378
 30
0.0
 11
271.0477595946172
 21
546.043569128378
 31
0.0
  0
LINE
  5
75
330
32
100
AcDbEntity
  8
0
  6
Continuous
 62
     1
100
AcDbLine
 10
312.547759594617
 20
508.910235793628
 30
0.0
 11
312.547759594617
 21
503.043569128378
 31
0.0
  0
LINE
  5
76
330
32
100
AcDbEntity
  8
0
  6
Continuous
 62
     1
100
AcDbLine
 10
347.547759594617
 20
516.0435691283781
 30
0.0
 11
330.547759594617
 21
516.0435691283781
 31
0.0
  0
LINE
  5
77
330
32
100
AcDbEntity
  8
0
  6
Continuous
 62
     1
100
AcDbLine
 10
330.547759594617
 20
516.0435691283781
 30
0.0
 11
312.547759594617
 21
516.0435691283781
 31
0.0
  0
LINE
  5
78
330
32
100
AcDbEntity
  8
0
  6
Continuous
 62
     1
100
AcDbLine
 10
362.547759594617
 20
522.876902418378
 30
0.0
 11
389.547759594617
 21
522.876902418378
 31
0.0
  0
LINE
  5
79
330
32
100
AcDbEntity
  8
0
  6
Continuous
 62
     1
100
AcDbLine
 10
362.547759594617
 20
529.0435691283781
 30
0.0
 11
444.547759594617
 21
529.0435691283781
 31
0.0
  0
LINE
  5
7A
330
32
100
AcDbEntity
  8
0
  6
Continuous
 62
     1
100
AcDbLine
 10
362.547759594617
 20
529.0435691283781
 30
0.0
 11
362.547759594617
 21
508.543569128378
 31
0.0
  0
LINE
  5
7B
330
32
100
AcDbEntity
  8
0
  6
Continuous
 62
     1
100
AcDbLine
 10
362.547759594617
 20
516.0435691283781
 30
0.0
 11
347.547759594617
 21
516.0435691283781
 31
0.0
  0
LINE
  5
7C
330
32
100
AcDbEntity
  8
0
  6
Continuous
 62
     1
100
AcDbLine
 10
353.547759594617
 20
529.0435691283781
 30
0.0
 11
312.547759594617
 21
529.0435691283781
 31
0.0
  0
LINE
  5
7D
330
32
100
AcDbEntity
  8
0
  6
Continuous
 62
     7
100
AcDbLine
 10
318.607756365207
 20
541.9144013187215
 30
0.0
 11
318.607756365207
 21
541.8026682798576
 31
0.0
  0
LINE
  5
7E
330
32
100
AcDbEntity
  8
0
  6
Continuous
 62
     7
100
AcDbLine
 10
326.707822541169
 20
543.2647762380636
 30
0.0
 11
323.706368632028
 21
543.2647762380636
 31
0.0
  0
LINE
  5
7F
330
32
100
AcDbEntity
  8
0
  6
Continuous
 62
     7
100
AcDbLine
 10
324.940973039488
 20
541.5071532542476
 30
0.0
 11
326.842953700845
 21
542.826569109498
 31
0.0
  0
LINE
  5
80
330
32
100
AcDbEntity
  8
0
  6
Continuous
 62
     7
100
AcDbLine
 10
326.785261411669
 20
541.5071532542476
 30
0.0
 11
324.940973039488
 21
541.5071532542476
 31
0.0
  0
LINE
  5
81
330
32
100
AcDbEntity
  8
0
  6
Continuous
 62
     7
100
AcDbLine
 10
326.842953700845
 20
541.147924203498
 30
0.0
 11
326.842953700845
 21
541.4496064522756
 31
0.0
  0
LINE
  5
82
330
32
100
AcDbEntity
  8
0
  6
Continuous
 62
     7
100
AcDbLine
 10
323.706368632028
 20
541.0903774015262
 30
0.0
 11
326.785261411669
 21
541.0903774015262
 31
0.0
  0
LINE
  5
83
330
32
100
AcDbEntity
  8
0
  6
Continuous
 62
     7
100
AcDbLine
 10
323.648676342852
 20
541.5571532542475
 30
0.0
 11
323.648676342852
 21
541.147924203498
 31
0.0
  0
LINE
  5
84
330
32
100
AcDbEntity
  8
0
  6
Continuous
 62
     7
100
AcDbLine
 10
325.587134613916
 20
542.876277807226
 30
0.0
 11
323.648676342852
 21
541.5571532542475
 31
0.0
  0
LINE
  5
85
330
32
100
AcDbEntity
  8
0
  6
Continuous
 62
     7
100
AcDbLine
 10
323.706368632028
 20
542.876277807226
 30
0.0
 11
325.587134613916
 21
542.876277807226
 31
0.0
  0
LINE
  5
86
330
32
100
AcDbEntity
  8
0
  6
Continuous
 62
     7
100
AcDbLine
 10
323.648676342852
 20
543.2070839488885
 30
0.0
 11
323.648676342852
 21
542.9339700964011
 31
0.0
  0
LINE
  5
87
330
32
100
AcDbEntity
  8
0
  6
Continuous
 62
     7
100
AcDbLine
 10
320.754803607518
 20
542.4218842060227
 30
0.0
 11
320.754803607518
 21
542.819934581209
 31
0.0
  0
LINE
  5
88
330
32
100
AcDbEntity
  8
0
  6
Continuous
 62
     7
100
AcDbLine
 10
323.127117945023
 20
542.3655409800057
 30
0.0
 11
320.812509122803
 21
542.3655409800057
 31
0.0
  0
LINE
  5
89
330
32
100
AcDbEntity
  8
0
  6
Continuous
 62
     7
100
AcDbLine
 10
323.127117945023
 20
542.0225192197555
 30
0.0
 11
323.127117945023
 21
542.3655409800057
 31
0.0
  0
LINE
  5
8A
330
32
100
AcDbEntity
  8
0
  6
Continuous
 62
     7
100
AcDbLine
 10
320.812509122803
 20
542.0225192197555
 30
0.0
 11
323.127117945023
 21
542.0225192197555
 31
0.0
  0
LINE
  5
8B
330
32
100
AcDbEntity
  8
0
  6
Continuous
 62
     7
100
AcDbLine
 10
323.127117945023
 20
541.5071532542476
 30
0.0
 11
320.812509122803
 21
541.5071532542476
 31
0.0
  0
LINE
  5
8C
330
32
100
AcDbEntity
  8
0
  6
Continuous
 62
     7
100
AcDbLine
 10
323.127117945023
 20
541.0910122547771
 30
0.0
 11
323.127117945023
 21
541.5071532542476
 31
0.0
  0
LINE
  5
8D
330
32
100
AcDbEntity
  8
0
  6
Continuous
 62
     7
100
AcDbLine
 10
320.047894512646
 20
541.0910122547771
 30
0.0
 11
323.127117945023
 21
541.0910122547771
 31
0.0
  0
LINE
  5
8E
330
32
100
AcDbEntity
  8
0
  6
Continuous
 62
     7
100
AcDbLine
 10
319.910210713858
 20
543.1270924392755
 30
0.0
 11
319.910210713858
 21
541.2286960535653
 31
0.0
  0
LINE
  5
8F
330
32
100
AcDbEntity
  8
0
  6
Continuous
 62
     7
100
AcDbLine
 10
323.127117945023
 20
543.2647762380636
 30
0.0
 11
320.047894512646
 21
543.2647762380636
 31
0.0
  0
LINE
  5
90
330
32
100
AcDbEntity
  8
0
  6
Continuous
 62
     7
100
AcDbLine
 10
323.127117945023
 20
542.876277807226
 30
0.0
 11
323.127117945023
 21
543.2647762380636
 31
0.0
  0
LINE
  5
91
330
32
100
AcDbEntity
  8
0
  6
Continuous
 62
     7
100
AcDbLine
 10
320.812509122803
 20
542.876277807226
 30
0.0
 11
323.127117945023
 21
542.876277807226
 31
0.0
  0
LINE
  5
92
330
32
100
AcDbEntity
  8
0
  6
Continuous
 62
     7
100
AcDbLine
 10
317.794654838013
 20
542.3155409800057
 30
0.0
 11
317.794654838013
 21
541.9725192197556
 31
0.0
  0
LINE
  5
93
330
32
100
AcDbEntity
  8
0
  6
Continuous
 62
     7
100
AcDbLine
 10
319.400793884451
 20
542.3155409800057
 30
0.0
 11
317.794654838013
 21
542.3155409800057
 31
0.0
  0
LINE
  5
94
330
32
100
AcDbEntity
  8
0
  6
Continuous
 62
     7
100
AcDbLine
 10
319.400793884451
 20
541.5558438694176
 30
0.0
 11
319.400793884451
 21
542.3155409800057
 31
0.0
  0
LINE
  5
95
330
32
100
AcDbEntity
  8
0
  6
Continuous
 62
     7
100
AcDbLine
 10
318.792392852343
 20
543.2647762380636
 30
0.0
 11
316.815354020177
 21
543.2647762380636
 31
0.0
  0
LINE
  5
96
330
32
100
AcDbEntity
  8
0
  6
Continuous
 62
     7
100
AcDbLine
 10
319.400793884451
 20
542.6075840884017
 30
0.0
 11
319.400793884451
 21
542.795302259026
 31
0.0
  0
LINE
  5
97
330
32
100
AcDbEntity
  8
0
  6
Continuous
 62
     7
100
AcDbLine
 10
318.606923120315
 20
542.6075840884017
 30
0.0
 11
319.400793884451
 21
542.6075840884017
 31
0.0
  0
LINE
  5
98
330
32
100
AcDbEntity
  8
0
  6
Continuous
 62
     7
100
AcDbLine
 10
318.606923120315
 20
542.6876285024522
 30
0.0
 11
318.606923120315
 21
542.6075840884017
 31
0.0
  0
LINE
  5
99
330
32
100
AcDbEntity
  8
0
  6
Continuous
 62
     7
100
AcDbLine
 10
317.794654838013
 20
541.9725192197556
 30
0.0
 11
318.548291777373
 21
541.9725192197556
 31
0.0
  0
LINE
  5
9A
330
32
100
AcDbEntity
  8
0
  6
Continuous
 62
     7
100
AcDbLine
 10
315.379435001635
 20
543.4882710345977
 30
0.0
 11
315.379435001635
 21
540.8628750938458
 31
0.0
  0
LINE
  5
9B
330
32
100
AcDbEntity
  8
0
  6
Continuous
 62
     7
100
AcDbLine
 10
331.230636135537
 20
543.6247909357592
 30
0.0
 11
315.515954902797
 21
543.6247909357592
 31
0.0
  0
LINE
  5
9C
330
32
100
AcDbEntity
  8
0
  6
Continuous
 62
     7
100
AcDbLine
 10
331.367156036698
 20
540.8628750938458
 30
0.0
 11
331.367156036698
 21
543.4882710345977
 31
0.0
  0
LINE
  5
9D
330
32
100
AcDbEntity
  8
0
  6
Continuous
 62
     7
100
AcDbLine
 10
314.520994371439
 20
540.772540766687
 30
0.0
 11
314.520994371439
 21
543.5786053617564
 31
0.0
  0
LINE
  5
9E
330
32
100
AcDbEntity
  8
0
  6
Continuous
 62
     7
100
AcDbLine
 10
331.616362389894
 20
540.3017574028195
 30
0.0
 11
315.13022864844
 21
540.3017574028195
 31
0.0
  0
LINE
  5
9F
330
32
100
AcDbEntity
  8
0
  6
Continuous
 62
     7
100
AcDbLine
 10
332.225596666894
 20
543.5786053617564
 30
0.0
 11
332.225596666894
 21
540.772540766687
 31
0.0
  0
LINE
  5
A0
330
32
100
AcDbEntity
  8
0
  6
Continuous
 62
     7
100
AcDbLine
 10
315.13022864844
 20
544.049388725624
 30
0.0
 11
331.616362389894
 21
544.049388725624
 31
0.0
  0
LINE
  5
A1
330
32
100
AcDbEntity
  8
0
  6
Continuous
 62
     7
100
AcDbLine
 10
331.230636135537
 20
540.7263551926844
 30
0.0
 11
315.515954902797
 21
540.7263551926844
 31
0.0
  0
LINE
  5
A2
330
32
100
AcDbEntity
  8
0
  6
Continuous
 62
     7
100
AcDbLine
 10
317.193290096101
 20
542.825034552943
 30
0.0
 11
318.468617694386
 21
542.825034552943
 31
0.0
  0
LINE
  5
A3
330
32
100
AcDbEntity
  8
0
  6
Continuous
 62
     7
100
AcDbLine
 10
317.193290096101
 20
541.5657251431956
 30
0.0
 11
318.471633247328
 21
541.5657251431956
 31
0.0
  0
LINE
  5
A4
330
32
100
AcDbEntity
  8
0
  6
Continuous
 62
     7
100
AcDbLine
 10
317.051082967901
 20
542.6870465536389
 30
0.0
 11
317.051082967901
 21
541.7037131424997
 31
0.0
  0
LINE
  5
A5
330
32
100
AcDbEntity
  8
0
  6
Continuous
 62
     7
100
AcDbLine
 10
316.206952988069
 20
542.795302259026
 30
0.0
 11
316.206952988069
 21
541.5558438694176
 31
0.0
  0
LINE
  5
A6
330
32
100
AcDbEntity
  8
0
  6
Continuous
 62
     7
100
AcDbLine
 10
316.815354020177
 20
541.08636989038
 30
0.0
 11
318.792392852343
 21
541.08636989038
 31
0.0
  0
LINE
  5
A7
330
32
100
AcDbEntity
  8
0
  6
Continuous
 62
     7
100
AcDbLine
 10
320.754803607518
 20
541.5634964802645
 30
0.0
 11
320.754803607518
 21
541.9661759937385
 31
0.0
  0
LINE
  5
A8
330
32
100
AcDbEntity
  8
0
  6
Continuous
 62
     7
100
AcDbLine
 10
328.167310486651
 20
542.4218842060227
 30
0.0
 11
328.167310486651
 21
542.819934581209
 31
0.0
  0
LINE
  5
A9
330
32
100
AcDbEntity
  8
0
  6
Continuous
 62
     7
100
AcDbLine
 10
330.539624824155
 20
542.3655409800057
 30
0.0
 11
328.225016001936
 21
542.3655409800057
 31
0.0
  0
LINE
  5
AA
330
32
100
AcDbEntity
  8
0
  6
Continuous
 62
     7
100
AcDbLine
 10
330.539624824155
 20
542.0225192197555
 30
0.0
 11
330.539624824155
 21
542.3655409800057
 31
0.0
  0
LINE
  5
AB
330
32
100
AcDbEntity
  8
0
  6
Continuous
 62
     7
100
AcDbLine
 10
328.225016001936
 20
542.0225192197555
 30
0.0
 11
330.539624824155
 21
542.0225192197555
 31
0.0
  0
LINE
  5
AC
330
32
100
AcDbEntity
  8
0
  6
Continuous
 62
     7
100
AcDbLine
 10
330.539624824155
 20
541.5071532542476
 30
0.0
 11
328.225016001936
 21
541.5071532542476
 31
0.0
  0
LINE
  5
AD
330
32
100
AcDbEntity
  8
0
  6
Continuous
 62
     7
100
AcDbLine
 10
330.539624824155
 20
541.0910122547771
 30
0.0
 11
330.539624824155
 21
541.5071532542476
 31
0.0
  0
LINE
  5
AE
330
32
100
AcDbEntity
  8
0
  6
Continuous
 62
     7
100
AcDbLine
 10
327.460401391779
 20
541.0910122547771
 30
0.0
 11
330.539624824155
 21
541.0910122547771
 31
0.0
  0
LINE
  5
AF
330
32
100
AcDbEntity
  8
0
  6
Continuous
 62
     7
100
AcDbLine
 10
327.32271759299
 20
543.1270924392755
 30
0.0
 11
327.32271759299
 21
541.2286960535653
 31
0.0
  0
LINE
  5
B0
330
32
100
AcDbEntity
  8
0
  6
Continuous
 62
     7
100
AcDbLine
 10
330.539624824155
 20
543.2647762380636
 30
0.0
 11
327.460401391779
 21
543.2647762380636
 31
0.0
  0
LINE
  5
B1
330
32
100
AcDbEntity
  8
0
  6
Continuous
 62
     7
100
AcDbLine
 10
330.539624824155
 20
542.876277807226
 30
0.0
 11
330.539624824155
 21
543.2647762380636
 31
0.0
  0
LINE
  5
B2
330
32
100
AcDbEntity
  8
0
  6
Continuous
 62
     7
100
AcDbLine
 10
328.225016001936
 20
542.876277807226
 30
0.0
 11
330.539624824155
 21
542.876277807226
 31
0.0
  0
LINE
  5
B3
330
32
100
AcDbEntity
  8
0
  6
Continuous
 62
     7
100
AcDbLine
 10
328.167310486651
 20
541.5634964802645
 30
0.0
 11
328.167310486651
 21
541.9661759937385
 31
0.0
  0
LINE
  5
B4
330
32
100
AcDbEntity
  8
0
  6
Continuous
 62
     7
100
AcDbLine
 10
326.842953700845
 20
542.826569109498
 30
0.0
 11
326.842953700845
 21
543.1255846628047
 31
0.0
  0
LINE
  5
B5
330
32
100
AcDbEntity
  8
0
  6
Continuous
 62
     1
100
AcDbLine
 10
353.547759594617
 20
542.0199073897841
 30
0.0
 11
353.547759594617
 21
534.0435691283781
 31
0.0
  0
LINE
  5
B6
330
32
100
AcDbEntity
  8
0
  6
Continuous
 62
     1
100
AcDbLine
 10
265.5477595946171
 20
503.043569128378
 30
0.0
 11
265.547759594617
 21
546.0435691283781
 31
0.0
  0
LINE
  5
B7
330
32
100
AcDbEntity
  8
0
  6
Continuous
 62
     1
100
AcDbLine
 10
389.547759594617
 20
503.043569128378
 30
0.0
 11
389.547759594617
 21
508.543569128378
 31
0.0
  0
LINE
  5
B8
330
32
100
AcDbEntity
  8
0
  6
Continuous
 62
     1
100
AcDbLine
 10
312.547759594617
 20
546.0435691283781
 30
0.0
 11
312.547759594617
 21
534.0435691283781
 31
0.0
  0
LINE
  5
B9
330
32
100
AcDbEntity
  8
0
  6
Continuous
 62
     1
100
AcDbLine
 10
444.547759594617
 20
516.0435691283781
 30
0.0
 11
389.547759594617
 21
516.0435691283781
 31
0.0
  0
LINE
  5
BA
330
32
100
AcDbEntity
  8
0
  6
Continuous
 62
     1
100
AcDbLine
 10
353.547759594617
 20
546.0435691283781
 30
0.0
 11
353.547759594617
 21
542.0199073897841
 31
0.0
  0
LINE
  5
BB
330
32
100
AcDbEntity
  8
0
  6
Continuous
 62
     1
100
AcDbLine
 10
353.547759594617
 20
529.0435691283781
 30
0.0
 11
362.547759594617
 21
529.0435691283781
 31
0.0
  0
LINE
  5
BC
330
32
100
AcDbEntity
  8
0
  6
Continuous
 62
     1
100
AcDbLine
 10
353.547759594617
 20
546.0435691283781
 30
0.0
 11
265.547759594617
 21
546.0435691283781
 31
0.0
  0
LINE
  5
BD
330
32
100
AcDbEntity
  8
0
  6
Continuous
 62
     3
100
AcDbLine
 10
312.547759594617
 20
509.543569128378
 30
0.0
 11
362.547759594617
 21
509.543569128378
 31
0.0
  0
LINE
  5
BE
330
32
100
AcDbEntity
  8
0
  6
Continuous
 62
     1
100
AcDbLine
 10
312.547759594617
 20
533.0435691283781
 30
0.0
 11
312.547759594617
 21
533.1441580073395
 31
0.0
  0
LINE
  5
BF
330
32
100
AcDbEntity
  8
0
  6
Continuous
 62
     1
100
AcDbLine
 10
353.547759594617
 20
546.0435691283781
 30
0.0
 11
444.547759594617
 21
546.0435691283781
 31
0.0
  0
LINE
  5
C0
330
32
100
AcDbEntity
  8
0
  6
Continuous
 62
     2
100
AcDbLine
 10
444.547759594617
 20
546.0435691283781
 30
0.0
 11
444.547759594617
 21
503.043569128378
 31
0.0
  0
LINE
  5
C1
330
32
100
AcDbEntity
  8
0
  6
Continuous
 62
     1
100
AcDbLine
 10
389.547759594617
 20
516.010235708378
 30
0.0
 11
362.547759594617
 21
516.010235708378
 31
0.0
  0
LINE
  5
C2
330
32
100
AcDbEntity
  8
0
  6
Continuous
 62
     3
100
AcDbLine
 10
347.547759594617
 20
516.0435691283781
 30
0.0
 11
347.547759594617
 21
529.0435753613044
 31
0.0
  0
LINE
  5
C3
330
32
100
AcDbEntity
  8
0
  6
Continuous
 62
     3
100
AcDbLine
 10
330.547759594617
 20
516.0435691283781
 30
0.0
 11
330.547759594617
 21
529.0435691283781
 31
0.0
  0
LINE
  5
C4
330
32
100
AcDbEntity
  8
0
  6
Continuous
 62
     3
100
AcDbLine
 10
312.547759594617
 20
524.643569128378
 30
0.0
 11
362.547759594617
 21
524.643569128378
 31
0.0
  0
LINE
  5
C5
330
32
100
AcDbEntity
  8
0
  6
Continuous
 62
     3
100
AcDbLine
 10
362.547759594617
 20
520.343569128378
 30
0.0
 11
312.547759594617
 21
520.343569128378
 31
0.0
  0
LINE
  5
C6
330
32
100
AcDbEntity
  8
0
  6
Continuous
 62
     3
100
AcDbLine
 10
298.547759594617
 20
503.043569128378
 30
0.0
 11
298.547759594617
 21
546.0435691283781
 31
0.0
  0
LINE
  5
C7
330
32
100
AcDbEntity
  8
0
  6
Continuous
 62
     3
100
AcDbLine
 10
290.547759594617
 20
503.043569128378
 30
0.0
 11
290.547759594617
 21
546.0435691283781
 31
0.0
  0
LINE
  5
C8
330
32
100
AcDbEntity
  8
0
  6
Continuous
 62
     3
100
AcDbLine
 10
278.547759594617
 20
503.043569128378
 30
0.0
 11
278.547759594617
 21
546.0435691283781
 31
0.0
  0
LINE
  5
C9
330
32
100
AcDbEntity
  8
0
  6
Continuous
 62
     3
100
AcDbLine
 10
265.547759594617
 20
541.743566128378
 30
0.0
 11
312.547759594617
 21
541.743566128378
 31
0.0
  0
LINE
  5
CA
330
32
100
AcDbEntity
  8
0
  6
Continuous
 62
     3
100
AcDbLine
 10
312.547759594617
 20
537.443563128378
 30
0.0
 11
265.547759594617
 21
537.443563128378
 31
0.0
  0
LINE
  5
CB
330
32
100
AcDbEntity
  8
0
  6
Continuous
 62
     3
100
AcDbLine
 10
265.547759594617
 20
533.143560128378
 30
0.0
 11
312.547759594617
 21
533.143560128378
 31
0.0
  0
LINE
  5
CC
330
32
100
AcDbEntity
  8
0
  6
Continuous
 62
     3
100
AcDbLine
 10
312.547759594617
 20
528.843557128378
 30
0.0
 11
265.547759594617
 21
528.843557128378
 31
0.0
  0
LINE
  5
CD
330
32
100
AcDbEntity
  8
0
  6
Continuous
 62
     3
100
AcDbLine
 10
265.547759594617
 20
524.5435691283781
 30
0.0
 11
312.547759594617
 21
524.5435691283781
 31
0.0
  0
LINE
  5
CE
330
32
100
AcDbEntity
  8
0
  6
Continuous
 62
     3
100
AcDbLine
 10
312.547759594617
 20
520.243566128378
 30
0.0
 11
265.547759594617
 21
520.243566128378
 31
0.0
  0
LINE
  5
CF
330
32
100
AcDbEntity
  8
0
  6
Continuous
 62
     3
100
AcDbLine
 10
265.547759594617
 20
515.943563128378
 30
0.0
 11
312.547759594617
 21
515.943563128378
 31
0.0
  0
LINE
  5
D0
330
32
100
AcDbEntity
  8
0
  6
Continuous
 62
     3
100
AcDbLine
 10
312.547759594617
 20
511.643560128378
 30
0.0
 11
265.547759594617
 21
511.643560128378
 31
0.0
  0
LINE
  5
D1
330
32
100
AcDbEntity
  8
0
  6
Continuous
 62
     4
100
AcDbLine
 10
265.547759594617
 20
507.343572128378
 30
0.0
 11
312.547759594617
 21
507.343572128378
 31
0.0
  0
LINE
  5
D2
330
32
100
AcDbEntity
  8
0
  6
Continuous
 62
     2
100
AcDbLine
 10
444.547759594617
 20
503.043569128378
 30
0.0
 11
265.5477595946171
 21
503.043569128378
 31
0.0
  0
LINE
  5
D3
330
32
100
AcDbEntity
  8
0
  6
Continuous
 62
     1
100
AcDbLine
 10
312.547759594617
 20
534.0435691283781
 30
0.0
 11
353.547759594617
 21
534.0435691283781
 31
0.0
  0
LINE
  5
D4
330
32
100
AcDbEntity
  8
0
  6
Continuous
 62
     1
100
AcDbLine
 10
353.547759594617
 20
534.0435691283781
 30
0.0
 11
353.547759594617
 21
529.0435691283781
 31
0.0
  0
LINE
  5
D5
330
32
100
AcDbEntity
  8
0
  6
Continuous
 62
     1
100
AcDbLine
 10
312.547759594617
 20
534.0435691283781
 30
0.0
 11
312.547759594617
 21
508.910235793628
 31
0.0
  0
LINE
  5
D6
330
32
100
AcDbEntity
  8
1
  6
Continuous
 62
     1
100
AcDbLine
 10
362.547759594617
 20
508.543569128378
 30
0.0
 11
389.547759594617
 21
508.543569128378
 31
0.0
  0
LINE
  5
D7
330
32
100
AcDbEntity
  8
0
  6
Continuous
 62
     1
100
AcDbLine
 10
362.547759594617
 20
508.543569128378
 30
0.0
 11
362.547759594617
 21
503.043569128378
 31
0.0
  0
LINE
  5
D8
330
32
100
AcDbEntity
  8
0
  6
Continuous
 62
     1
100
AcDbLine
 10
389.547759594617
 20
508.543569128378
 30
0.0
 11
389.547759594617
 21
529.0435691283781
 31
0.0
  0
LINE
  5
D9
330
32
100
AcDbEntity
  8
1
  6
Continuous
 62
     4
100
AcDbLine
 10
367.5810606667054
 20
506.793569128378
 30
0.0
 11
374.5810606667054
 21
507.793569128378
 31
0.0
  0
LINE
  5
DA
330
32
100
AcDbEntity
  8
1
  6
Continuous
 62
     4
100
AcDbLine
 10
374.5810606667054
 20
507.793569128378
 30
0.0
 11
374.5810606667054
 21
503.793569128378
 31
0.0
  0
LINE
  5
DB
330
32
100
AcDbEntity
  8
1
  6
Continuous
 62
     4
100
AcDbLine
 10
374.5810606667054
 20
503.793569128378
 30
0.0
 11
367.5810606667054
 21
504.793569128378
 31
0.0
  0
LINE
  5
DC
330
32
100
AcDbEntity
  8
1
  6
Continuous
 62
     4
100
AcDbLine
 10
367.5810606667054
 20
504.793569128378
 30
0.0
 11
367.5810606667054
 21
506.793569128378
 31
0.0
  0
LINE
  5
DD
330
32
100
AcDbEntity
  8
1
  6
DOT_CENTER
 62
     7
100
AcDbLine
 10
366.8682185609992
 20
505.793569128378
 30
0.0
 11
375.2658697299263
 21
505.793569128378
 31
0.0
  0
LINE
  5
DE
330
32
100
AcDbEntity
  8
1
  6
DOT_CENTER
 62
     7
100
AcDbLine
 10
378.973923492829
 20
505.793569128378
 30
0.0
 11
384.1270276192162
 21
505.793569128378
 31
0.0
  0
LINE
  5
DF
330
32
100
AcDbEntity
  8
1
  6
DOT_CENTER
 62
     7
100
AcDbLine
 10
381.4823128030281
 20
503.3710666414879
 30
0.0
 11
381.4823128030281
 21
508.2515197558968
 31
0.0
  0
LINE
  5
E0
330
32
100
AcDbEntity
  8
0
  6
Continuous
 62
     1
100
AcDbLine
 10
265.5477595946171
 20
503.043569128378
 30
0.0
 11
265.547759594617
 21
546.0435691283781
 31
0.0
  0
ARC
  5
E1
330
32
100
AcDbEntity
  8
0
  6
Continuous
 62
     7
100
AcDbCircle
 10
315.515954902797
 20
543.4882710345977
 30
0.0
 40
0.1365199011614777
100
AcDbArc
 50
90.0
 51
180.0
  0
ARC
  5
E2
330
32
100
AcDbEntity
  8
0
  6
Continuous
 62
     7
100
AcDbCircle
 10
315.515954902797
 20
540.8628750938458
 30
0.0
 40
0.1365199011619893
100
AcDbArc
 50
180.0
 51
-90.0
  0
ARC
  5
E3
330
32
100
AcDbEntity
  8
0
  6
Continuous
 62
     7
100
AcDbCircle
 10
331.230636135537
 20
543.4882710345977
 30
0.0
 40
0.136519901161023
100
AcDbArc
 50
0.0
 51
90.0
  0
ARC
  5
E4
330
32
100
AcDbEntity
  8
0
  6
Continuous
 62
     7
100
AcDbCircle
 10
331.230636135537
 20
540.8628750938458
 30
0.0
 40
0.136519901161364
100
AcDbArc
 50
-90.0
 51
0.0
  0
ARC
  5
E5
330
32
100
AcDbEntity
  8
0
  6
Continuous
 62
     7
100
AcDbCircle
 10
318.548291777373
 20
541.913039029454
 30
0.0
 40
0.0594801903016536
100
AcDbArc
 50
1.31237392904349
 51
90.0
  0
ARC
  5
E6
330
32
100
AcDbEntity
  8
0
  6
Continuous
 62
     7
100
AcDbCircle
 10
320.811702610329
 20
542.4224369516227
 30
0.0
 40
0.0569016875723856
100
AcDbArc
 50
-179.4434174191858
 51
-89.18787455653725
  0
ARC
  5
E7
330
32
100
AcDbEntity
  8
0
  6
Continuous
 62
     7
100
AcDbCircle
 10
320.811702610329
 20
542.8193818356091
 30
0.0
 40
0.0569016875725121
100
AcDbArc
 50
89.18787455653562
 51
179.4434174191858
  0
ARC
  5
E8
330
32
100
AcDbEntity
  8
0
  6
Continuous
 62
     7
100
AcDbCircle
 10
320.811702610329
 20
541.9656232481386
 30
0.0
 40
0.0569016875725121
100
AcDbArc
 50
89.18787455653562
 51
179.4434174193002
  0
ARC
  5
E9
330
32
100
AcDbEntity
  8
0
  6
Continuous
 62
     7
100
AcDbCircle
 10
320.811702610329
 20
541.5640492258644
 30
0.0
 40
0.0569016875723856
100
AcDbArc
 50
-179.4434174191858
 51
-89.18787455653562
  0
ARC
  5
EA
330
32
100
AcDbEntity
  8
0
  6
Continuous
 62
     7
100
AcDbCircle
 10
328.224209489462
 20
542.4224369516227
 30
0.0
 40
0.0569016875723856
100
AcDbArc
 50
-179.4434174191858
 51
-89.18787455653725
  0
ARC
  5
EB
330
32
100
AcDbEntity
  8
0
  6
Continuous
 62
     7
100
AcDbCircle
 10
328.224209489462
 20
542.8193818356091
 30
0.0
 40
0.0569016875725121
100
AcDbArc
 50
89.18787455653562
 51
179.4434174191858
  0
ARC
  5
EC
330
32
100
AcDbEntity
  8
0
  6
Continuous
 62
     7
100
AcDbCircle
 10
328.224209489462
 20
541.9656232481386
 30
0.0
 40
0.0569016875725121
100
AcDbArc
 50
89.18787455653562
 51
179.4434174193002
  0
ARC
  5
ED
330
32
100
AcDbEntity
  8
0
  6
Continuous
 62
     7
100
AcDbCircle
 10
328.224209489462
 20
541.5640492258644
 30
0.0
 40
0.0569016875723856
100
AcDbArc
 50
-179.4434174191858
 51
-89.18787455653562
  0
ARC
  5
EE
330
32
100
AcDbEntity
  8
0
  6
Continuous
 62
     7
100
AcDbCircle
 10
323.706368632028
 20
543.2070839488885
 30
0.0
 40
0.0576922891751792
100
AcDbArc
 50
90.0
 51
180.0
  0
ARC
  5
EF
330
32
100
AcDbEntity
  8
0
  6
Continuous
 62
     7
100
AcDbCircle
 10
323.706368632028
 20
542.9339700964011
 30
0.0
 40
0.057692289175975
100
AcDbArc
 50
180.0
 51
-90.0
  0
ARC
  5
F0
330
32
100
AcDbEntity
  8
0
  6
Continuous
 62
     7
100
AcDbCircle
 10
323.706295888426
 20
541.1479969470997
 30
0.0
 40
0.0576195914926728
100
AcDbArc
 50
-179.9276651852678
 51
-89.92766518504109
  0
ARC
  5
F1
330
32
100
AcDbEntity
  8
0
  6
Continuous
 62
     7
100
AcDbCircle
 10
326.785334155271
 20
541.1479969470997
 30
0.0
 40
0.0576195914922183
100
AcDbArc
 50
-90.07233481495891
 51
-0.07233481473224
  0
ARC
  5
F2
330
32
100
AcDbEntity
  8
0
  6
Continuous
 62
     7
100
AcDbCircle
 10
326.785334155271
 20
541.4495337086739
 30
0.0
 40
0.0576195914926727
100
AcDbArc
 50
0.07233481461919
 51
90.07233481495877
  0
CIRCLE
  5
F3
330
32
100
AcDbEntity
  8
1
  6
Continuous
 62
     4
100
AcDbCircle
 10
381.4823128030281
 20
505.793569128378
 30
0.0
 40
1.0
  0
CIRCLE
  5
F4
330
32
100
AcDbEntity
  8
1
  6
Continuous
 62
     4
100
AcDbCircle
 10
381.4823128030281
 20
505.793569128378
 30
0.0
 40
2.0
  0
SPLINE
  5
F5
330
32
100
AcDbEntity
  8
0
  6
Continuous
 62
     7
100
AcDbSpline
210
0.0
220
0.0
230
1.0
 70
     8
 71
     3
 72
    13
 73
     9
 74
     7
 42
0.0000000001
 43
0.0000000001
 44
0.00000001
 40
0.0
 40
0.0
 40
0.0
 40
0.0
 40
0.160194710955869
 40
0.3210951627356592
 40
0.4607710778824361
 40
0.6002079329854209
 40
0.7244156662364014
 40
0.8468166043874757
 40
0.8468166043874757
 40
0.8468166043874757
 40
0.8468166043874757
 10
315.13022864844
 20
544.049388725624
 30
0.0
 10
315.0767244087816
 20
544.0461477594612
 30
0.0
 10
314.969480215527
 20
544.0396515489982
 30
0.0
 10
314.8225823177634
 20
543.9888561305476
 30
0.0
 10
314.6956223547224
 20
543.9130961684004
 30
0.0
 10
314.6007532386087
 20
543.816115437747
 30
0.0
 10
314.5353180003685
 20
543.7019086363417
 30
0.0
 10
314.5257455366481
 20
543.6195052085237
 30
0.0
 10
314.520994371439
 20
543.5786053617564
 30
0.0
 11
315.13022864844
 21
544.049388725624
 31
0.0
 11
314.970929629962
 21
544.0324722209562
 31
0.0
 11
314.8184231194842
 21
543.9811816794809
 31
0.0
 11
314.6992800841012
 21
543.9082824449731
 31
0.0
 11
314.602017517585
 21
543.8083693341433
 31
0.0
 11
314.5431872489058
 21
543.6989775589201
 31
0.0
 11
314.520994371439
 21
543.5786053617564
 31
0.0
  0
SPLINE
  5
F6
330
32
100
AcDbEntity
  8
0
  6
Continuous
 62
     7
100
AcDbSpline
210
0.0
220
0.0
230
1.0
 70
     8
 71
     3
 72
    13
 73
     9
 74
     7
 42
0.0000000001
 43
0.0000000001
 44
0.00000001
 40
0.0
 40
0.0
 40
0.0
 40
0.0
 40
0.160194710955869
 40
0.3210951627356592
 40
0.4607710778824361
 40
0.6002079329855023
 40
0.7244156662364829
 40
0.8468166043874454
 40
0.8468166043874454
 40
0.8468166043874454
 40
0.8468166043874454
 10
315.13022864844
 20
540.3017574028195
 30
0.0
 10
315.0767244087816
 20
540.3049983689822
 30
0.0
 10
314.969480215527
 20
540.3114945794456
 30
0.0
 10
314.8225823177634
 20
540.3622899978955
 30
0.0
 10
314.6956223547224
 20
540.4380499600433
 30
0.0
 10
314.6007532386087
 20
540.5350306906967
 30
0.0
 10
314.5353180003686
 20
540.6492374921017
 30
0.0
 10
314.5257455366481
 20
540.7316409199198
 30
0.0
 10
314.520994371439
 20
540.772540766687
 30
0.0
 11
315.13022864844
 21
540.3017574028195
 31
0.0
 11
314.970929629962
 21
540.3186739074873
 31
0.0
 11
314.8184231194842
 21
540.3699644489626
 31
0.0
 11
314.6992800841012
 21
540.4428636834704
 31
0.0
 11
314.602017517585
 21
540.5427767943003
 31
0.0
 11
314.5431872489058
 21
540.6521685695235
 31
0.0
 11
314.520994371439
 21
540.772540766687
 31
0.0
  0
SPLINE
  5
F7
330
32
100
AcDbEntity
  8
0
  6
Continuous
 62
     7
100
AcDbSpline
210
0.0
220
0.0
230
1.0
 70
     8
 71
     3
 72
    13
 73
     9
 74
     7
 42
0.0000000001
 43
0.0000000001
 44
0.00000001
 40
0.0
 40
0.0
 40
0.0
 40
0.0
 40
0.160194710955869
 40
0.3210951627356592
 40
0.4607710778823392
 40
0.6002079329853262
 40
0.7244156662360375
 40
0.8468166043869587
 40
0.8468166043869587
 40
0.8468166043869587
 40
0.8468166043869587
 10
331.616362389894
 20
540.3017574028195
 30
0.0
 10
331.6698666295523
 20
540.3049983689822
 30
0.0
 10
331.7771108228072
 20
540.3114945794455
 30
0.0
 10
331.9240087205703
 20
540.3622899978956
 30
0.0
 10
332.0509686836115
 20
540.438049960043
 30
0.0
 10
332.1458377997251
 20
540.5350306906965
 30
0.0
 10
332.2112730379645
 20
540.6492374921019
 30
0.0
 10
332.2208455016849
 20
540.7316409199198
 30
0.0
 10
332.225596666894
 20
540.772540766687
 30
0.0
 11
331.616362389894
 21
540.3017574028195
 31
0.0
 11
331.775661408372
 21
540.3186739074873
 31
0.0
 11
331.9281679188498
 21
540.3699644489626
 31
0.0
 11
332.0473109542327
 21
540.4428636834704
 31
0.0
 11
332.1445735207488
 21
540.5427767943003
 31
0.0
 11
332.2034037894273
 21
540.6521685695235
 31
0.0
 11
332.225596666894
 21
540.772540766687
 31
0.0
  0
SPLINE
  5
F8
330
32
100
AcDbEntity
  8
0
  6
Continuous
 62
     7
100
AcDbSpline
210
0.0
220
0.0
230
1.0
 70
     8
 71
     3
 72
    13
 73
     9
 74
     7
 42
0.0000000001
 43
0.0000000001
 44
0.00000001
 40
0.0
 40
0.0
 40
0.0
 40
0.0
 40
0.160194710955869
 40
0.3210951627356592
 40
0.4607710778823392
 40
0.6002079329852447
 40
0.724415666235956
 40
0.8468166043869891
 40
0.8468166043869891
 40
0.8468166043869891
 40
0.8468166043869891
 10
331.616362389894
 20
544.049388725624
 30
0.0
 10
331.6698666295523
 20
544.0461477594612
 30
0.0
 10
331.7771108228071
 20
544.0396515489981
 30
0.0
 10
331.9240087205704
 20
543.9888561305479
 30
0.0
 10
332.0509686836115
 20
543.9130961684003
 30
0.0
 10
332.1458377997251
 20
543.8161154377472
 30
0.0
 10
332.2112730379645
 20
543.7019086363416
 30
0.0
 10
332.2208455016849
 20
543.6195052085236
 30
0.0
 10
332.225596666894
 20
543.5786053617564
 30
0.0
 11
331.616362389894
 21
544.049388725624
 31
0.0
 11
331.775661408372
 21
544.0324722209562
 31
0.0
 11
331.9281679188498
 21
543.9811816794809
 31
0.0
 11
332.0473109542327
 21
543.9082824449731
 31
0.0
 11
332.1445735207488
 21
543.8083693341433
 31
0.0
 11
332.2034037894273
 21
543.6989775589201
 31
0.0
 11
332.225596666894
 21
543.5786053617564
 31
0.0
  0
SPLINE
  5
F9
330
32
100
AcDbEntity
  8
0
  6
Continuous
 62
     7
100
AcDbSpline
210
0.0
220
0.0
230
1.0
 70
     8
 71
     3
 72
    13
 73
     9
 74
     7
 42
0.0000000001
 43
0.0000000001
 44
0.00000001
 40
0.0
 40
0.0
 40
0.0
 40
0.0
 40
0.1486423989487408
 40
0.2982382234602721
 40
0.4390496453782157
 40
0.5790300758309495
 40
0.7141201510145345
 40
0.8476890380265727
 40
0.8476890380265727
 40
0.8476890380265727
 40
0.8476890380265727
 10
316.815354020177
 20
543.2647762380636
 30
0.0
 10
316.7657212343936
 20
543.2619275906918
 30
0.0
 10
316.6661373070477
 20
543.2562120240871
 30
0.0
 10
316.5253326786599
 20
543.2117097855025
 30
0.0
 10
316.397273998091
 20
543.1447851453992
 30
0.0
 10
316.2940000303558
 20
543.0500525928671
 30
0.0
 10
316.2225974622609
 20
542.9297359018307
 30
0.0
 10
316.2121480908194
 20
542.8399440014657
 30
0.0
 10
316.206952988069
 20
542.795302259026
 30
0.0
 11
316.815354020177
 21
543.2647762380636
 31
0.0
 11
316.6674338716293
 21
543.2501409239618
 31
0.0
 11
316.5243002568606
 21
543.2066474872785
 31
0.0
 11
316.4005021849815
 21
543.1395513328315
 31
0.0
 11
316.2980279773535
 21
543.0441911855961
 31
0.0
 11
316.2315587890823
 21
542.9265851677923
 31
0.0
 11
316.206952988069
 21
542.795302259026
 31
0.0
  0
SPLINE
  5
FA
330
32
100
AcDbEntity
  8
0
  6
Continuous
 62
     7
100
AcDbSpline
210
0.0
220
0.0
230
1.0
 70
     8
 71
     3
 72
    13
 73
     9
 74
     7
 42
0.0000000001
 43
0.0000000001
 44
0.00000001
 40
0.0
 40
0.0
 40
0.0
 40
0.0
 40
0.1486423989487408
 40
0.2982382234602721
 40
0.4390496453782157
 40
0.5790300758309495
 40
0.7141201510145624
 40
0.84768903802659
 40
0.84768903802659
 40
0.84768903802659
 40
0.84768903802659
 10
318.792392852343
 20
543.2647762380636
 30
0.0
 10
318.8420256381265
 20
543.2619275906918
 30
0.0
 10
318.9416095654723
 20
543.2562120240871
 30
0.0
 10
319.0824141938602
 20
543.2117097855025
 30
0.0
 10
319.2104728744289
 20
543.1447851453992
 30
0.0
 10
319.3137468421641
 20
543.0500525928672
 30
0.0
 10
319.3851494102593
 20
542.9297359018307
 30
0.0
 10
319.3955987817007
 20
542.8399440014657
 30
0.0
 10
319.400793884451
 20
542.795302259026
 30
0.0
 11
318.792392852343
 21
543.2647762380636
 31
0.0
 11
318.9403130008907
 21
543.2501409239618
 31
0.0
 11
319.0834466156595
 21
543.2066474872785
 31
0.0
 11
319.2072446875385
 21
543.1395513328315
 31
0.0
 11
319.3097188951665
 21
543.0441911855961
 31
0.0
 11
319.3761880834377
 21
542.9265851677923
 31
0.0
 11
319.400793884451
 21
542.795302259026
 31
0.0
  0
SPLINE
  5
FB
330
32
100
AcDbEntity
  8
0
  6
Continuous
 62
     7
100
AcDbSpline
210
0.0
220
0.0
230
1.0
 70
     8
 71
     3
 72
    13
 73
     9
 74
     7
 42
0.0000000001
 43
0.0000000001
 44
0.00000001
 40
0.0
 40
0.0
 40
0.0
 40
0.0
 40
0.1486423989487184
 40
0.2982382234603158
 40
0.4390496453782595
 40
0.5790300758310707
 40
0.7141201510145847
 40
0.8476890380266124
 40
0.8476890380266124
 40
0.8476890380266124
 40
0.8476890380266124
 10
318.792392852343
 20
541.08636989038
 30
0.0
 10
318.8420256381265
 20
541.0892185377518
 30
0.0
 10
318.9416095654724
 20
541.0949341043563
 30
0.0
 10
319.0824141938601
 20
541.1394363429412
 30
0.0
 10
319.210472874429
 20
541.2063609830443
 30
0.0
 10
319.3137468421641
 20
541.3010935355765
 30
0.0
 10
319.3851494102593
 20
541.4214102266129
 30
0.0
 10
319.3955987817008
 20
541.5112021269781
 30
0.0
 10
319.400793884451
 20
541.5558438694176
 30
0.0
 11
318.792392852343
 21
541.08636989038
 31
0.0
 11
318.9403130008907
 21
541.1010052044816
 31
0.0
 11
319.0834466156595
 21
541.1444986411651
 31
0.0
 11
319.2072446875385
 21
541.2115947956121
 31
0.0
 11
319.3097188951665
 21
541.3069549428476
 31
0.0
 11
319.3761880834377
 21
541.4245609606513
 31
0.0
 11
319.400793884451
 21
541.5558438694176
 31
0.0
  0
SPLINE
  5
FC
330
32
100
AcDbEntity
  8
0
  6
Continuous
 62
     7
100
AcDbSpline
210
0.0
220
0.0
230
1.0
 70
     8
 71
     3
 72
    13
 73
     9
 74
     7
 42
0.0000000001
 43
0.0000000001
 44
0.00000001
 40
0.0
 40
0.0
 40
0.0
 40
0.0
 40
0.0328394650074407
 40
0.0655975995952327
 40
0.1022664447831333
 40
0.1389211607505924
 40
0.1782532813533401
 40
0.217726769161279
 40
0.217726769161279
 40
0.217726769161279
 40
0.217726769161279
 10
317.193290096101
 20
542.825034552943
 30
0.0
 10
317.1823072044647
 20
542.8241743981305
 30
0.0
 10
317.1603686214884
 20
542.8224562187702
 30
0.0
 10
317.1286555524372
 20
542.8086979508569
 30
0.0
 10
317.0991360504508
 20
542.7889254115703
 30
0.0
 10
317.0730265782384
 20
542.7615290257056
 30
0.0
 10
317.0545556803643
 20
542.7266534272185
 30
0.0
 10
317.052241922251
 20
542.7002646242138
 30
0.0
 10
317.051082967901
 20
542.6870465536389
 30
0.0
 11
317.193290096101
 21
542.825034552943
 31
0.0
 11
317.1607415641986
 21
542.8206729554173
 31
0.0
 11
317.1303602676063
 21
542.8084225595445
 31
0.0
 11
317.0999849789666
 21
542.7878812341863
 31
0.0
 11
317.0749164170281
 21
542.7611392184622
 31
0.0
 11
317.0571423865078
 21
542.7260521902299
 31
0.0
 11
317.051082967901
 21
542.6870465536389
 31
0.0
  0
SPLINE
  5
FD
330
32
100
AcDbEntity
  8
0
  6
Continuous
 62
     7
100
AcDbSpline
210
0.0
220
0.0
230
1.0
 70
     8
 71
     3
 72
    13
 73
     9
 74
     7
 42
0.0000000001
 43
0.0000000001
 44
0.00000001
 40
0.0
 40
0.0
 40
0.0
 40
0.0
 40
0.1486423989487184
 40
0.2982382234603158
 40
0.4390496453782595
 40
0.5790300758310707
 40
0.7141201510145567
 40
0.8476890380265949
 40
0.8476890380265949
 40
0.8476890380265949
 40
0.8476890380265949
 10
316.815354020177
 20
541.08636989038
 30
0.0
 10
316.7657212343936
 20
541.0892185377518
 30
0.0
 10
316.6661373070477
 20
541.0949341043563
 30
0.0
 10
316.5253326786598
 20
541.1394363429412
 30
0.0
 10
316.397273998091
 20
541.2063609830443
 30
0.0
 10
316.2940000303559
 20
541.3010935355765
 30
0.0
 10
316.2225974622608
 20
541.4214102266129
 30
0.0
 10
316.2121480908194
 20
541.5112021269779
 30
0.0
 10
316.206952988069
 20
541.5558438694176
 30
0.0
 11
316.815354020177
 21
541.08636989038
 31
0.0
 11
316.6674338716293
 21
541.1010052044816
 31
0.0
 11
316.5243002568606
 21
541.1444986411651
 31
0.0
 11
316.4005021849815
 21
541.2115947956121
 31
0.0
 11
316.2980279773535
 21
541.3069549428476
 31
0.0
 11
316.2315587890823
 21
541.4245609606513
 31
0.0
 11
316.206952988069
 21
541.5558438694176
 31
0.0
  0
SPLINE
  5
FE
330
32
100
AcDbEntity
  8
0
  6
Continuous
 62
     7
100
AcDbSpline
210
0.0
220
0.0
230
1.0
 70
     8
 71
     3
 72
    13
 73
     9
 74
     7
 42
0.0000000001
 43
0.0000000001
 44
0.00000001
 40
0.0
 40
0.0
 40
0.0
 40
0.0
 40
0.0328394650074407
 40
0.0655975995952752
 40
0.1022664447831758
 40
0.1389211607506349
 40
0.1782532813533826
 40
0.2177267691613215
 40
0.2177267691613215
 40
0.2177267691613215
 40
0.2177267691613215
 10
317.193290096101
 20
541.5657251431956
 30
0.0
 10
317.1823072044647
 20
541.566585298008
 30
0.0
 10
317.1603686214884
 20
541.5683034773684
 30
0.0
 10
317.1286555524373
 20
541.5820617452814
 30
0.0
 10
317.0991360504508
 20
541.6018342845684
 30
0.0
 10
317.0730265782384
 20
541.6292306704329
 30
0.0
 10
317.0545556803643
 20
541.6641062689202
 30
0.0
 10
317.052241922251
 20
541.6904950719248
 30
0.0
 10
317.051082967901
 20
541.7037131424997
 30
0.0
 11
317.193290096101
 21
541.5657251431956
 31
0.0
 11
317.1607415641986
 21
541.5700867407212
 31
0.0
 11
317.1303602676063
 21
541.5823371365941
 31
0.0
 11
317.0999849789666
 21
541.6028784619523
 31
0.0
 11
317.0749164170281
 21
541.6296204776764
 31
0.0
 11
317.0571423865078
 21
541.6647075059087
 31
0.0
 11
317.051082967901
 21
541.7037131424997
 31
0.0
  0
SPLINE
  5
FF
330
32
100
AcDbEntity
  8
0
  6
Continuous
 62
     7
100
AcDbSpline
210
0.0
220
0.0
230
1.0
 70
     8
 71
     3
 72
    14
 73
    10
 74
     8
 42
0.0000000001
 43
0.0000000001
 44
0.00000001
 40
0.0
 40
0.0
 40
0.0
 40
0.0
 40
0.0375510748548526
 40
0.075404233490102
 40
0.1094159352403561
 40
0.1434580761255858
 40
0.1709669697093447
 40
0.220558398749479
 40
0.3151356117044744
 40
0.3151356117044744
 40
0.3151356117044744
 40
0.3151356117044744
 10
318.471633247328
 20
541.5657251431956
 30
0.0
 10
318.4841840870312
 20
541.5664670996284
 30
0.0
 10
318.5093867330579
 20
541.5679569812453
 30
0.0
 10
318.543955337436
 20
541.5819323482101
 30
0.0
 10
318.5714513042106
 20
541.6045579153812
 30
0.0
 10
318.5910298244573
 20
541.6302919871035
 30
0.0
 10
318.6033739938961
 20
541.6657030721522
 30
0.0
 10
318.606534127405
 20
541.7232349698604
 30
0.0
 10
318.6072721857229
 20
541.771201425378
 30
0.0
 10
318.607756365207
 20
541.8026682798576
 30
0.0
 11
318.471633247328
 21
541.5657251431956
 31
0.0
 11
318.5089436204173
 21
541.5699700557617
 31
0.0
 11
318.5440461962577
 21
541.5841358874716
 31
0.0
 11
318.5705127884392
 21
541.6054974266073
 31
0.0
 11
318.5906021013234
 21
541.6329799094625
 31
0.0
 11
318.6000119252715
 21
541.6588293666999
 31
0.0
 11
318.6054793833524
 21
541.7081184804714
 31
0.0
 11
318.607756365207
 21
541.8026682798576
 31
0.0
  0
SPLINE
  5
100
330
32
100
AcDbEntity
  8
0
  6
Continuous
 62
     7
100
AcDbSpline
210
0.0
220
0.0
230
1.0
 70
     8
 71
     3
 72
    13
 73
     9
 74
     7
 42
0.0000000001
 43
0.0000000001
 44
0.00000001
 40
0.0
 40
0.0
 40
0.0
 40
0.0
 40
0.0303249383642136
 40
0.0604417851174208
 40
0.0959479298118188
 40
0.1315593707300888
 40
0.1736623627999933
 40
0.216093255348222
 40
0.216093255348222
 40
0.216093255348222
 40
0.216093255348222
 10
318.606923120315
 20
542.6876285024522
 30
0.0
 10
318.6062499411838
 20
542.6977676911822
 30
0.0
 10
318.6049082023185
 20
542.7179764928993
 30
0.0
 10
318.5932068413663
 20
542.7481672066335
 30
0.0
 10
318.5751808891405
 20
542.7769217395679
 30
0.0
 10
318.5480759967694
 20
542.8037551809213
 30
0.0
 10
318.5111154994466
 20
542.8219286246881
 30
0.0
 10
318.4828202144889
 20
542.8239965697244
 30
0.0
 10
318.468617694386
 20
542.825034552943
 30
0.0
 11
318.606923120315
 21
542.6876285024522
 31
0.0
 11
318.6033858211441
 21
542.7177464273702
 31
0.0
 11
318.5930886098896
 21
542.746048227644
 31
0.0
 11
318.5741123211733
 21
542.7760580056774
 31
0.0
 11
318.5485166212329
 21
542.8008175466432
 31
0.0
 11
318.5106483067877
 21
542.8192200655554
 31
0.0
 11
318.468617694386
 21
542.825034552943
 31
0.0
  0
SPLINE
  5
101
330
32
100
AcDbEntity
  8
0
  6
Continuous
 62
     7
100
AcDbSpline
210
0.0
220
0.0
230
1.0
 70
     8
 71
     3
 72
    13
 73
     9
 74
     7
 42
0.0000000001
 43
0.0000000001
 44
0.00000001
 40
0.0
 40
0.0
 40
0.0
 40
0.0
 40
0.0381152522468213
 40
0.0763355512011586
 40
0.1127548768764538
 40
0.1486421571415988
 40
0.1827729054946983
 40
0.2174479487765705
 40
0.2174479487765705
 40
0.2174479487765705
 40
0.2174479487765705
 10
320.047894512646
 20
543.2647762380636
 30
0.0
 10
320.0351425942054
 20
543.2638080648912
 30
0.0
 10
320.0096036126782
 20
543.261869050234
 30
0.0
 10
319.9747282790204
 20
543.2461080127281
 30
0.0
 10
319.9451783802912
 20
543.2237493821677
 30
0.0
 10
319.9228746589848
 20
543.1953909670328
 30
0.0
 10
319.9115760337231
 20
543.1616606615407
 30
0.0
 10
319.9106682142778
 20
543.1386757880588
 30
0.0
 10
319.910210713858
 20
543.1270924392755
 30
0.0
 11
320.047894512646
 21
543.2647762380636
 31
0.0
 11
320.0101194880357
 21
543.2596949026552
 31
0.0
 11
319.9749921976678
 21
543.244632873457
 31
0.0
 11
319.9460965256118
 21
543.2224651622744
 31
0.0
 11
319.9243758770182
 21
543.193897517823
 31
0.0
 11
319.9132385467976
 21
543.1616350340578
 31
0.0
 11
319.910210713858
 21
543.1270924392755
 31
0.0
  0
SPLINE
  5
102
330
32
100
AcDbEntity
  8
0
  6
Continuous
 62
     7
100
AcDbSpline
210
0.0
220
0.0
230
1.0
 70
     8
 71
     3
 72
    13
 73
     9
 74
     7
 42
0.0000000001
 43
0.0000000001
 44
0.00000001
 40
0.0
 40
0.0
 40
0.0
 40
0.0
 40
0.0381152522468364
 40
0.076335551201129
 40
0.112754876876355
 40
0.1486421571415905
 40
0.1827729054945825
 40
0.2174479487766812
 40
0.2174479487766812
 40
0.2174479487766812
 40
0.2174479487766812
 10
320.047894512646
 20
541.0910122547771
 30
0.0
 10
320.0351425942054
 20
541.0919804279495
 30
0.0
 10
320.0096036126782
 20
541.0939194426071
 30
0.0
 10
319.9747282790206
 20
541.1096804801124
 30
0.0
 10
319.945178380291
 20
541.132039110673
 30
0.0
 10
319.9228746589849
 20
541.1603975258079
 30
0.0
 10
319.9115760337231
 20
541.1941278313
 30
0.0
 10
319.9106682142777
 20
541.2171127047818
 30
0.0
 10
319.910210713858
 20
541.2286960535653
 30
0.0
 11
320.047894512646
 21
541.0910122547771
 31
0.0
 11
320.0101194880357
 21
541.0960935901857
 31
0.0
 11
319.9749921976678
 21
541.1111556193837
 31
0.0
 11
319.9460965256118
 21
541.1333233305662
 31
0.0
 11
319.9243758770182
 21
541.1618909750177
 31
0.0
 11
319.9132385467976
 21
541.1941534587828
 31
0.0
 11
319.910210713858
 21
541.2286960535653
 31
0.0
  0
SPLINE
  5
103
330
32
100
AcDbEntity
  8
0
  6
Continuous
 62
     7
100
AcDbSpline
210
0.0
220
0.0
230
1.0
 70
     8
 71
     3
 72
    13
 73
     9
 74
     7
 42
0.0000000001
 43
0.0000000001
 44
0.00000001
 40
0.0
 40
0.0
 40
0.0
 40
0.0
 40
0.0381152522468213
 40
0.0763355512012109
 40
0.112754876876461
 40
0.1486421571417436
 40
0.1827729054949915
 40
0.2174479487768935
 40
0.2174479487768935
 40
0.2174479487768935
 40
0.2174479487768935
 10
327.460401391779
 20
543.2647762380636
 30
0.0
 10
327.4476494733383
 20
543.2638080648912
 30
0.0
 10
327.4221104918112
 20
543.2618690502338
 30
0.0
 10
327.3872351581535
 20
543.2461080127284
 30
0.0
 10
327.357685259424
 20
543.2237493821674
 30
0.0
 10
327.3353815381178
 20
543.1953909670328
 30
0.0
 10
327.3240829128555
 20
543.1616606615407
 30
0.0
 10
327.3231750934099
 20
543.1386757880587
 30
0.0
 10
327.32271759299
 20
543.1270924392755
 30
0.0
 11
327.460401391779
 21
543.2647762380636
 31
0.0
 11
327.4226263671687
 21
543.2596949026552
 31
0.0
 11
327.3874990768007
 21
543.244632873457
 31
0.0
 11
327.3586034047448
 21
543.2224651622744
 31
0.0
 11
327.336882756151
 21
543.193897517823
 31
0.0
 11
327.3257454259299
 21
543.1616350340578
 31
0.0
 11
327.32271759299
 21
543.1270924392755
 31
0.0
  0
SPLINE
  5
104
330
32
100
AcDbEntity
  8
0
  6
Continuous
 62
     7
100
AcDbSpline
210
0.0
220
0.0
230
1.0
 70
     8
 71
     3
 72
    13
 73
     9
 74
     7
 42
0.0000000001
 43
0.0000000001
 44
0.00000001
 40
0.0
 40
0.0
 40
0.0
 40
0.0
 40
0.0381152522468364
 40
0.0763355512011812
 40
0.1127548768763621
 40
0.1486421571417352
 40
0.1827729054948757
 40
0.2174479487770042
 40
0.2174479487770042
 40
0.2174479487770042
 40
0.2174479487770042
 10
327.460401391779
 20
541.0910122547771
 30
0.0
 10
327.4476494733383
 20
541.0919804279495
 30
0.0
 10
327.4221104918113
 20
541.0939194426071
 30
0.0
 10
327.3872351581534
 20
541.1096804801123
 30
0.0
 10
327.357685259424
 20
541.1320391106731
 30
0.0
 10
327.3353815381178
 20
541.160397525808
 30
0.0
 10
327.3240829128555
 20
541.1941278313
 30
0.0
 10
327.3231750934099
 20
541.2171127047819
 30
0.0
 10
327.32271759299
 20
541.2286960535653
 30
0.0
 11
327.460401391779
 21
541.0910122547771
 31
0.0
 11
327.4226263671687
 21
541.0960935901857
 31
0.0
 11
327.3874990768007
 21
541.1111556193837
 31
0.0
 11
327.3586034047448
 21
541.1333233305662
 31
0.0
 11
327.336882756151
 21
541.1618909750177
 31
0.0
 11
327.3257454259299
 21
541.1941534587828
 31
0.0
 11
327.32271759299
 21
541.2286960535653
 31
0.0
  0
SPLINE
  5
105
330
32
100
AcDbEntity
  8
0
  6
Continuous
 62
     7
100
AcDbSpline
210
0.0
220
0.0
230
1.0
 70
     8
 71
     3
 72
    13
 73
     9
 74
     7
 42
0.0000000001
 43
0.0000000001
 44
0.00000001
 40
0.0
 40
0.0
 40
0.0
 40
0.0
 40
0.0353323702702065
 40
0.070420382795179
 40
0.1027084056751406
 40
0.1352293371689168
 40
0.1740111215768742
 40
0.2125287438774857
 40
0.2125287438774857
 40
0.2125287438774857
 40
0.2125287438774857
 10
326.842953700845
 20
543.1255846628047
 30
0.0
 10
326.8420675066982
 20
543.1374065682078
 30
0.0
 10
326.8403012473002
 20
543.1609686190266
 30
0.0
 10
326.8258451146255
 20
543.1927351024331
 30
0.0
 10
326.8051573882426
 20
543.2191065113576
 30
0.0
 10
326.7788998305859
 20
543.2416154467999
 30
0.0
 10
326.7466064012765
 20
543.2605836267032
 30
0.0
 10
326.7207210077223
 20
543.2633818885263
 30
0.0
 10
326.707822541169
 20
543.2647762380636
 30
0.0
 11
326.842953700845
 21
543.1255846628047
 31
0.0
 11
326.8382446223049
 21
543.1606018152905
 31
0.0
 11
326.8242387560527
 21
543.1927732985246
 31
0.0
 11
326.8044594991339
 21
543.2182938278537
 31
0.0
 11
326.7798848400907
 21
543.2395939949454
 31
0.0
 11
326.745734580277
 21
543.2579729654421
 31
0.0
 11
326.707822541169
 21
543.2647762380636
 31
0.0
  0
MTEXT
  5
107
330
32
100
AcDbEntity
  8
0
 62
     7
100
AcDbMText
 10
-146.8264876613591
 20
504.5144455109879
 30
0.0
 40
1.3
 41
0.0
 71
     7
 72
     1
  3
Diese Zeichnung entspricht dem Entwicklungsstand des Zeichnungsdatums bzw. der letzten Änderungseintragung. Aus der Benützung der Zeichnung können\Pkeine Ansprüche, gleich welcher Art, einschließlich Schadenersatzansprüche, abgeleitet und gegen GEZE 
  3
geltend gemacht werden. Die Zeichnung bleibt unser\PEigentum und ist Dritten nur für die Vertragsdauer zur Benutzung überlassen. Sämtliche sich aus der Zeichnung ergebenden Ansprüche stehen ausschließlich\PGEZE zu. Ohne vorherige Zustimmung von GEZE 
  3
darf diese Zeichnung weder vervielfältig noch Dritten zugänglich gemacht werden.\PThis drawing shows the actual state of product development at the date of the drawing or the revision date. No claims or damages in any form can bei made\Pagainst GEZE 
  3
as a result of the interpretation of this drawing. This drawing remains the property of GEZE and ist made available to third paries only for\Pthe duration of contractural obligations. All rights connected with this drawing remain in possession of GEZ
  1
E. This drawing may not bei copied of handed\Pover to third parties without the express consent of GEZE.
  7
CONVERTER_11
 73
     1
 44
0.84033613445378
  0
MTEXT
  5
109
330
32
100
AcDbEntity
  8
1
 62
     7
100
AcDbMText
 10
222.654324800649
 20
506.0153672397545
 30
0.0
 40
2.0
 41
0.0
 71
     5
 72
     1
  1
EMPB = Erstmusterprüfbericht /First sample test report
  7
CONVERTER_12
 73
     1
 44
1.02040816326531
  0
MTEXT
  5
10A
330
32
100
AcDbEntity
  8
0
 62
     4
100
AcDbMText
 10
376.1704750082961
 20
511.243569128378
 30
0.0
 40
3.5
 41
0.0
 71
     5
 72
     1
  1
D
  7
CONVERTER_12
 73
     1
 44
1.02040816326531
  0
MTEXT
  5
10C
330
32
100
AcDbEntity
  8
0
 62
     3
100
AcDbMText
 10
313.276940043475
 20
518.193569128378
 30
0.0
 40
1.8
 41
0.0
 71
     4
 72
     1
  1
gepr. / checked
  7
CONVERTER_13
 73
     1
 44
0.90036014405762
  0
MTEXT
  5
10D
330
32
100
AcDbEntity
  8
0
 62
     3
100
AcDbMText
 10
313.276940043475
 20
522.493569128378
 30
0.0
 40
1.8
 41
0.0
 71
     4
 72
     1
  1
erstellt / drawn
  7
CONVERTER_13
 73
     1
 44
0.90036014405762
  0
TEXT
  5
10E
330
32
100
AcDbEntity
  8
0
 62
     4
100
AcDbText
 10
334.107373421818
 20
542.4919196011325
 30
0.0
 40
2.2
  1
GEZE GmbH
 41
0.9
  7
CONVERTER_12
100
AcDbText
  0
MTEXT
  5
10F
330
32
100
AcDbEntity
  8
0
 62
     3
100
AcDbMText
 10
334.107373421818
 20
534.7604423723582
 30
0.0
 40
1.8
 41
0.0
 71
     7
 72
     1
  1
P.O. Box 13 63\P71226 Leonberg\PGermany
  7
CONVERTER_13
 73
     1
 44
0.78031212484994
  0
MTEXT
  5
110
330
32
100
AcDbEntity
  8
0
 62
     3
100
AcDbMText
 10
390.547759594617
 20
523.943569128378
 30
0.0
 40
1.8
 41
0.0
 71
     7
 72
     1
  1
Material-Nr.\PID-no.
  7
CONVERTER_13
 73
     1
 44
0.84033613445378
  0
TEXT
  5
111
330
32
100
AcDbEntity
  8
0
 62
     3
100
AcDbText
 10
390.547759594617
 20
513.443569128378
 30
0.0
 40
1.8
  1
Zeichnungs-Nr. / document-no.
 41
0.72
  7
CONVERTER_13
100
AcDbText
  0
TEXT
  5
112
330
32
100
AcDbEntity
  8
0
 62
     3
100
AcDbText
 10
363.7477595946169
 20
513.776902377878
 30
0.0
 40
1.8
  1
Sprache / language
 41
0.72
  7
CONVERTER_13
100
AcDbText
  0
MTEXT
  5
113
330
32
100
AcDbEntity
  8
0
 62
     3
100
AcDbMText
 10
363.2626600138361
 20
518.4053573773117
 30
0.0
 40
1.8
 41
0.0
 71
     7
 72
     1
  1
Maßstab\Pscale
  7
CONVERTER_13
 73
     1
 44
0.84033613445378
  0
TEXT
  5
114
330
32
100
AcDbEntity
  8
0
 62
     3
100
AcDbText
 10
354.3477165946171
 20
543.643575128378
 30
0.0
 40
1.8
  1
Benennung / designation
 41
0.72
  7
CONVERTER_13
100
AcDbText
  0
MTEXT
  5
115
330
32
100
AcDbEntity
  8
0
 62
     3
100
AcDbMText
 10
313.276940043475
 20
506.293569128378
 30
0.0
 40
1.8
 41
0.0
 71
     4
 72
     1
  1
Ersetzt durch:\Psubst. with:
  7
CONVERTER_13
 73
     1
 44
0.84033613445378
  0
MTEXT
  5
116
330
32
100
AcDbEntity
  8
0
 62
     3
100
AcDbMText
 10
313.276940043475
 20
512.7935691283781
 30
0.0
 40
1.8
 41
0.0
 71
     4
 72
     1
  1
Ersatz für:\Psubst. for:
  7
CONVERTER_13
 73
     1
 44
0.84033613445378
  0
MTEXT
  5
117
330
32
100
AcDbEntity
  8
0
 62
     3
100
AcDbMText
 10
363.361098412664
 20
524.1978812192694
 30
0.0
 40
1.8
 41
0.0
 71
     7
 72
     1
  1
Blatt / von\Psheet / of
  7
CONVERTER_13
 73
     1
 44
0.84033613445378
  0
MTEXT
  5
119
330
32
100
AcDbEntity
  8
0
 62
     3
100
AcDbMText
 10
339.047759594617
 20
525.7411251448942
 30
0.0
 40
1.8
 41
0.0
 71
     8
 72
     1
  1
Datum / date
  7
CONVERTER_14
 73
     1
 44
0.90036014405762
  0
MTEXT
  5
11A
330
32
100
AcDbEntity
  8
0
 62
     3
100
AcDbMText
 10
355.047759594617
 20
525.7411251448942
 30
0.0
 40
1.8
 41
0.0
 71
     8
 72
     1
  1
Name / name
  7
CONVERTER_14
 73
     1
 44
0.90036014405762
  0
MTEXT
  5
11C
330
32
100
AcDbEntity
  8
0
 62
     7
100
AcDbMText
 10
274.747759594617
 20
505.4039984204311
 30
0.0
 40
1.3
 41
0.0
 71
     8
 72
     1
  1
Dok.version
  7
CONVERTER_15
 73
     1
 44
0.7202881152461
  0
MTEXT
  5
11D
330
32
100
AcDbEntity
  8
0
 62
     7
100
AcDbMText
 10
274.747759594617
 20
503.6039984204311
 30
0.0
 40
1.3
 41
0.0
 71
     8
 72
     1
  1
doc.version
  7
CONVERTER_15
 73
     1
 44
0.7202881152461
  0
MTEXT
  5
11E
330
32
100
AcDbEntity
  8
0
 62
     7
100
AcDbMText
 10
285.047759594617
 20
503.6039984204311
 30
0.0
 40
1.3
 41
0.0
 71
     8
 72
     1
  1
date
  7
CONVERTER_13
 73
     1
 44
0.7202881152461
  0
MTEXT
  5
11F
330
32
100
AcDbEntity
  8
0
 62
     7
100
AcDbMText
 10
285.047759594617
 20
505.4039984204311
 30
0.0
 40
1.3
 41
0.0
 71
     8
 72
     1
  1
Datum
  7
CONVERTER_13
 73
     1
 44
0.7202881152461
  0
MTEXT
  5
120
330
32
100
AcDbEntity
  8
0
 62
     7
100
AcDbMText
 10
294.047759594617
 20
503.6039984204311
 30
0.0
 40
1.3
 41
0.0
 71
     8
 72
     1
  1
name
  7
CONVERTER_13
 73
     1
 44
0.7202881152461
  0
MTEXT
  5
121
330
32
100
AcDbEntity
  8
0
 62
     7
100
AcDbMText
 10
294.047759594617
 20
505.4039984204311
 30
0.0
 40
1.3
 41
0.0
 71
     8
 72
     1
  1
Name
  7
CONVERTER_13
 73
     1
 44
0.7202881152461
  0
MTEXT
  5
122
330
32
100
AcDbEntity
  8
0
 62
     7
100
AcDbMText
 10
305.547759594617
 20
503.6039984204311
 30
0.0
 40
1.3
 41
0.0
 71
     8
 72
     1
  1
Doc. change no.
  7
CONVERTER_13
 73
     1
 44
0.7202881152461
  0
MTEXT
  5
123
330
32
100
AcDbEntity
  8
0
 62
     7
100
AcDbMText
 10
305.547759594617
 20
505.4039984204311
 30
0.0
 40
1.3
 41
0.0
 71
     8
 72
     1
  1
Mitteilungs-Nr.
  7
CONVERTER_13
 73
     1
 44
0.7202881152461
  0
MTEXT
  5
124
330
32
100
AcDbEntity
  8
0
 62
     4
100
AcDbMText
 10
383.743317011037
 20
525.5435691283781
 30
0.0
 40
5.0
 41
0.0
 71
     5
 72
     1
  1
/
  7
CONVERTER_12
 73
     1
 44
1.02040816326531
  0
MTEXT
  5
125
330
32
100
AcDbEntity
  8
0
 62
     7
100
AcDbMText
 10
274.747759594617
 20
509.493566128378
 30
0.0
 40
2.0
 41
0.0
 71
     5
 72
     1
  1
00
  7
CONVERTER_12
 73
     1
 44
1.02040816326531
  0
MTEXT
  5
126
330
32
100
AcDbEntity
  8
0
 62
     7
100
AcDbMText
 10
274.747759594617
 20
513.793554128378
 30
0.0
 40
2.0
 41
0.0
 71
     5
 72
     1
  1
 
  7
CONVERTER_12
 73
     1
 44
1.02040816326531
  0
MTEXT
  5
127
330
32
100
AcDbEntity
  8
0
 62
     7
100
AcDbMText
 10
274.747759594617
 20
518.093542128378
 30
0.0
 40
2.0
 41
0.0
 71
     5
 72
     1
  1
 
  7
CONVERTER_12
 73
     1
 44
1.02040816326531
  0
MTEXT
  5
128
330
32
100
AcDbEntity
  8
0
 62
     7
100
AcDbMText
 10
274.747759594617
 20
522.3935301283781
 30
0.0
 40
2.0
 41
0.0
 71
     5
 72
     1
  1
 
  7
CONVERTER_12
 73
     1
 44
1.02040816326531
  0
MTEXT
  5
129
330
32
100
AcDbEntity
  8
0
 62
     7
100
AcDbMText
 10
274.747759594617
 20
526.693518128378
 30
0.0
 40
2.0
 41
0.0
 71
     5
 72
     1
  1
 
  7
CONVERTER_12
 73
     1
 44
1.02040816326531
  0
MTEXT
  5
12A
330
32
100
AcDbEntity
  8
0
 62
     7
100
AcDbMText
 10
274.747759594617
 20
530.993506128378
 30
0.0
 40
2.0
 41
0.0
 71
     5
 72
     1
  1
 
  7
CONVERTER_12
 73
     1
 44
1.02040816326531
  0
MTEXT
  5
12B
330
32
100
AcDbEntity
  8
0
 62
     7
100
AcDbMText
 10
274.747759594617
 20
535.293494128378
 30
0.0
 40
2.0
 41
0.0
 71
     5
 72
     1
  1
 
  7
CONVERTER_12
 73
     1
 44
1.02040816326531
  0
MTEXT
  5
12C
330
32
100
AcDbEntity
  8
0
 62
     7
100
AcDbMText
 10
284.547759594617
 20
539.593482128378
 30
0.0
 40
2.0
 41
0.0
 71
     5
 72
     1
  1
 
  7
CONVERTER_15
 73
     1
 44
1.02040816326531
  0
MTEXT
  5
12D
330
32
100
AcDbEntity
  8
0
 62
     7
100
AcDbMText
 10
274.747759594617
 20
543.893470128378
 30
0.0
 40
2.0
 41
0.0
 71
     5
 72
     1
  1
 
  7
CONVERTER_12
 73
     1
 44
1.02040816326531
  0
MTEXT
  5
12E
330
32
100
AcDbEntity
  8
0
 62
     7
100
AcDbMText
 10
305.547759594617
 20
543.893470128378
 30
0.0
 40
2.0
 41
0.0
 71
     5
 72
     1
  1
 
  7
CONVERTER_12
 73
     1
 44
1.02040816326531
  0
MTEXT
  5
12F
330
32
100
AcDbEntity
  8
0
 62
     7
100
AcDbMText
 10
294.347759594617
 20
539.593482128378
 30
0.0
 40
2.0
 41
0.0
 71
     5
 72
     1
  1
 
  7
CONVERTER_13
 73
     1
 44
1.02040816326531
  0
MTEXT
  5
130
330
32
100
AcDbEntity
  8
0
 62
     7
100
AcDbMText
 10
294.347759594617
 20
535.293494128378
 30
0.0
 40
2.0
 41
0.0
 71
     5
 72
     1
  1
 
  7
CONVERTER_13
 73
     1
 44
1.02040816326531
  0
MTEXT
  5
131
330
32
100
AcDbEntity
  8
0
 62
     7
100
AcDbMText
 10
294.347759594617
 20
530.993506128378
 30
0.0
 40
2.0
 41
0.0
 71
     5
 72
     1
  1
 
  7
CONVERTER_13
 73
     1
 44
1.02040816326531
  0
MTEXT
  5
132
330
32
100
AcDbEntity
  8
0
 62
     7
100
AcDbMText
 10
284.547759594617
 20
526.693518128378
 30
0.0
 40
2.0
 41
0.0
 71
     5
 72
     1
  1
 
  7
CONVERTER_15
 73
     1
 44
1.02040816326531
  0
MTEXT
  5
133
330
32
100
AcDbEntity
  8
0
 62
     7
100
AcDbMText
 10
294.347759594617
 20
522.3935301283781
 30
0.0
 40
2.0
 41
0.0
 71
     5
 72
     1
  1
 
  7
CONVERTER_13
 73
     1
 44
1.02040816326531
  0
MTEXT
  5
134
330
32
100
AcDbEntity
  8
0
 62
     7
100
AcDbMText
 10
305.547759594617
 20
518.093542128378
 30
0.0
 40
2.0
 41
0.0
 71
     5
 72
     1
  1
 
  7
CONVERTER_12
 73
     1
 44
1.02040816326531
  0
MTEXT
  5
135
330
32
100
AcDbEntity
  8
0
 62
     7
100
AcDbMText
 10
305.547759594617
 20
513.793554128378
 30
0.0
 40
2.0
 41
0.0
 71
     5
 72
     1
  1
 
  7
CONVERTER_12
 73
     1
 44
1.02040816326531
  0
MTEXT
  5
136
330
32
100
AcDbEntity
  8
0
 62
     7
100
AcDbMText
 10
284.547759594617
 20
509.493566128378
 30
0.0
 40
2.0
 41
0.0
 71
     5
 72
     1
  1
14.02.2005
  7
CONVERTER_15
 73
     1
 44
1.02040816326531
  0
MTEXT
  5
137
330
32
100
AcDbEntity
  8
0
 62
     7
100
AcDbMText
 10
294.347759594617
 20
509.493566128378
 30
0.0
 40
2.0
 41
0.0
 71
     5
 72
     1
  1
tbm6
  7
CONVERTER_13
 73
     1
 44
1.02040816326531
  0
MTEXT
  5
138
330
32
100
AcDbEntity
  8
0
 62
     7
100
AcDbMText
 10
305.547759594617
 20
522.3935301283781
 30
0.0
 40
2.0
 41
0.0
 71
     5
 72
     1
  1
 
  7
CONVERTER_12
 73
     1
 44
1.02040816326531
  0
MTEXT
  5
139
330
32
100
AcDbEntity
  8
0
 62
     7
100
AcDbMText
 10
284.547759594617
 20
518.093542128378
 30
0.0
 40
2.0
 41
0.0
 71
     5
 72
     1
  1
 
  7
CONVERTER_15
 73
     1
 44
1.02040816326531
  0
MTEXT
  5
13A
330
32
100
AcDbEntity
  8
0
 62
     7
100
AcDbMText
 10
305.547759594617
 20
509.493566128378
 30
0.0
 40
2.0
 41
0.0
 71
     5
 72
     1
  1
X
  7
CONVERTER_12
 73
     1
 44
1.02040816326531
  0
MTEXT
  5
13B
330
32
100
AcDbEntity
  8
0
 62
     7
100
AcDbMText
 10
284.547759594617
 20
513.793554128378
 30
0.0
 40
2.0
 41
0.0
 71
     5
 72
     1
  1
 
  7
CONVERTER_15
 73
     1
 44
1.02040816326531
  0
MTEXT
  5
13C
330
32
100
AcDbEntity
  8
0
 62
     7
100
AcDbMText
 10
284.547759594617
 20
522.3935301283781
 30
0.0
 40
2.0
 41
0.0
 71
     5
 72
     1
  1
 
  7
CONVERTER_15
 73
     1
 44
1.02040816326531
  0
MTEXT
  5
13D
330
32
100
AcDbEntity
  8
0
 62
     7
100
AcDbMText
 10
284.547759594617
 20
530.993506128378
 30
0.0
 40
2.0
 41
0.0
 71
     5
 72
     1
  1
 
  7
CONVERTER_15
 73
     1
 44
1.02040816326531
  0
MTEXT
  5
13E
330
32
100
AcDbEntity
  8
0
 62
     7
100
AcDbMText
 10
284.547759594617
 20
535.293494128378
 30
0.0
 40
2.0
 41
0.0
 71
     5
 72
     1
  1
 
  7
CONVERTER_15
 73
     1
 44
1.02040816326531
  0
MTEXT
  5
13F
330
32
100
AcDbEntity
  8
0
 62
     7
100
AcDbMText
 10
284.547759594617
 20
543.893470128378
 30
0.0
 40
2.0
 41
0.0
 71
     5
 72
     1
  1
 
  7
CONVERTER_15
 73
     1
 44
1.02040816326531
  0
MTEXT
  5
140
330
32
100
AcDbEntity
  8
0
 62
     7
100
AcDbMText
 10
294.347759594617
 20
513.793554128378
 30
0.0
 40
2.0
 41
0.0
 71
     5
 72
     1
  1
 
  7
CONVERTER_13
 73
     1
 44
1.02040816326531
  0
MTEXT
  5
141
330
32
100
AcDbEntity
  8
0
 62
     7
100
AcDbMText
 10
294.347759594617
 20
518.093542128378
 30
0.0
 40
2.0
 41
0.0
 71
     5
 72
     1
  1
 
  7
CONVERTER_13
 73
     1
 44
1.02040816326531
  0
MTEXT
  5
142
330
32
100
AcDbEntity
  8
0
 62
     7
100
AcDbMText
 10
294.347759594617
 20
526.693518128378
 30
0.0
 40
2.0
 41
0.0
 71
     5
 72
     1
  1
 
  7
CONVERTER_13
 73
     1
 44
1.02040816326531
  0
MTEXT
  5
143
330
32
100
AcDbEntity
  8
0
 62
     7
100
AcDbMText
 10
294.347759594617
 20
543.893470128378
 30
0.0
 40
2.0
 41
0.0
 71
     5
 72
     1
  1
 
  7
CONVERTER_13
 73
     1
 44
1.02040816326531
  0
MTEXT
  5
144
330
32
100
AcDbEntity
  8
0
 62
     7
100
AcDbMText
 10
305.547759594617
 20
526.693518128378
 30
0.0
 40
2.0
 41
0.0
 71
     5
 72
     1
  1
 
  7
CONVERTER_12
 73
     1
 44
1.02040816326531
  0
MTEXT
  5
145
330
32
100
AcDbEntity
  8
0
 62
     7
100
AcDbMText
 10
305.547759594617
 20
530.993506128378
 30
0.0
 40
2.0
 41
0.0
 71
     5
 72
     1
  1
 
  7
CONVERTER_12
 73
     1
 44
1.02040816326531
  0
MTEXT
  5
146
330
32
100
AcDbEntity
  8
0
 62
     7
100
AcDbMText
 10
305.547759594617
 20
535.293494128378
 30
0.0
 40
2.0
 41
0.0
 71
     5
 72
     1
  1
 
  7
CONVERTER_12
 73
     1
 44
1.02040816326531
  0
MTEXT
  5
147
330
32
100
AcDbEntity
  8
0
 62
     7
100
AcDbMText
 10
305.547759594617
 20
539.593482128378
 30
0.0
 40
2.0
 41
0.0
 71
     5
 72
     1
  1
 
  7
CONVERTER_12
 73
     1
 44
1.02040816326531
  0
MTEXT
  5
148
330
32
100
AcDbEntity
  8
0
 62
     7
100
AcDbMText
 10
274.747759594617
 20
539.593482128378
 30
0.0
 40
2.0
 41
0.0
 71
     5
 72
     1
  1
 
  7
CONVERTER_12
 73
     1
 44
1.02040816326531
  0
MTEXT
  5
149
330
32
100
AcDbEntity
  8
0
 62
     3
100
AcDbMText
 10
337.582989662799
 20
522.8571843462164
 30
0.0
 40
2.5
 41
0.0
 71
     5
 72
     1
  1
14.02.2005
  7
CONVERTER_15
 73
     1
 44
1.02040816326531
  0
MTEXT
  5
14A
330
32
100
AcDbEntity
  8
0
 62
     3
100
AcDbMText
 10
354.675037912799
 20
522.8571843462164
 30
0.0
 40
2.5
 41
0.0
 71
     5
 72
     1
  1
tbm6
  7
CONVERTER_13
 73
     1
 44
1.02040816326531
  0
MTEXT
  5
14B
330
32
100
AcDbEntity
  8
0
 62
     3
100
AcDbMText
 10
337.582989662799
 20
518.5317382590811
 30
0.0
 40
2.5
 41
0.0
 71
     5
 72
     1
  1
03.03.2005
  7
CONVERTER_15
 73
     1
 44
1.02040816326531
  0
MTEXT
  5
14C
330
32
100
AcDbEntity
  8
0
 62
     3
100
AcDbMText
 10
343.290767781032
 20
505.4537047968545
 30
0.0
 40
2.5
 41
0.0
 71
     5
 72
     1
  1
 
  7
CONVERTER_12
 73
     1
 44
1.02040816326531
  0
MTEXT
  5
14D
330
32
100
AcDbEntity
  8
0
 62
     3
100
AcDbMText
 10
343.290767781032
 20
512.9537047968545
 30
0.0
 40
2.5
 41
0.0
 71
     5
 72
     1
  1
 
  7
CONVERTER_12
 73
     1
 44
1.02040816326531
  0
MTEXT
  5
14E
330
32
100
AcDbEntity
  8
0
 62
     3
100
AcDbMText
 10
354.675037912799
 20
518.5317382590811
 30
0.0
 40
2.5
 41
0.0
 71
     5
 72
     1
  1
tbm2
  7
CONVERTER_13
 73
     1
 44
1.02040816326531
  0
MTEXT
  5
14F
330
32
100
AcDbEntity
  8
0
 62
     4
100
AcDbMText
 10
400.547759594617
 20
532.5945400673265
 30
0.0
 40
3.5
 41
0.0
 71
     5
 72
     1
  1
MIT DREHLAGER
  7
CONVERTER_13
 73
     1
 44
1.02040816326531
  0
MTEXT
  5
150
330
32
100
AcDbEntity
  8
0
 62
     1
100
AcDbMText
 10
400.547759594617
 20
539.4828066722202
 30
0.0
 40
4.5
 41
0.0
 71
     5
 72
     1
  1
T-STOP GLEITSCHIENE BG
  7
CONVERTER_13
 73
     1
 44
1.02040816326531
  0
MTEXT
  5
151
330
32
100
AcDbEntity
  8
0
 62
     1
100
AcDbMText
 10
419.547759594617
 20
521.5537203104362
 30
0.0
 40
5.0
 41
0.0
 71
     5
 72
     1
  1
 
  7
CONVERTER_12
 73
     1
 44
1.02040816326531
  0
MTEXT
  5
152
330
32
100
AcDbEntity
  8
0
 62
     1
100
AcDbMText
 10
419.547759594617
 20
508.4290882141059
 30
0.0
 40
5.0
 41
0.0
 71
     5
 72
     1
  1
20526-0-10
  7
CONVERTER_13
 73
     1
 44
1.02040816326531
  0
MTEXT
  5
153
330
32
100
AcDbEntity
  8
0
 62
     4
100
AcDbMText
 10
386.963563038941
 20
525.5435691283781
 30
0.0
 40
3.5
 41
0.0
 71
     5
 72
     1
  1
1
  7
CONVERTER_12
 73
     1
 44
1.02040816326531
  0
MTEXT
  5
154
330
32
100
AcDbEntity
  8
0
 62
     4
100
AcDbMText
 10
380.1704750082961
 20
525.5435691283781
 30
0.0
 40
3.5
 41
0.0
 71
     5
 72
     1
  1
1
  7
CONVERTER_12
 73
     1
 44
1.02040816326531
  0
MTEXT
  5
155
330
32
100
AcDbEntity
  8
0
 62
     7
100
AcDbMText
 10
268.147759594617
 20
505.1481954554967
 30
0.0
 40
1.3
 41
0.0
 71
     8
 72
     1
  1
EMPB
  7
CONVERTER_13
 73
     1
 44
0.7202881152461
  0
TEXT
  5
157
330
32
100
AcDbEntity
  8
0
 62
     4
100
AcDbText
 10
313.575355314475
 20
530.1844341802811
 30
0.0
 40
2.5
  1
vertraulich / confidential
 41
0.765
  7
CONVERTER_16
100
AcDbText
  0
MTEXT
  5
158
330
32
100
AcDbEntity
  8
0
 62
     4
100
AcDbMText
 10
267.747759594617
 20
509.493566128378
 30
0.0
 40
2.0
 41
0.0
 71
     5
 72
     1
  1
 
  7
CONVERTER_12
 73
     1
 44
1.02040816326531
  0
MTEXT
  5
159
330
32
100
AcDbEntity
  8
0
 62
     4
100
AcDbMText
 10
267.747759594617
 20
513.793554128378
 30
0.0
 40
2.0
 41
0.0
 71
     5
 72
     1
  1
 
  7
CONVERTER_12
 73
     1
 44
1.02040816326531
  0
MTEXT
  5
15A
330
32
100
AcDbEntity
  8
0
 62
     4
100
AcDbMText
 10
267.747759594617
 20
518.093542128378
 30
0.0
 40
2.0
 41
0.0
 71
     5
 72
     1
  1
 
  7
CONVERTER_12
 73
     1
 44
1.02040816326531
  0
MTEXT
  5
15B
330
32
100
AcDbEntity
  8
0
 62
     4
100
AcDbMText
 10
267.747759594617
 20
522.3935301283781
 30
0.0
 40
2.0
 41
0.0
 71
     5
 72
     1
  1
 
  7
CONVERTER_12
 73
     1
 44
1.02040816326531
  0
MTEXT
  5
15C
330
32
100
AcDbEntity
  8
0
 62
     4
100
AcDbMText
 10
267.747759594617
 20
526.693518128378
 30
0.0
 40
2.0
 41
0.0
 71
     5
 72
     1
  1
 
  7
CONVERTER_12
 73
     1
 44
1.02040816326531
  0
MTEXT
  5
15D
330
32
100
AcDbEntity
  8
0
 62
     4
100
AcDbMText
 10
267.747759594617
 20
530.993506128378
 30
0.0
 40
2.0
 41
0.0
 71
     5
 72
     1
  1
 
  7
CONVERTER_12
 73
     1
 44
1.02040816326531
  0
MTEXT
  5
15E
330
32
100
AcDbEntity
  8
0
 62
     4
100
AcDbMText
 10
267.747759594617
 20
535.293494128378
 30
0.0
 40
2.0
 41
0.0
 71
     5
 72
     1
  1
 
  7
CONVERTER_12
 73
     1
 44
1.02040816326531
  0
MTEXT
  5
15F
330
32
100
AcDbEntity
  8
0
 62
     4
100
AcDbMText
 10
267.747759594617
 20
539.593482128378
 30
0.0
 40
2.0
 41
0.0
 71
     5
 72
     1
  1
 
  7
CONVERTER_12
 73
     1
 44
1.02040816326531
  0
MTEXT
  5
160
330
32
100
AcDbEntity
  8
0
 62
     4
100
AcDbMText
 10
267.747759594617
 20
543.893470128378
 30
0.0
 40
2.0
 41
0.0
 71
     5
 72
     1
  1
 
  7
CONVERTER_12
 73
     1
 44
1.02040816326531
  0
ENDBLK
  5
34
330
32
100
AcDbEntity
  8
0
100
AcDbBlockEnd
  0
BLOCK
  5
37
330
35
100
AcDbEntity
  8
0
100
AcDbBlockBegin
  2
rahmen
 70
     0
 71
     0
 10
-139.452240405383
 20
503.043569128378
 30
0.0
  3
rahmen
  1

  0
INSERT
  5
36
330
35
100
AcDbEntity
  8
1
100
AcDbBlockReference
  2
a2kl
 10
34.54775959461699
 20
503.043569128378
 30
0.0
  0
ENDBLK
  5
38
330
35
100
AcDbEntity
  8
0
100
AcDbBlockEnd
  0
BLOCK
  5
3A
330
39
100
AcDbEntity
  8
0
100
AcDbBlockBegin
  2
Tuer__1
 70
     0
 71
     0
 10
2907.31782497132
 20
2619.745142310486
 30
0.0
  3
Tuer__1
  1

  0
LINE
  5
161
330
39
100
AcDbEntity
  8
1
  6
Continuous
 62
     3
100
AcDbLine
 10
474.5723951698827
 20
1520.573300458928
 30
0.0
 11
554.5723951698828
 21
1520.573300458928
 31
0.0
  0
LINE
  5
162
330
39
100
AcDbEntity
  8
1
  6
Continuous
 62
     3
100
AcDbLine
 10
474.5723951698827
 20
1560.573300458928
 30
0.0
 11
554.5723951698828
 21
1560.573300458928
 31
0.0
  0
LINE
  5
163
330
39
100
AcDbEntity
  8
1
  6
Continuous
 62
     3
100
AcDbLine
 10
474.5723951698827
 20
1520.573300458928
 30
0.0
 11
474.5723951698827
 21
1420.573300458928
 31
0.0
  0
LINE
  5
164
330
39
100
AcDbEntity
  8
1
  6
Continuous
 62
     3
100
AcDbLine
 10
454.5723951698828
 20
1540.573300458928
 30
0.0
 11
454.5723951698828
 21
1520.573300458928
 31
0.0
  0
LINE
  5
165
330
39
100
AcDbEntity
  8
1
  6
Continuous
 62
     3
100
AcDbLine
 10
494.5723951698828
 20
1540.573300458928
 30
0.0
 11
494.5723951698828
 21
1420.573300458928
 31
0.0
  0
LINE
  5
166
330
39
100
AcDbEntity
  8
1
  6
Continuous
 62
     3
100
AcDbLine
 10
494.5723951698828
 20
1540.573300458928
 30
0.0
 11
554.5723951698828
 21
1540.573300458928
 31
0.0
  0
LINE
  5
167
330
39
100
AcDbEntity
  8
1
  6
Continuous
 62
     3
100
AcDbLine
 10
284.5723951698827
 20
1580.573300458928
 30
0.0
 11
554.5723951698828
 21
1580.573300458928
 31
0.0
  0
LINE
  5
168
330
39
100
AcDbEntity
  8
1
  6
Continuous
 62
     3
100
AcDbLine
 10
294.5723951698827
 20
1394.573300458928
 30
0.0
 11
554.5723951698828
 21
1394.573300458928
 31
0.0
  0
LINE
  5
169
330
39
100
AcDbEntity
  8
1
  6
Continuous
 62
     3
100
AcDbLine
 10
554.5723951698828
 20
1397.573300458928
 30
0.0
 11
554.5723951698828
 21
1394.573300458928
 31
0.0
  0
LINE
  5
16A
330
39
100
AcDbEntity
  8
1
  6
Continuous
 62
     3
100
AcDbLine
 10
534.5723951698828
 20
1397.573300458928
 30
0.0
 11
534.5723951698828
 21
1394.573300458928
 31
0.0
  0
LINE
  5
16B
330
39
100
AcDbEntity
  8
1
  6
Continuous
 62
     3
100
AcDbLine
 10
514.5723951698828
 20
1397.573300458928
 30
0.0
 11
514.5723951698828
 21
1394.573300458928
 31
0.0
  0
LINE
  5
16C
330
39
100
AcDbEntity
  8
1
  6
Continuous
 62
     3
100
AcDbLine
 10
494.5723951698828
 20
1397.573300458928
 30
0.0
 11
494.5723951698828
 21
1394.573300458928
 31
0.0
  0
LINE
  5
16D
330
39
100
AcDbEntity
  8
1
  6
Continuous
 62
     3
100
AcDbLine
 10
474.5723951698827
 20
1397.573300458928
 30
0.0
 11
474.5723951698827
 21
1394.573300458928
 31
0.0
  0
LINE
  5
16E
330
39
100
AcDbEntity
  8
1
  6
Continuous
 62
     3
100
AcDbLine
 10
454.5723951698828
 20
1397.573300458928
 30
0.0
 11
454.5723951698828
 21
1394.573300458928
 31
0.0
  0
LINE
  5
16F
330
39
100
AcDbEntity
  8
1
  6
Continuous
 62
     3
100
AcDbLine
 10
434.5723951698828
 20
1397.573300458928
 30
0.0
 11
434.5723951698828
 21
1394.573300458928
 31
0.0
  0
LINE
  5
170
330
39
100
AcDbEntity
  8
1
  6
Continuous
 62
     3
100
AcDbLine
 10
414.5723951698828
 20
1397.573300458928
 30
0.0
 11
414.5723951698828
 21
1394.573300458928
 31
0.0
  0
LINE
  5
171
330
39
100
AcDbEntity
  8
1
  6
Continuous
 62
     3
100
AcDbLine
 10
394.5723951698828
 20
1397.573300458928
 30
0.0
 11
394.5723951698828
 21
1394.573300458928
 31
0.0
  0
LINE
  5
172
330
39
100
AcDbEntity
  8
1
  6
Continuous
 62
     3
100
AcDbLine
 10
374.5723951698827
 20
1397.573300458928
 30
0.0
 11
374.5723951698827
 21
1394.573300458928
 31
0.0
  0
LINE
  5
173
330
39
100
AcDbEntity
  8
1
  6
Continuous
 62
     3
100
AcDbLine
 10
354.5723951698827
 20
1397.573300458928
 30
0.0
 11
354.5723951698827
 21
1394.573300458928
 31
0.0
  0
LINE
  5
174
330
39
100
AcDbEntity
  8
1
  6
Continuous
 62
     3
100
AcDbLine
 10
334.5723951698827
 20
1397.573300458928
 30
0.0
 11
334.5723951698827
 21
1394.573300458928
 31
0.0
  0
LINE
  5
175
330
39
100
AcDbEntity
  8
1
  6
Continuous
 62
     3
100
AcDbLine
 10
314.5723951698827
 20
1397.573300458928
 30
0.0
 11
314.5723951698827
 21
1394.573300458928
 31
0.0
  0
LINE
  5
176
330
39
100
AcDbEntity
  8
1
  6
Continuous
 62
     3
100
AcDbLine
 10
294.5723951698827
 20
1397.573300458928
 30
0.0
 11
294.5723951698827
 21
1394.573300458928
 31
0.0
  0
LINE
  5
177
330
39
100
AcDbEntity
  8
1
  6
Continuous
 62
     3
100
AcDbLine
 10
284.5723951698827
 20
1394.573300458928
 30
0.0
 11
294.5723951698827
 21
1394.573300458928
 31
0.0
  0
LINE
  5
178
330
39
100
AcDbEntity
  8
1
  6
Continuous
 62
     3
100
AcDbLine
 10
414.5723951698828
 20
1590.573300458928
 30
0.0
 11
414.5723951698828
 21
1520.573300458928
 31
0.0
  0
LINE
  5
179
330
39
100
AcDbEntity
  8
1
  6
Continuous
 62
     3
100
AcDbLine
 10
564.5723951698828
 20
1600.573300458928
 30
0.0
 11
564.5723951698828
 21
1340.573300458928
 31
0.0
  0
LINE
  5
17A
330
39
100
AcDbEntity
  8
1
  6
Continuous
 62
     3
100
AcDbLine
 10
254.5723951698827
 20
1600.573300458928
 30
0.0
 11
564.5723951698828
 21
1600.573300458928
 31
0.0
  0
LINE
  5
17B
330
39
100
AcDbEntity
  8
1
  6
Continuous
 62
     3
100
AcDbLine
 10
254.5723951698827
 20
1340.573300458928
 30
0.0
 11
254.5723951698827
 21
1600.573300458928
 31
0.0
  0
LINE
  5
17C
330
39
100
AcDbEntity
  8
1
  6
Continuous
 62
     3
100
AcDbLine
 10
564.5723951698828
 20
1340.573300458928
 30
0.0
 11
254.5723951698827
 21
1340.573300458928
 31
0.0
  0
LINE
  5
17D
330
39
100
AcDbEntity
  8
1
  6
Continuous
 62
     3
100
AcDbLine
 10
284.5723951698827
 20
1540.573300458928
 30
0.0
 11
434.5723951698828
 21
1540.573300458928
 31
0.0
  0
LINE
  5
17E
330
39
100
AcDbEntity
  8
1
  6
Continuous
 62
     3
100
AcDbLine
 10
284.5723951698827
 20
1590.573300458928
 30
0.0
 11
554.5723951698828
 21
1590.573300458928
 31
0.0
  0
LINE
  5
17F
330
39
100
AcDbEntity
  8
1
  6
Continuous
 62
     3
100
AcDbLine
 10
284.5723951698827
 20
1560.573300458928
 30
0.0
 11
474.5723951698827
 21
1560.573300458928
 31
0.0
  0
LINE
  5
180
330
39
100
AcDbEntity
  8
1
  6
Continuous
 62
     3
100
AcDbLine
 10
554.5723951698828
 20
1590.573300458928
 30
0.0
 11
554.5723951698828
 21
1420.573300458928
 31
0.0
  0
LINE
  5
181
330
39
100
AcDbEntity
  8
1
  6
Continuous
 62
     3
100
AcDbLine
 10
534.5723951698828
 20
1590.573300458928
 30
0.0
 11
534.5723951698828
 21
1420.573300458928
 31
0.0
  0
LINE
  5
182
330
39
100
AcDbEntity
  8
1
  6
Continuous
 62
     3
100
AcDbLine
 10
514.5723951698828
 20
1590.573300458928
 30
0.0
 11
514.5723951698828
 21
1420.573300458928
 31
0.0
  0
LINE
  5
183
330
39
100
AcDbEntity
  8
1
  6
Continuous
 62
     3
100
AcDbLine
 10
494.5723951698828
 20
1590.573300458928
 30
0.0
 11
494.5723951698828
 21
1540.573300458928
 31
0.0
  0
LINE
  5
184
330
39
100
AcDbEntity
  8
1
  6
Continuous
 62
     3
100
AcDbLine
 10
474.5723951698827
 20
1590.573300458928
 30
0.0
 11
474.5723951698827
 21
1560.573300458928
 31
0.0
  0
LINE
  5
185
330
39
100
AcDbEntity
  8
1
  6
Continuous
 62
     3
100
AcDbLine
 10
434.5723951698828
 20
1590.573300458928
 30
0.0
 11
434.5723951698828
 21
1540.573300458928
 31
0.0
  0
LINE
  5
186
330
39
100
AcDbEntity
  8
1
  6
Continuous
 62
     3
100
AcDbLine
 10
394.5723951698828
 20
1590.573300458928
 30
0.0
 11
394.5723951698828
 21
1489.469150875811
 31
0.0
  0
LINE
  5
187
330
39
100
AcDbEntity
  8
1
  6
Continuous
 62
     3
100
AcDbLine
 10
374.5723951698827
 20
1590.573300458928
 30
0.0
 11
374.5723951698827
 21
1480.573300458928
 31
0.0
  0
LINE
  5
188
330
39
100
AcDbEntity
  8
1
  6
Continuous
 62
     3
100
AcDbLine
 10
354.5723951698827
 20
1590.573300458928
 30
0.0
 11
354.5723951698827
 21
1460.573300458928
 31
0.0
  0
LINE
  5
189
330
39
100
AcDbEntity
  8
1
  6
Continuous
 62
     3
100
AcDbLine
 10
334.5723951698827
 20
1590.573300458928
 30
0.0
 11
334.5723951698827
 21
1480.573300458928
 31
0.0
  0
LINE
  5
18A
330
39
100
AcDbEntity
  8
1
  6
Continuous
 62
     3
100
AcDbLine
 10
294.5723951698827
 20
1590.573300458928
 30
0.0
 11
294.5723951698827
 21
1420.573300458928
 31
0.0
  0
LINE
  5
18B
330
39
100
AcDbEntity
  8
1
  6
Continuous
 62
     3
100
AcDbLine
 10
284.5723951698827
 20
1590.573300458928
 30
0.0
 11
284.5723951698827
 21
1420.573300458928
 31
0.0
  0
LINE
  5
18C
330
39
100
AcDbEntity
  8
1
  6
Continuous
 62
     3
100
AcDbLine
 10
284.5723951698827
 20
1520.573300458928
 30
0.0
 11
414.5723951698828
 21
1520.573300458928
 31
0.0
  0
LINE
  5
18D
330
39
100
AcDbEntity
  8
1
  6
Continuous
 62
     3
100
AcDbLine
 10
284.5723951698827
 20
1500.573300458928
 30
0.0
 11
434.5723951698828
 21
1500.573300458928
 31
0.0
  0
LINE
  5
18E
330
39
100
AcDbEntity
  8
1
  6
Continuous
 62
     3
100
AcDbLine
 10
284.5723951698827
 20
1480.573300458928
 30
0.0
 11
334.5723951698827
 21
1480.573300458928
 31
0.0
  0
LINE
  5
18F
330
39
100
AcDbEntity
  8
1
  6
Continuous
 62
     3
100
AcDbLine
 10
284.5723951698827
 20
1460.573300458928
 30
0.0
 11
314.5723951698827
 21
1460.573300458928
 31
0.0
  0
LINE
  5
190
330
39
100
AcDbEntity
  8
1
  6
Continuous
 62
     3
100
AcDbLine
 10
284.5723951698827
 20
1440.573300458928
 30
0.0
 11
334.5723951698827
 21
1440.573300458928
 31
0.0
  0
LINE
  5
191
330
39
100
AcDbEntity
  8
1
  6
Continuous
 62
     3
100
AcDbLine
 10
284.5723951698827
 20
1420.573300458928
 30
0.0
 11
554.5723951698828
 21
1420.573300458928
 31
0.0
  0
LINE
  5
192
330
39
100
AcDbEntity
  8
1
  6
Continuous
 62
     3
100
AcDbLine
 10
334.5723951698827
 20
1440.573300458928
 30
0.0
 11
334.5723951698827
 21
1420.573300458928
 31
0.0
  0
LINE
  5
193
330
39
100
AcDbEntity
  8
1
  6
Continuous
 62
     3
100
AcDbLine
 10
354.5723951698827
 20
1460.573300458928
 30
0.0
 11
554.5723951698828
 21
1460.573300458928
 31
0.0
  0
LINE
  5
194
330
39
100
AcDbEntity
  8
1
  6
Continuous
 62
     3
100
AcDbLine
 10
414.5723951698828
 20
1520.573300458928
 30
0.0
 11
474.5723951698827
 21
1520.573300458928
 31
0.0
  0
LINE
  5
195
330
39
100
AcDbEntity
  8
1
  6
Continuous
 62
     3
100
AcDbLine
 10
434.5723951698828
 20
1540.573300458928
 30
0.0
 11
434.5723951698828
 21
1420.573300458928
 31
0.0
  0
LINE
  5
196
330
39
100
AcDbEntity
  8
1
  6
Continuous
 62
     3
100
AcDbLine
 10
334.5723951698827
 20
1480.573300458928
 30
0.0
 11
374.5723951698827
 21
1480.573300458928
 31
0.0
  0
LINE
  5
197
330
39
100
AcDbEntity
  8
1
  6
Continuous
 62
     3
100
AcDbLine
 10
334.5723951698827
 20
1440.573300458928
 30
0.0
 11
554.5723951698828
 21
1440.573300458928
 31
0.0
  0
LINE
  5
198
330
39
100
AcDbEntity
  8
1
  6
Continuous
 62
     3
100
AcDbLine
 10
354.5723951698827
 20
1460.573300458928
 30
0.0
 11
354.5723951698827
 21
1420.573300458928
 31
0.0
  0
LINE
  5
199
330
39
100
AcDbEntity
  8
1
  6
Continuous
 62
     3
100
AcDbLine
 10
314.5723951698827
 20
1460.573300458928
 30
0.0
 11
314.5723951698827
 21
1420.573300458928
 31
0.0
  0
LINE
  5
19A
330
39
100
AcDbEntity
  8
1
  6
Continuous
 62
     3
100
AcDbLine
 10
414.5723951698828
 20
1520.573300458928
 30
0.0
 11
414.5723951698828
 21
1420.573300458928
 31
0.0
  0
LINE
  5
19B
330
39
100
AcDbEntity
  8
1
  6
Continuous
 62
     3
100
AcDbLine
 10
454.5723951698828
 20
1520.573300458928
 30
0.0
 11
454.5723951698828
 21
1420.573300458928
 31
0.0
  0
LINE
  5
19C
330
39
100
AcDbEntity
  8
1
  6
Continuous
 62
     3
100
AcDbLine
 10
434.5723951698828
 20
1540.573300458928
 30
0.0
 11
454.5723951698828
 21
1540.573300458928
 31
0.0
  0
LINE
  5
19D
330
39
100
AcDbEntity
  8
1
  6
Continuous
 62
     3
100
AcDbLine
 10
434.5723951698828
 20
1500.573300458928
 30
0.0
 11
554.5723951698828
 21
1500.573300458928
 31
0.0
  0
LINE
  5
19E
330
39
100
AcDbEntity
  8
1
  6
Continuous
 62
     3
100
AcDbLine
 10
314.5723951698827
 20
1590.573300458928
 30
0.0
 11
314.5723951698827
 21
1460.573300458928
 31
0.0
  0
LINE
  5
19F
330
39
100
AcDbEntity
  8
1
  6
Continuous
 62
     3
100
AcDbLine
 10
374.5723951698827
 20
1480.573300458928
 30
0.0
 11
554.5723951698828
 21
1480.573300458928
 31
0.0
  0
LINE
  5
1A0
330
39
100
AcDbEntity
  8
1
  6
Continuous
 62
     3
100
AcDbLine
 10
394.5723951698828
 20
1489.469150875811
 30
0.0
 11
394.5723951698828
 21
1420.573300458928
 31
0.0
  0
LINE
  5
1A1
330
39
100
AcDbEntity
  8
1
  6
Continuous
 62
     3
100
AcDbLine
 10
284.5723951698827
 20
1368.573300458928
 30
0.0
 11
294.5723951698827
 21
1368.573300458928
 31
0.0
  0
LINE
  5
1A2
330
39
100
AcDbEntity
  8
1
  6
Continuous
 62
     3
100
AcDbLine
 10
294.5723951698827
 20
1371.573300458928
 30
0.0
 11
294.5723951698827
 21
1368.573300458928
 31
0.0
  0
LINE
  5
1A3
330
39
100
AcDbEntity
  8
1
  6
Continuous
 62
     3
100
AcDbLine
 10
362.222593580324
 20
1371.573300458928
 30
0.0
 11
362.222593580324
 21
1368.573300458928
 31
0.0
  0
LINE
  5
1A4
330
39
100
AcDbEntity
  8
1
  6
Continuous
 62
     3
100
AcDbLine
 10
427.9057285032162
 20
1371.573300458928
 30
0.0
 11
427.9057285032162
 21
1368.573300458928
 31
0.0
  0
LINE
  5
1A5
330
39
100
AcDbEntity
  8
1
  6
Continuous
 62
     3
100
AcDbLine
 10
507.9057285032163
 20
1371.573300458928
 30
0.0
 11
507.9057285032163
 21
1368.573300458928
 31
0.0
  0
LINE
  5
1A6
330
39
100
AcDbEntity
  8
1
  6
Continuous
 62
     3
100
AcDbLine
 10
294.5723951698827
 20
1368.573300458928
 30
0.0
 11
554.5723951698828
 21
1368.573300458928
 31
0.0
  0
LINE
  5
1A7
330
39
100
AcDbEntity
  8
1
  6
Continuous
 62
     3
100
AcDbLine
 10
454.5723951698828
 20
1590.573300458928
 30
0.0
 11
454.5723951698828
 21
1540.573300458928
 31
0.0
  0
LINE
  5
1A8
330
39
100
AcDbEntity
  8
1
  6
Continuous
 62
     3
100
AcDbLine
 10
328.3974943751035
 20
1371.573300458928
 30
0.0
 11
328.3974943751035
 21
1368.573300458928
 31
0.0
  0
LINE
  5
1A9
330
39
100
AcDbEntity
  8
1
  6
Continuous
 62
     3
100
AcDbLine
 10
318.3974943751035
 20
1368.573300458928
 30
0.0
 11
328.3974943751035
 21
1368.573300458928
 31
0.0
  0
LINE
  5
1AA
330
39
100
AcDbEntity
  8
1
  6
Continuous
 62
     3
100
AcDbLine
 10
395.0641610417702
 20
1371.573300458928
 30
0.0
 11
395.0641610417702
 21
1368.573300458928
 31
0.0
  0
LINE
  5
1AB
330
39
100
AcDbEntity
  8
1
  6
Continuous
 62
     3
100
AcDbLine
 10
467.9057285032162
 20
1371.573300458928
 30
0.0
 11
467.9057285032162
 21
1368.573300458928
 31
0.0
  0
LINE
  5
1AC
330
39
100
AcDbEntity
  8
1
  6
Continuous
 62
     3
100
AcDbLine
 10
547.9057285032163
 20
1371.573300458928
 30
0.0
 11
547.9057285032163
 21
1368.573300458928
 31
0.0
  0
LINE
  5
1AD
102
{ACAD_REACTORS
330
1E9
330
1E9
102
}
330
39
100
AcDbEntity
  8
1
  6
Continuous
 62
     3
100
AcDbLine
 10
611.1745012342072
 20
1552.948929949813
 30
0.0
 11
603.6745012342072
 21
1525.448929949813
 31
0.0
  0
LINE
  5
1AE
102
{ACAD_REACTORS
330
1E9
330
1E9
102
}
330
39
100
AcDbEntity
  8
1
  6
Continuous
 62
     3
100
AcDbLine
 10
603.6745012342072
 20
1525.448929949813
 30
0.0
 11
596.1745012342072
 21
1552.948929949813
 31
0.0
  0
LINE
  5
1AF
102
{ACAD_REACTORS
330
1E9
330
1E9
102
}
330
39
100
AcDbEntity
  8
1
  6
Continuous
 62
     3
100
AcDbLine
 10
596.1745012342072
 20
1552.948929949813
 30
0.0
 11
611.1745012342072
 21
1552.948929949813
 31
0.0
  0
CIRCLE
  5
1B0
102
{ACAD_REACTORS
330
1E8
330
1E8
102
}
330
39
100
AcDbEntity
  8
1
  6
Continuous
 62
     3
100
AcDbCircle
 10
603.6745012342072
 20
1513.047370635361
 30
0.0
 40
5.0
  0
SPLINE
  5
1B1
330
39
100
AcDbEntity
  8
1
  6
Continuous
 62
     3
100
AcDbSpline
210
0.0
220
0.0
230
1.0
 70
     8
 71
     3
 72
    11
 73
     7
 74
     5
 42
0.0000000001
 43
0.0000000001
 44
0.00000001
 40
0.0
 40
0.0
 40
0.0
 40
0.0
 40
68.58400936139739
 40
136.5146799511257
 40
229.4232795627076
 40
321.7587194710554
 40
321.7587194710554
 40
321.7587194710554
 40
321.7587194710554
 10
284.5723951698827
 20
1580.573300458928
 30
0.0
 10
295.4579943200644
 20
1560.223191963295
 30
0.0
 10
317.1254952127682
 20
1519.716832330494
 30
0.0
 10
379.8982355995782
 20
1472.006567096431
 30
0.0
 10
462.4801834557159
 20
1449.116008682547
 30
0.0
 10
523.9383767681102
 20
1443.414990066031
 30
0.0
 10
554.5723951698828
 20
1440.573300458928
 30
0.0
 11
284.5723951698827
 21
1580.573300458928
 31
0.0
 11
321.1879194828987
 21
1522.581320674072
 31
0.0
 11
374.5723951698829
 21
1480.573300458927
 31
0.0
 11
462.9273056203259
 21
1451.843217251957
 31
0.0
 11
554.5723951698828
 21
1440.573300458928
 31
0.0
  0
MTEXT
  5
1B4
330
39
100
AcDbEntity
  8
1
 62
     3
100
AcDbMText
 10
267.2950404333045
 20
1546.606863713975
 30
0.0
 40
3.5
 41
0.0
 71
     7
 72
     1
  1
Türmasse (kg)
  7
CONVERTER_12
 11
6.123233995736766E-17
 21
1.0
 31
0.0
 73
     1
 44
1.02040816326531
  0
TEXT
  5
1B5
330
39
100
AcDbEntity
  8
1
 62
     3
100
AcDbText
 10
424.8549715778486
 20
1405.284140063987
 30
0.0
 40
3.5
  1
Öffnungsgeschwindigkeit (m/s)  (Türblattbreite 1m)
 41
0.9
  7
CONVERTER_12
100
AcDbText
  0
TEXT
  5
1B6
330
39
100
AcDbEntity
  8
1
 62
     3
100
AcDbText
 10
433.3600789884385
 20
1379.284140063987
 30
0.0
 40
3.5
  1
Windgeschwindigkeit (km/h)  (Türblattbreite 1m)
 41
0.9
  7
CONVERTER_12
100
AcDbText
  0
TEXT
  5
1B7
330
39
100
AcDbEntity
  8
1
 62
     3
100
AcDbText
 10
473.3868524482931
 20
1353.284140063987
 30
0.0
 40
3.5
  1
Windstärke (Bft) (Türblattbreite 1m)
 41
0.9
  7
CONVERTER_12
100
AcDbText
  0
MTEXT
  5
1B8
330
39
100
AcDbEntity
  8
1
 62
     3
100
AcDbMText
 10
324.3157988365368
 20
1453.681724220398
 30
0.0
 40
3.5
 41
0.0
 71
     7
 72
     1
  1
Montage\Pohne\PTürstopper
  7
CONVERTER_12
 73
     1
 44
1.02040816326531
  0
MTEXT
  5
1B9
330
39
100
AcDbEntity
  8
1
 62
     3
100
AcDbMText
 10
463.5784802005445
 20
1533.2780022996
 30
0.0
 40
3.5
 41
0.0
 71
     7
 72
     1
  1
Montage\Pmit\PTürstopper
  7
CONVERTER_12
 73
     1
 44
1.02040816326531
  0
TEXT
  5
1BA
330
39
100
AcDbEntity
  8
1
 62
     3
100
AcDbText
 10
274.2724247947299
 20
1438.920220986876
 30
0.0
 40
3.5
  1
20
 41
0.9
  7
CONVERTER_12
100
AcDbText
  0
TEXT
  5
1BB
330
39
100
AcDbEntity
  8
1
 62
     3
100
AcDbText
 10
274.2724247947299
 20
1458.920220986876
 30
0.0
 40
3.5
  1
40
 41
0.9
  7
CONVERTER_12
100
AcDbText
  0
TEXT
  5
1BC
330
39
100
AcDbEntity
  8
1
 62
     3
100
AcDbText
 10
274.2724247947299
 20
1478.920220986876
 30
0.0
 40
3.5
  1
60
 41
0.9
  7
CONVERTER_12
100
AcDbText
  0
TEXT
  5
1BD
330
39
100
AcDbEntity
  8
1
 62
     3
100
AcDbText
 10
274.2724247947299
 20
1498.920220986876
 30
0.0
 40
3.5
  1
80
 41
0.9
  7
CONVERTER_12
100
AcDbText
  0
TEXT
  5
1BE
330
39
100
AcDbEntity
  8
1
 62
     3
100
AcDbText
 10
274.2724247947299
 20
1518.920220986876
 30
0.0
 40
3.5
  1
100
 41
0.9
  7
CONVERTER_12
100
AcDbText
  0
TEXT
  5
1BF
330
39
100
AcDbEntity
  8
1
 62
     3
100
AcDbText
 10
274.2724247947299
 20
1538.920220986876
 30
0.0
 40
3.5
  1
120
 41
0.9
  7
CONVERTER_12
100
AcDbText
  0
TEXT
  5
1C0
330
39
100
AcDbEntity
  8
1
 62
     3
100
AcDbText
 10
274.2724247947299
 20
1558.920220986876
 30
0.0
 40
3.5
  1
140
 41
0.9
  7
CONVERTER_12
100
AcDbText
  0
TEXT
  5
1C1
330
39
100
AcDbEntity
  8
1
 62
     3
100
AcDbText
 10
274.2724247947299
 20
1578.920220986876
 30
0.0
 40
3.5
  1
160
 41
0.9
  7
CONVERTER_12
100
AcDbText
  0
TEXT
  5
1C2
330
39
100
AcDbEntity
  8
1
 62
     3
100
AcDbText
 10
291.7379039460178
 20
1411.891981079178
 30
0.0
 40
3.5
  1
1,6
 41
0.9
  7
CONVERTER_12
100
AcDbText
  0
TEXT
  5
1C3
330
39
100
AcDbEntity
  8
1
 62
     3
100
AcDbText
 10
311.7379039460178
 20
1411.891981079178
 30
0.0
 40
3.5
  1
1,8
 41
0.9
  7
CONVERTER_12
100
AcDbText
  0
TEXT
  5
1C4
330
39
100
AcDbEntity
  8
1
 62
     3
100
AcDbText
 10
331.7379039460178
 20
1411.891981079178
 30
0.0
 40
3.5
  1
2,0
 41
0.9
  7
CONVERTER_12
100
AcDbText
  0
TEXT
  5
1C5
330
39
100
AcDbEntity
  8
1
 62
     3
100
AcDbText
 10
351.7379039460178
 20
1411.891981079178
 30
0.0
 40
3.5
  1
2,2
 41
0.9
  7
CONVERTER_12
100
AcDbText
  0
TEXT
  5
1C6
330
39
100
AcDbEntity
  8
1
 62
     3
100
AcDbText
 10
371.7379039460178
 20
1411.891981079178
 30
0.0
 40
3.5
  1
2,4
 41
0.9
  7
CONVERTER_12
100
AcDbText
  0
TEXT
  5
1C7
330
39
100
AcDbEntity
  8
1
 62
     3
100
AcDbText
 10
391.7379039460178
 20
1411.891981079178
 30
0.0
 40
3.5
  1
2,6
 41
0.9
  7
CONVERTER_12
100
AcDbText
  0
TEXT
  5
1C8
330
39
100
AcDbEntity
  8
1
 62
     3
100
AcDbText
 10
411.7379039460178
 20
1411.891981079178
 30
0.0
 40
3.5
  1
2,8
 41
0.9
  7
CONVERTER_12
100
AcDbText
  0
TEXT
  5
1C9
330
39
100
AcDbEntity
  8
1
 62
     3
100
AcDbText
 10
431.7379039460178
 20
1411.891981079178
 30
0.0
 40
3.5
  1
3,0
 41
0.9
  7
CONVERTER_12
100
AcDbText
  0
TEXT
  5
1CA
330
39
100
AcDbEntity
  8
1
 62
     3
100
AcDbText
 10
451.7379039460178
 20
1411.891981079178
 30
0.0
 40
3.5
  1
3,2
 41
0.9
  7
CONVERTER_12
100
AcDbText
  0
TEXT
  5
1CB
330
39
100
AcDbEntity
  8
1
 62
     3
100
AcDbText
 10
471.7379039460178
 20
1411.891981079178
 30
0.0
 40
3.5
  1
3,4
 41
0.9
  7
CONVERTER_12
100
AcDbText
  0
TEXT
  5
1CC
330
39
100
AcDbEntity
  8
1
 62
     3
100
AcDbText
 10
491.7379039460179
 20
1411.891981079178
 30
0.0
 40
3.5
  1
3,6
 41
0.9
  7
CONVERTER_12
100
AcDbText
  0
TEXT
  5
1CD
330
39
100
AcDbEntity
  8
1
 62
     3
100
AcDbText
 10
511.7379039460179
 20
1411.891981079178
 30
0.0
 40
3.5
  1
3,8
 41
0.9
  7
CONVERTER_12
100
AcDbText
  0
TEXT
  5
1CE
330
39
100
AcDbEntity
  8
1
 62
     3
100
AcDbText
 10
531.7379039460179
 20
1411.891981079178
 30
0.0
 40
3.5
  1
4,0
 41
0.9
  7
CONVERTER_12
100
AcDbText
  0
TEXT
  5
1CF
330
39
100
AcDbEntity
  8
1
 62
     3
100
AcDbText
 10
551.7379039460179
 20
1411.891981079178
 30
0.0
 40
3.5
  1
4,2
 41
0.9
  7
CONVERTER_12
100
AcDbText
  0
TEXT
  5
1D0
330
39
100
AcDbEntity
  8
1
 62
     3
100
AcDbText
 10
551.7379039460179
 20
1386.241981079178
 30
0.0
 40
3.5
  1
63
 41
0.9
  7
CONVERTER_12
100
AcDbText
  0
TEXT
  5
1D1
330
39
100
AcDbEntity
  8
1
 62
     3
100
AcDbText
 10
531.7379039460179
 20
1386.241981079178
 30
0.0
 40
3.5
  1
60
 41
0.9
  7
CONVERTER_12
100
AcDbText
  0
TEXT
  5
1D2
330
39
100
AcDbEntity
  8
1
 62
     3
100
AcDbText
 10
511.7379039460179
 20
1386.241981079178
 30
0.0
 40
3.5
  1
57
 41
0.9
  7
CONVERTER_12
100
AcDbText
  0
TEXT
  5
1D3
330
39
100
AcDbEntity
  8
1
 62
     3
100
AcDbText
 10
491.7379039460179
 20
1386.241981079178
 30
0.0
 40
3.5
  1
54
 41
0.9
  7
CONVERTER_12
100
AcDbText
  0
TEXT
  5
1D4
330
39
100
AcDbEntity
  8
1
 62
     3
100
AcDbText
 10
471.7379039460178
 20
1386.241981079178
 30
0.0
 40
3.5
  1
51
 41
0.9
  7
CONVERTER_12
100
AcDbText
  0
TEXT
  5
1D5
330
39
100
AcDbEntity
  8
1
 62
     3
100
AcDbText
 10
451.7379039460178
 20
1386.241981079178
 30
0.0
 40
3.5
  1
48
 41
0.9
  7
CONVERTER_12
100
AcDbText
  0
TEXT
  5
1D6
330
39
100
AcDbEntity
  8
1
 62
     3
100
AcDbText
 10
431.7379039460178
 20
1386.241981079178
 30
0.0
 40
3.5
  1
45
 41
0.9
  7
CONVERTER_12
100
AcDbText
  0
TEXT
  5
1D7
330
39
100
AcDbEntity
  8
1
 62
     3
100
AcDbText
 10
411.7379039460178
 20
1386.241981079178
 30
0.0
 40
3.5
  1
42
 41
0.9
  7
CONVERTER_12
100
AcDbText
  0
TEXT
  5
1D8
330
39
100
AcDbEntity
  8
1
 62
     3
100
AcDbText
 10
391.7379039460178
 20
1386.241981079178
 30
0.0
 40
3.5
  1
39
 41
0.9
  7
CONVERTER_12
100
AcDbText
  0
TEXT
  5
1D9
330
39
100
AcDbEntity
  8
1
 62
     3
100
AcDbText
 10
371.7379039460178
 20
1386.241981079178
 30
0.0
 40
3.5
  1
36
 41
0.9
  7
CONVERTER_12
100
AcDbText
  0
TEXT
  5
1DA
330
39
100
AcDbEntity
  8
1
 62
     3
100
AcDbText
 10
351.7379039460178
 20
1386.241981079178
 30
0.0
 40
3.5
  1
33
 41
0.9
  7
CONVERTER_12
100
AcDbText
  0
TEXT
  5
1DB
330
39
100
AcDbEntity
  8
1
 62
     3
100
AcDbText
 10
331.7379039460178
 20
1386.241981079178
 30
0.0
 40
3.5
  1
30
 41
0.9
  7
CONVERTER_12
100
AcDbText
  0
TEXT
  5
1DC
330
39
100
AcDbEntity
  8
1
 62
     3
100
AcDbText
 10
311.7379039460178
 20
1386.241981079178
 30
0.0
 40
3.5
  1
27
 41
0.9
  7
CONVERTER_12
100
AcDbText
  0
TEXT
  5
1DD
330
39
100
AcDbEntity
  8
1
 62
     3
100
AcDbText
 10
291.7379039460178
 20
1386.241981079178
 30
0.0
 40
3.5
  1
24
 41
0.9
  7
CONVERTER_12
100
AcDbText
  0
TEXT
  5
1DE
330
39
100
AcDbEntity
  8
1
 62
     3
100
AcDbText
 10
291.7379039460178
 20
1360.591981079178
 30
0.0
 40
3.5
  1
4
 41
0.9
  7
CONVERTER_12
100
AcDbText
  0
TEXT
  5
1DF
330
39
100
AcDbEntity
  8
1
 62
     3
100
AcDbText
 10
359.3881023564591
 20
1360.591981079178
 30
0.0
 40
3.5
  1
5
 41
0.9
  7
CONVERTER_12
100
AcDbText
  0
TEXT
  5
1E0
330
39
100
AcDbEntity
  8
1
 62
     3
100
AcDbText
 10
425.0712372793514
 20
1360.591981079178
 30
0.0
 40
3.5
  1
6
 41
0.9
  7
CONVERTER_12
100
AcDbText
  0
TEXT
  5
1E1
330
39
100
AcDbEntity
  8
1
 62
     3
100
AcDbText
 10
505.0712372793514
 20
1360.591981079178
 30
0.0
 40
3.5
  1
7
 41
0.9
  7
CONVERTER_12
100
AcDbText
  0
TEXT
  5
1E2
330
39
100
AcDbEntity
  8
1
 62
     3
100
AcDbText
 10
325.5630031512386
 20
1360.591981079178
 30
0.0
 40
3.5
  1
4,5
 41
0.9
  7
CONVERTER_12
100
AcDbText
  0
TEXT
  5
1E3
330
39
100
AcDbEntity
  8
1
 62
     3
100
AcDbText
 10
392.2296698179052
 20
1360.591981079178
 30
0.0
 40
3.5
  1
5,5
 41
0.9
  7
CONVERTER_12
100
AcDbText
  0
TEXT
  5
1E4
330
39
100
AcDbEntity
  8
1
 62
     3
100
AcDbText
 10
465.0712372793513
 20
1360.591981079178
 30
0.0
 40
3.5
  1
6,5
 41
0.9
  7
CONVERTER_12
100
AcDbText
  0
TEXT
  5
1E5
330
39
100
AcDbEntity
  8
1
 62
     3
100
AcDbText
 10
545.0712372793514
 20
1360.591981079178
 30
0.0
 40
3.5
  1
7,5
 41
0.9
  7
CONVERTER_12
100
AcDbText
  0
MTEXT
  5
1E6
330
39
100
AcDbEntity
  8
1
 62
     4
100
AcDbMText
 10
629.411036468057
 20
1514.638697804841
 30
0.0
 40
8.75
 41
0.0
 71
     7
 72
     1
  1
In bestimmten Anwendungsfällen muß zusätzlich\Pein Türstopper angebracht werden.\P(siehe Diagramm)
  7
CONVERTER_12
 73
     1
 44
1.02040816326531
  0
HATCH
  5
1E7
330
39
100
AcDbEntity
  8
1
  6
Continuous
 62
     7
100
AcDbHatch
 10
0.0
 20
0.0
 30
0.0
210
0.0
220
0.0
230
1.0
  2
CUSTOM0
 70
     0
 71
     0
 91
       10
 92
        1
 93
        4
 72
     4
 94
        3
 73
     0
 74
     0
 95
       11
 96
        7
 40
0.0
 40
0.0
 40
0.0
 40
0.0
 40
68.58400936139739
 40
136.5146799511257
 40
229.4232795627076
 40
321.7587194710554
 40
321.7587194710554
 40
321.7587194710554
 40
321.7587194710554
 10
284.5723951698827
 20
1580.573300458928
 10
295.4579943200644
 20
1560.223191963295
 10
317.1254952127682
 20
1519.716832330494
 10
379.8982355995782
 20
1472.006567096431
 10
462.4801834557159
 20
1449.116008682547
 10
523.9383767681102
 20
1443.414990066031
 10
554.5723951698828
 20
1440.573300458928
 72
     1
 10
554.5723951698828
 20
1440.573300458928
 11
554.5723951698828
 21
1420.573300458928
 72
     1
 10
554.5723951698828
 20
1420.573300458928
 11
284.5723951698827
 21
1420.573300458928
 72
     1
 10
284.5723951698827
 20
1420.573300458928
 11
284.5723951698827
 21
1580.573300458928
 97
        0
 92
       16
 93
        4
 72
     1
 10
323.5282988365368
 20
1452.806724220398
 11
356.6032988365369
 21
1452.806724220398
 72
     1
 10
356.6032988365369
 20
1452.806724220398
 11
356.6032988365369
 21
1472.342438506112
 72
     1
 10
356.6032988365369
 20
1472.342438506112
 11
323.5282988365368
 21
1472.342438506112
 72
     1
 10
323.5282988365368
 20
1472.342438506112
 11
323.5282988365368
 21
1452.806724220398
 97
        0
 92
       16
 93
        4
 72
     1
 10
323.5282988365368
 20
1452.806724220398
 11
356.6032988365369
 21
1452.806724220398
 72
     1
 10
356.6032988365369
 20
1452.806724220398
 11
356.6032988365369
 21
1472.342438506112
 72
     1
 10
356.6032988365369
 20
1472.342438506112
 11
323.5282988365368
 21
1472.342438506112
 72
     1
 10
323.5282988365368
 20
1472.342438506112
 11
323.5282988365368
 21
1452.806724220398
 97
        0
 92
       16
 93
        4
 72
     1
 10
323.5282988365368
 20
1452.806724220398
 11
356.6032988365369
 21
1452.806724220398
 72
     1
 10
356.6032988365369
 20
1452.806724220398
 11
356.6032988365369
 21
1472.342438506112
 72
     1
 10
356.6032988365369
 20
1472.342438506112
 11
323.5282988365368
 21
1472.342438506112
 72
     1
 10
323.5282988365368
 20
1472.342438506112
 11
323.5282988365368
 21
1452.806724220398
 97
        0
 92
       16
 93
        4
 72
     1
 10
323.5282988365368
 20
1452.806724220398
 11
356.6032988365369
 21
1452.806724220398
 72
     1
 10
356.6032988365369
 20
1452.806724220398
 11
356.6032988365369
 21
1472.342438506112
 72
     1
 10
356.6032988365369
 20
1472.342438506112
 11
323.5282988365368
 21
1472.342438506112
 72
     1
 10
323.5282988365368
 20
1472.342438506112
 11
323.5282988365368
 21
1452.806724220398
 97
        0
 92
       16
 93
        4
 72
     1
 10
323.5282988365368
 20
1452.806724220398
 11
356.6032988365369
 21
1452.806724220398
 72
     1
 10
356.6032988365369
 20
1452.806724220398
 11
356.6032988365369
 21
1472.342438506112
 72
     1
 10
356.6032988365369
 20
1472.342438506112
 11
323.5282988365368
 21
1472.342438506112
 72
     1
 10
323.5282988365368
 20
1472.342438506112
 11
323.5282988365368
 21
1452.806724220398
 97
        0
 92
       16
 93
        4
 72
     1
 10
323.5282988365368
 20
1452.806724220398
 11
356.6032988365369
 21
1452.806724220398
 72
     1
 10
356.6032988365369
 20
1452.806724220398
 11
356.6032988365369
 21
1472.342438506112
 72
     1
 10
356.6032988365369
 20
1472.342438506112
 11
323.5282988365368
 21
1472.342438506112
 72
     1
 10
323.5282988365368
 20
1472.342438506112
 11
323.5282988365368
 21
1452.806724220398
 97
        0
 92
       16
 93
        4
 72
     1
 10
323.5282988365368
 20
1452.806724220398
 11
356.6032988365369
 21
1452.806724220398
 72
     1
 10
356.6032988365369
 20
1452.806724220398
 11
356.6032988365369
 21
1472.342438506112
 72
     1
 10
356.6032988365369
 20
1472.342438506112
 11
323.5282988365368
 21
1472.342438506112
 72
     1
 10
323.5282988365368
 20
1472.342438506112
 11
323.5282988365368
 21
1452.806724220398
 97
        0
 92
       16
 93
        4
 72
     1
 10
323.5282988365368
 20
1452.806724220398
 11
356.6032988365369
 21
1452.806724220398
 72
     1
 10
356.6032988365369
 20
1452.806724220398
 11
356.6032988365369
 21
1472.342438506112
 72
     1
 10
356.6032988365369
 20
1472.342438506112
 11
323.5282988365368
 21
1472.342438506112
 72
     1
 10
323.5282988365368
 20
1472.342438506112
 11
323.5282988365368
 21
1452.806724220398
 97
        0
 92
       16
 93
        4
 72
     1
 10
323.5282988365368
 20
1452.806724220398
 11
356.6032988365369
 21
1452.806724220398
 72
     1
 10
356.6032988365369
 20
1452.806724220398
 11
356.6032988365369
 21
1472.342438506112
 72
     1
 10
356.6032988365369
 20
1472.342438506112
 11
323.5282988365368
 21
1472.342438506112
 72
     1
 10
323.5282988365368
 20
1472.342438506112
 11
323.5282988365368
 21
1452.806724220398
 97
        0
 75
     1
 76
     2
 52
90.00000000000003
 41
5.0
 77
     0
 78
     1
 53
90.00000000000003
 43
82.6591141911658
 44
-123.498568353117
 45
-4.999999999999998
 46
-5.000000000000002
 79
     0
 98
        1
 10
0.0
 20
0.0
  0
HATCH
  5
1E8
330
39
100
AcDbEntity
  8
1
  6
Continuous
 62
     3
100
AcDbHatch
 10
0.0
 20
0.0
 30
0.0
210
0.0
220
0.0
230
1.0
  2
_USER
 70
     0
 71
     1
 91
        1
 92
        1
 93
        1
 72
     2
 10
603.6745012342072
 20
1513.047370635361
 40
5.0
 50
0.0
 51
360.0
 73
     1
 97
        1
330
1B0
 75
     1
 76
     0
 52
45.0
 41
0.75
 77
     0
 78
     1
 53
45.0
 43
0.0
 44
0.0
 45
-0.5303300858899106
 46
0.5303300858899107
 79
     0
 98
        1
 10
0.0
 20
0.0
  0
HATCH
  5
1E9
330
39
100
AcDbEntity
  8
1
  6
Continuous
 62
     3
100
AcDbHatch
 10
0.0
 20
0.0
 30
0.0
210
0.0
220
0.0
230
1.0
  2
_USER
 70
     0
 71
     1
 91
        1
 92
        1
 93
        3
 72
     1
 10
603.6745012342072
 20
1525.448929949813
 11
596.1745012342072
 21
1552.948929949813
 72
     1
 10
596.1745012342072
 20
1552.948929949813
 11
611.1745012342072
 21
1552.948929949813
 72
     1
 10
611.1745012342072
 20
1552.948929949813
 11
603.6745012342072
 21
1525.448929949813
 97
        3
330
1AF
330
1AE
330
1AD
 75
     1
 76
     0
 52
45.0
 41
0.2
 77
     0
 78
     1
 53
45.0
 43
0.0
 44
0.0
 45
-0.1414213562373095
 46
0.1414213562373095
 79
     0
 98
        1
 10
0.0
 20
0.0
  0
ENDBLK
  5
3B
330
39
100
AcDbEntity
  8
0
100
AcDbBlockEnd
  0
BLOCK
  5
3E
330
3C
100
AcDbEntity
  8
0
100
AcDbBlockBegin
  2
Tuer__2
 70
     0
 71
     0
 10
1611.961192132893
 20
1022.162802367434
 30
0.0
  3
Tuer__2
  1

  0
INSERT
  5
3D
330
3C
100
AcDbEntity
  8
0
100
AcDbBlockReference
  2
Tuer__1
 10
1162.927129988528
 20
1047.898056924194
 30
0.0
 41
0.4
 42
0.4
 43
0.4
  0
ENDBLK
  5
3F
330
3C
100
AcDbEntity
  8
0
100
AcDbBlockEnd
  0
BLOCK
  5
41
330
40
100
AcDbEntity
  8
0
100
AcDbBlockBegin
  2
1__3
 70
     0
 71
     0
 10
-68.49604193204691
 20
572.2427561109275
 30
0.0
  3
1__3
  1

  0
LINE
  5
1EA
330
40
100
AcDbEntity
  8
1
  6
Continuous
 62
     1
100
AcDbLine
 10
-68.49604193204691
 20
604.7427561109275
 30
0.0
 11
-18.44604193204686
 21
604.7427561109275
 31
0.0
  0
LINE
  5
1EB
330
40
100
AcDbEntity
  8
1
  6
Continuous
 62
     1
100
AcDbLine
 10
-18.44604193204686
 20
604.7427561109275
 30
0.0
 11
-18.44604193204686
 21
572.2427561109275
 31
0.0
  0
LINE
  5
1EC
330
40
100
AcDbEntity
  8
1
  6
Continuous
 62
     1
100
AcDbLine
 10
-18.44604193204686
 20
572.2427561109275
 30
0.0
 11
-20.29219577820056
 21
580.2427561109275
 31
0.0
  0
LINE
  5
1ED
330
40
100
AcDbEntity
  8
1
  6
Continuous
 62
     1
100
AcDbLine
 10
-16.59988808589322
 20
580.2427561109275
 30
0.0
 11
-20.29219577820056
 21
580.2427561109275
 31
0.0
  0
LINE
  5
1EE
330
40
100
AcDbEntity
  8
1
  6
Continuous
 62
     1
100
AcDbLine
 10
-16.59988808589322
 20
580.2427561109275
 30
0.0
 11
-18.44604193204686
 21
572.2427561109275
 31
0.0
  0
LINE
  5
1EF
330
40
100
AcDbEntity
  8
1
  6
Continuous
 62
     2
100
AcDbLine
 10
-17.22841362682113
 20
579.7427561109275
 30
0.0
 11
-19.66367023727253
 21
579.7427561109275
 31
0.0
  0
LINE
  5
1F0
330
40
100
AcDbEntity
  8
1
  6
Continuous
 62
     2
100
AcDbLine
 10
-17.22841362682113
 20
579.7427561109275
 30
0.0
 11
-18.44604193204692
 21
574.4663667882821
 31
0.0
  0
LINE
  5
1F1
330
40
100
AcDbEntity
  8
1
  6
Continuous
 62
     2
100
AcDbLine
 10
-18.44604193204692
 20
574.4663667882821
 30
0.0
 11
-19.66367023727253
 21
579.7427561109275
 31
0.0
  0
LINE
  5
1F2
330
40
100
AcDbEntity
  8
1
  6
Continuous
 62
     2
100
AcDbLine
 10
-18.44604193204692
 20
576.689977465637
 30
0.0
 11
-19.03514469634474
 21
579.2427561109275
 31
0.0
  0
LINE
  5
1F3
330
40
100
AcDbEntity
  8
1
  6
Continuous
 62
     2
100
AcDbLine
 10
-17.85693916774932
 20
579.2427561109275
 30
0.0
 11
-18.44604193204692
 21
576.689977465637
 31
0.0
  0
LINE
  5
1F4
330
40
100
AcDbEntity
  8
1
  6
Continuous
 62
     2
100
AcDbLine
 10
-17.85693916774932
 20
579.2427561109275
 30
0.0
 11
-19.03514469634474
 21
579.2427561109275
 31
0.0
  0
LINE
  5
1F5
330
40
100
AcDbEntity
  8
1
  6
Continuous
 62
     2
100
AcDbLine
 10
-18.44604193204692
 20
578.9135881429916
 30
0.0
 11
-18.40661915541671
 21
578.7427561109275
 31
0.0
  0
LINE
  5
1F6
330
40
100
AcDbEntity
  8
1
  6
Continuous
 62
     2
100
AcDbLine
 10
-18.48546470867712
 20
578.7427561109275
 30
0.0
 11
-18.44604193204692
 21
578.9135881429916
 31
0.0
  0
LINE
  5
1F7
330
40
100
AcDbEntity
  8
1
  6
Continuous
 62
     2
100
AcDbLine
 10
-18.48546470867712
 20
578.7427561109275
 30
0.0
 11
-18.40661915541671
 21
578.7427561109275
 31
0.0
  0
LINE
  5
1F8
330
40
100
AcDbEntity
  8
1
  6
Continuous
 62
     2
100
AcDbLine
 10
-51.59604193204687
 20
604.7033333342974
 30
0.0
 11
-51.59604193204687
 21
604.7821788875576
 31
0.0
  0
LINE
  5
1F9
330
40
100
AcDbEntity
  8
1
  6
Continuous
 62
     2
100
AcDbLine
 10
-51.59604193204687
 20
604.7033333342974
 30
0.0
 11
-51.76687396411106
 21
604.7427561109275
 31
0.0
  0
LINE
  5
1FA
330
40
100
AcDbEntity
  8
1
  6
Continuous
 62
     2
100
AcDbLine
 10
-51.76687396411106
 20
604.7427561109275
 30
0.0
 11
-51.59604193204687
 21
604.7821788875576
 31
0.0
  0
LINE
  5
1FB
330
40
100
AcDbEntity
  8
1
  6
Continuous
 62
     2
100
AcDbLine
 10
-52.09604193204687
 20
605.3318588752252
 30
0.0
 11
-52.09604193204687
 21
604.1536533466297
 31
0.0
  0
LINE
  5
1FC
330
40
100
AcDbEntity
  8
1
  6
Continuous
 62
     2
100
AcDbLine
 10
-52.09604193204687
 20
605.3318588752252
 30
0.0
 11
-49.54326328675634
 21
604.7427561109275
 31
0.0
  0
LINE
  5
1FD
330
40
100
AcDbEntity
  8
1
  6
Continuous
 62
     2
100
AcDbLine
 10
-49.54326328675634
 20
604.7427561109275
 30
0.0
 11
-52.09604193204687
 21
604.1536533466297
 31
0.0
  0
LINE
  5
1FE
330
40
100
AcDbEntity
  8
1
  6
Continuous
 62
     2
100
AcDbLine
 10
-47.31965260940169
 20
604.7427561109275
 30
0.0
 11
-52.59604193204687
 21
603.5251278057019
 31
0.0
  0
LINE
  5
1FF
330
40
100
AcDbEntity
  8
1
  6
Continuous
 62
     2
100
AcDbLine
 10
-52.59604193204687
 20
605.9603844161531
 30
0.0
 11
-47.31965260940169
 21
604.7427561109275
 31
0.0
  0
LINE
  5
200
330
40
100
AcDbEntity
  8
1
  6
Continuous
 62
     2
100
AcDbLine
 10
-52.59604193204687
 20
605.9603844161531
 30
0.0
 11
-52.59604193204687
 21
603.5251278057019
 31
0.0
  0
LINE
  5
201
330
40
100
AcDbEntity
  8
1
  6
Continuous
 62
     1
100
AcDbLine
 10
-53.09604193204687
 20
606.5889099570811
 30
0.0
 11
-53.09604193204687
 21
602.896602264774
 31
0.0
  0
LINE
  5
202
330
40
100
AcDbEntity
  8
1
  6
Continuous
 62
     1
100
AcDbLine
 10
-53.09604193204687
 20
606.5889099570811
 30
0.0
 11
-45.09604193204687
 21
604.7427561109275
 31
0.0
  0
LINE
  5
203
330
40
100
AcDbEntity
  8
1
  6
Continuous
 62
     1
100
AcDbLine
 10
-45.09604193204687
 20
604.7427561109275
 30
0.0
 11
-53.09604193204687
 21
602.896602264774
 31
0.0
  0
LINE
  5
204
330
40
100
AcDbEntity
  8
1
  6
Continuous
 62
     2
100
AcDbLine
 10
-45.13546470867719
 20
578.7427561109275
 30
0.0
 11
-45.05661915541678
 21
578.7427561109275
 31
0.0
  0
LINE
  5
205
330
40
100
AcDbEntity
  8
1
  6
Continuous
 62
     2
100
AcDbLine
 10
-45.13546470867719
 20
578.7427561109275
 30
0.0
 11
-45.09604193204697
 21
578.9135881429916
 31
0.0
  0
LINE
  5
206
330
40
100
AcDbEntity
  8
1
  6
Continuous
 62
     2
100
AcDbLine
 10
-45.09604193204697
 20
578.9135881429916
 30
0.0
 11
-45.05661915541678
 21
578.7427561109275
 31
0.0
  0
LINE
  5
207
330
40
100
AcDbEntity
  8
1
  6
Continuous
 62
     2
100
AcDbLine
 10
-44.50693916774939
 20
579.2427561109275
 30
0.0
 11
-45.68514469634478
 21
579.2427561109275
 31
0.0
  0
LINE
  5
208
330
40
100
AcDbEntity
  8
1
  6
Continuous
 62
     2
100
AcDbLine
 10
-44.50693916774939
 20
579.2427561109275
 30
0.0
 11
-45.09604193204697
 21
576.689977465637
 31
0.0
  0
LINE
  5
209
330
40
100
AcDbEntity
  8
1
  6
Continuous
 62
     2
100
AcDbLine
 10
-45.09604193204697
 20
576.689977465637
 30
0.0
 11
-45.68514469634478
 21
579.2427561109275
 31
0.0
  0
LINE
  5
20A
330
40
100
AcDbEntity
  8
1
  6
Continuous
 62
     2
100
AcDbLine
 10
-45.09604193204697
 20
574.4663667882821
 30
0.0
 11
-46.3136702372726
 21
579.7427561109275
 31
0.0
  0
LINE
  5
20B
330
40
100
AcDbEntity
  8
1
  6
Continuous
 62
     2
100
AcDbLine
 10
-43.8784136268212
 20
579.7427561109275
 30
0.0
 11
-45.09604193204697
 21
574.4663667882821
 31
0.0
  0
LINE
  5
20C
330
40
100
AcDbEntity
  8
1
  6
Continuous
 62
     2
100
AcDbLine
 10
-43.8784136268212
 20
579.7427561109275
 30
0.0
 11
-46.3136702372726
 21
579.7427561109275
 31
0.0
  0
LINE
  5
20D
330
40
100
AcDbEntity
  8
1
  6
Continuous
 62
     1
100
AcDbLine
 10
-43.24988808589329
 20
580.2427561109275
 30
0.0
 11
-45.09604193204687
 21
572.2427561109275
 31
0.0
  0
LINE
  5
20E
330
40
100
AcDbEntity
  8
1
  6
Continuous
 62
     1
100
AcDbLine
 10
-43.24988808589329
 20
580.2427561109275
 30
0.0
 11
-46.94219577820056
 21
580.2427561109275
 31
0.0
  0
LINE
  5
20F
330
40
100
AcDbEntity
  8
1
  6
Continuous
 62
     1
100
AcDbLine
 10
-45.09604193204687
 20
572.2427561109275
 30
0.0
 11
-46.94219577820056
 21
580.2427561109275
 31
0.0
  0
LINE
  5
210
330
40
100
AcDbEntity
  8
1
  6
Continuous
 62
     1
100
AcDbLine
 10
-45.09604193204687
 20
604.7427561109275
 30
0.0
 11
-45.09604193204687
 21
572.2427561109275
 31
0.0
  0
ENDBLK
  5
42
330
40
100
AcDbEntity
  8
0
100
AcDbBlockEnd
  0
BLOCK
  5
46
330
43
100
AcDbEntity
  8
0
100
AcDbBlockBegin
  2
TOP__4
 70
     0
 71
     0
 10
197.993179110369
 20
487.806504576427
 30
0.0
  3
TOP__4
  1

  0
INSERT
  5
44
330
43
100
AcDbEntity
  8
0
100
AcDbBlockReference
  2
Tuer__2
 10
1611.961192132893
 20
1022.162802367434
 30
0.0
  0
INSERT
  5
45
330
43
100
AcDbEntity
  8
1
100
AcDbBlockReference
  2
1__3
 10
-68.49604193204691
 20
572.2427561109275
 30
0.0
  0
POINT
  5
211
330
43
100
AcDbEntity
  8
1
 62
     3
 60
     1
100
AcDbPoint
 10
18.92895806795308
 20
579.8700623839902
 30
0.0
  0
POINT
  5
212
330
43
100
AcDbEntity
  8
1
 62
     3
 60
     1
100
AcDbPoint
 10
-23.41131970982463
 20
607.9927561109275
 30
0.0
  0
POINT
  5
213
330
43
100
AcDbEntity
  8
1
 62
     3
 60
     1
100
AcDbPoint
 10
1.05395806795309
 20
591.7427561109275
 30
0.0
  0
POINT
  5
214
330
43
100
AcDbEntity
  8
1
 62
     3
 60
     1
100
AcDbPoint
 10
-48.50854193204687
 20
607.9927561109275
 30
0.0
  0
POINT
  5
215
330
43
100
AcDbEntity
  8
1
 62
     3
 60
     1
100
AcDbPoint
 10
12.42895806795308
 20
572.2427561109275
 30
0.0
  0
LINE
  5
216
330
43
100
AcDbEntity
  8
1
  6
Continuous
 62
     1
100
AcDbLine
 10
-27.23390606495108
 20
587.7311981422648
 30
0.0
 11
-17.79604193204688
 21
578.7427561109275
 31
0.0
  0
LINE
  5
217
330
43
100
AcDbEntity
  8
1
  6
Continuous
 62
     1
100
AcDbLine
 10
3.72669142724108
 20
589.967508861216
 30
0.0
 11
18.92895806795308
 21
579.8700623839902
 31
0.0
  0
LINE
  5
218
330
43
100
AcDbEntity
  8
1
  6
Continuous
 62
     7
100
AcDbLine
 10
1.05395806795309
 20
591.7427561109275
 30
0.0
 11
18.92895806795308
 21
591.7427561109275
 31
0.0
  0
LINE
  5
219
330
43
100
AcDbEntity
  8
1
  6
Continuous
 62
     3
100
AcDbLine
 10
18.92895806795308
 20
579.8700623839902
 30
0.0
 11
18.92895806795308
 21
572.2427561109275
 31
0.0
  0
LINE
  5
21A
330
43
100
AcDbEntity
  8
1
  6
Continuous
 62
     1
100
AcDbLine
 10
1.05395806795309
 20
591.7427561109275
 30
0.0
 11
3.72669142724108
 21
589.967508861216
 31
0.0
  0
LINE
  5
21B
330
43
100
AcDbEntity
  8
1
  6
Continuous
 62
     1
100
AcDbLine
 10
-48.50854193204687
 20
607.9927561109275
 30
0.0
 11
-27.23390606495108
 21
587.7311981422648
 31
0.0
  0
LINE
  5
21C
330
43
100
AcDbEntity
  8
1
  6
Continuous
 62
     1
100
AcDbLine
 10
18.92895806795308
 20
572.2427561109275
 30
0.0
 11
12.42895806795308
 21
572.2427561109275
 31
0.0
  0
LINE
  5
21D
330
43
100
AcDbEntity
  8
1
  6
Continuous
 62
     3
100
AcDbLine
 10
18.92895806795308
 20
598.2427561109275
 30
0.0
 11
-65.57104193204687
 21
598.2427561109275
 31
0.0
  0
LINE
  5
21E
330
43
100
AcDbEntity
  8
1
  6
Continuous
 62
     3
100
AcDbLine
 10
18.92895806795308
 20
578.7427561109275
 30
0.0
 11
18.11645806795302
 21
578.7427561109275
 31
0.0
  0
LINE
  5
21F
330
43
100
AcDbEntity
  8
1
  6
Continuous
 62
     1
100
AcDbLine
 10
-17.97104193204695
 20
644.2222432607507
 30
0.0
 11
-17.97104193204695
 21
638.2500320005404
 31
0.0
  0
LINE
  5
220
330
43
100
AcDbEntity
  8
1
  6
Continuous
 62
     1
100
AcDbLine
 10
-32.37104193204682
 20
641.4177275267575
 30
0.0
 11
-42.40334640582996
 21
641.4177275267575
 31
0.0
  0
LINE
  5
221
330
43
100
AcDbEntity
  8
1
  6
Continuous
 62
     1
100
AcDbLine
 10
-30.77104193204577
 20
638.2500320005404
 30
0.0
 11
-30.77104193204691
 21
639.8177275267574
 31
0.0
  0
LINE
  5
222
330
43
100
AcDbEntity
  8
1
  6
Continuous
 62
     1
100
AcDbLine
 10
-43.13873745826385
 20
641.4177275267575
 30
0.0
 11
-43.37104193204682
 21
641.4177275267575
 31
0.0
  0
LINE
  5
223
330
43
100
AcDbEntity
  8
1
  6
Continuous
 62
     1
100
AcDbLine
 10
-44.97104193204696
 20
639.8177275267574
 30
0.0
 11
-44.97104193204696
 21
638.2500320005404
 31
0.0
  0
LINE
  5
224
330
43
100
AcDbEntity
  8
1
  6
DOT_CENTER
 62
     3
100
AcDbLine
 10
-38.97104193204696
 20
646.2500320005404
 30
0.0
 11
-46.57104193204687
 21
646.2500320005404
 31
0.0
  0
LINE
  5
225
330
43
100
AcDbEntity
  8
1
  6
DOT_CENTER
 62
     3
100
AcDbLine
 10
-42.77104193204691
 20
650.0500320005406
 30
0.0
 11
-42.77104193204691
 21
642.4500320005407
 31
0.0
  0
LINE
  5
226
330
43
100
AcDbEntity
  8
1
  6
Continuous
 62
     4
100
AcDbLine
 10
-43.3910419320468
 20
649.1852662331019
 30
0.0
 11
-43.3910419320468
 21
649.2500320005404
 31
0.0
  0
LINE
  5
227
330
43
100
AcDbEntity
  8
1
  6
Continuous
 62
     4
100
AcDbLine
 10
-42.15104193204679
 20
649.2500320005404
 30
0.0
 11
-42.15104193204679
 21
649.1852662331019
 31
0.0
  0
LINE
  5
228
330
43
100
AcDbEntity
  8
1
  6
Continuous
 62
     4
100
AcDbLine
 10
-45.70627616460793
 20
646.8700320005405
 30
0.0
 11
-45.77104193204691
 21
646.8700320005405
 31
0.0
  0
LINE
  5
229
330
43
100
AcDbEntity
  8
1
  6
Continuous
 62
     4
100
AcDbLine
 10
-45.77104193204691
 20
645.6300320005405
 30
0.0
 11
-45.70627616460793
 21
645.6300320005405
 31
0.0
  0
LINE
  5
22A
330
43
100
AcDbEntity
  8
1
  6
Continuous
 62
     4
100
AcDbLine
 10
-43.3910419320468
 20
643.3147977679791
 30
0.0
 11
-43.3910419320468
 21
643.2500320005404
 31
0.0
  0
LINE
  5
22B
330
43
100
AcDbEntity
  8
1
  6
Continuous
 62
     4
100
AcDbLine
 10
-42.15104193204679
 20
643.2500320005404
 30
0.0
 11
-42.15104193204679
 21
643.3147977679791
 31
0.0
  0
LINE
  5
22C
330
43
100
AcDbEntity
  8
1
  6
Continuous
 62
     4
100
AcDbLine
 10
-39.8358076994859
 20
646.8700320005405
 30
0.0
 11
-39.77104193204691
 21
646.8700320005405
 31
0.0
  0
LINE
  5
22D
330
43
100
AcDbEntity
  8
1
  6
Continuous
 62
     4
100
AcDbLine
 10
-39.77104193204691
 20
645.6300320005405
 30
0.0
 11
-39.8358076994859
 21
645.6300320005405
 31
0.0
  0
LINE
  5
22E
330
43
100
AcDbEntity
  8
1
  6
Continuous
 62
     1
100
AcDbLine
 10
-57.77104193204691
 20
643.3465322493901
 30
0.0
 11
-57.77104193204691
 21
638.2500320005404
 31
0.0
  0
LINE
  5
22F
330
43
100
AcDbEntity
  8
1
  6
Continuous
 62
     1
100
AcDbLine
 10
-43.57104193204687
 20
638.2500320005404
 30
0.0
 11
-65.57104193204687
 21
638.2500320005404
 31
0.0
  0
LINE
  5
230
330
43
100
AcDbEntity
  8
1
  6
Continuous
 62
     1
100
AcDbLine
 10
-65.57104193204687
 20
638.2500320005404
 30
0.0
 11
-65.57104193204687
 21
618.2500320005404
 31
0.0
  0
LINE
  5
231
330
43
100
AcDbEntity
  8
1
  6
Continuous
 62
     1
100
AcDbLine
 10
-65.57104193204687
 20
618.2500320005404
 30
0.0
 11
-43.57104193204687
 21
618.2500320005404
 31
0.0
  0
LINE
  5
232
330
43
100
AcDbEntity
  8
1
  6
Continuous
 62
     1
100
AcDbLine
 10
-43.57104193204687
 20
618.2500320005404
 30
0.0
 11
-43.57104193204687
 21
638.2500320005404
 31
0.0
  0
LINE
  5
233
330
43
100
AcDbEntity
  8
1
  6
Continuous
 62
     1
100
AcDbLine
 10
-11.59720365159496
 20
618.2500320005404
 30
0.0
 11
-41.97104193204696
 21
618.2500320005404
 31
0.0
  0
LINE
  5
234
330
43
100
AcDbEntity
  8
1
  6
DOT_CENTER
 62
     3
100
AcDbLine
 10
-11.59720365159496
 20
614.2067385280845
 30
0.0
 11
-11.59720365159496
 21
640.8958685178491
 31
0.0
  0
LINE
  5
235
330
43
100
AcDbEntity
  8
1
  6
Continuous
 62
     1
100
AcDbLine
 10
-41.97104193204696
 20
618.2500320005404
 30
0.0
 11
-41.97104193204696
 21
638.2500320005404
 31
0.0
  0
LINE
  5
236
330
43
100
AcDbEntity
  8
1
  6
Continuous
 62
     1
100
AcDbLine
 10
-41.97104193204696
 20
638.2500320005404
 30
0.0
 11
-11.59720365159496
 21
638.2500320005404
 31
0.0
  0
LINE
  5
237
330
43
100
AcDbEntity
  8
1
  6
Continuous
 62
     3
100
AcDbLine
 10
-52.57104193204687
 20
611.2427561109275
 30
0.0
 11
-52.57104193204687
 21
572.2427561109275
 31
0.0
  0
LINE
  5
238
330
43
100
AcDbEntity
  8
1
  6
Continuous
 62
     3
100
AcDbLine
 10
-39.57104193204687
 20
611.2427561109275
 30
0.0
 11
-39.57104193204687
 21
572.2427561109275
 31
0.0
  0
LINE
  5
239
330
43
100
AcDbEntity
  8
1
  6
Continuous
 62
     3
100
AcDbLine
 10
-33.07104193204687
 20
611.2427561109275
 30
0.0
 11
-33.07104193204687
 21
572.2427561109275
 31
0.0
  0
LINE
  5
23A
330
43
100
AcDbEntity
  8
1
  6
Continuous
 62
     3
100
AcDbLine
 10
-7.07104193204692
 20
611.2427561109275
 30
0.0
 11
-7.07104193204692
 21
572.2427561109275
 31
0.0
  0
LINE
  5
23B
330
43
100
AcDbEntity
  8
1
  6
Continuous
 62
     3
100
AcDbLine
 10
-65.57104193204687
 20
581.9927561109275
 30
0.0
 11
18.92895806795308
 21
581.9927561109275
 31
0.0
  0
LINE
  5
23C
330
43
100
AcDbEntity
  8
1
  6
Continuous
 62
     3
100
AcDbLine
 10
-65.57104193204687
 20
588.4927561109275
 30
0.0
 11
18.92895806795308
 21
588.4927561109275
 31
0.0
  0
LINE
  5
23D
330
43
100
AcDbEntity
  8
1
  6
Continuous
 62
     7
100
AcDbLine
 10
-65.57104193204687
 20
591.7427561109275
 30
0.0
 11
1.05395806795309
 21
591.7427561109275
 31
0.0
  0
LINE
  5
23E
330
43
100
AcDbEntity
  8
1
  6
Continuous
 62
     3
100
AcDbLine
 10
-65.57104193204687
 20
594.9927561109275
 30
0.0
 11
18.92895806795308
 21
594.9927561109275
 31
0.0
  0
LINE
  5
23F
330
43
100
AcDbEntity
  8
1
  6
Continuous
 62
     3
100
AcDbLine
 10
-65.57104193204687
 20
601.4927561109275
 30
0.0
 11
18.92895806795308
 21
601.4927561109275
 31
0.0
  0
LINE
  5
240
330
43
100
AcDbEntity
  8
1
  6
Continuous
 62
     3
100
AcDbLine
 10
-65.57104193204687
 20
607.9927561109275
 30
0.0
 11
-45.42104193204689
 21
607.9927561109275
 31
0.0
  0
LINE
  5
241
330
43
100
AcDbEntity
  8
1
  6
Continuous
 62
     3
100
AcDbLine
 10
-65.57104193204687
 20
611.2427561109275
 30
0.0
 11
-59.07104193204687
 21
611.2427561109275
 31
0.0
  0
LINE
  5
242
330
43
100
AcDbEntity
  8
1
  6
Continuous
 62
     1
100
AcDbLine
 10
-65.57104193204687
 20
572.2427561109275
 30
0.0
 11
-65.57104193204687
 21
598.2427561109275
 31
0.0
  0
LINE
  5
243
330
43
100
AcDbEntity
  8
1
  6
Continuous
 62
     3
100
AcDbLine
 10
-46.07104193204687
 20
572.2427561109275
 30
0.0
 11
-46.07104193204687
 21
611.2427561109275
 31
0.0
  0
LINE
  5
244
330
43
100
AcDbEntity
  8
1
  6
Continuous
 62
     3
100
AcDbLine
 10
18.92895806795308
 20
585.2427561109275
 30
0.0
 11
1.35395806795309
 21
585.2427561109275
 31
0.0
  0
LINE
  5
245
330
43
100
AcDbEntity
  8
1
  6
Continuous
 62
     1
100
AcDbLine
 10
-39.57104193204687
 20
559.4927561109275
 30
0.0
 11
-47.57104193204687
 21
557.6466022647737
 31
0.0
  0
LINE
  5
246
330
43
100
AcDbEntity
  8
1
  6
Continuous
 62
     1
100
AcDbLine
 10
-21.50834712069486
 20
646.0897207043531
 30
0.0
 11
-41.78431223447292
 21
650.9028476348685
 31
0.0
  0
LINE
  5
247
330
43
100
AcDbEntity
  8
1
  6
Continuous
 62
     1
100
AcDbLine
 10
-54.68414727880094
 20
645.8903642799603
 30
0.0
 11
-44.60207684775783
 21
650.5946166489034
 31
0.0
  0
LINE
  5
248
330
43
100
AcDbEntity
  8
1
  6
Continuous
 62
     3
100
AcDbLine
 10
-13.57104193204686
 20
572.2427561109275
 30
0.0
 11
-13.57104193204766
 21
611.2427561109275
 31
0.0
  0
LINE
  5
249
330
43
100
AcDbEntity
  8
1
  6
Continuous
 62
     1
100
AcDbLine
 10
-55.82104193204687
 20
559.4927561109275
 30
0.0
 11
-47.57104193204687
 21
559.4927561109275
 31
0.0
  0
LINE
  5
24A
330
43
100
AcDbEntity
  8
1
  6
Continuous
 62
     1
100
AcDbLine
 10
-47.57104193204687
 20
561.3389099570809
 30
0.0
 11
-47.57104193204687
 21
557.6466022647737
 31
0.0
  0
LINE
  5
24B
330
43
100
AcDbEntity
  8
1
  6
Continuous
 62
     1
100
AcDbLine
 10
-47.57104193204687
 20
561.3389099570809
 30
0.0
 11
-39.57104193204687
 21
559.4927561109275
 31
0.0
  0
LINE
  5
24C
330
43
100
AcDbEntity
  8
1
  6
Continuous
 62
     2
100
AcDbLine
 10
-47.07104193204687
 20
560.7103844161531
 30
0.0
 11
-47.07104193204687
 21
558.2751278057017
 31
0.0
  0
LINE
  5
24D
330
43
100
AcDbEntity
  8
1
  6
Continuous
 62
     2
100
AcDbLine
 10
-47.07104193204687
 20
560.7103844161531
 30
0.0
 11
-41.79465260940169
 21
559.4927561109275
 31
0.0
  0
LINE
  5
24E
330
43
100
AcDbEntity
  8
1
  6
Continuous
 62
     2
100
AcDbLine
 10
-41.79465260940169
 20
559.4927561109275
 30
0.0
 11
-47.07104193204687
 21
558.2751278057017
 31
0.0
  0
LINE
  5
24F
330
43
100
AcDbEntity
  8
1
  6
Continuous
 62
     2
100
AcDbLine
 10
-44.01826328675634
 20
559.4927561109273
 30
0.0
 11
-46.57104193204687
 21
558.9036533466297
 31
0.0
  0
LINE
  5
250
330
43
100
AcDbEntity
  8
1
  6
Continuous
 62
     2
100
AcDbLine
 10
-46.57104193204687
 20
560.0818588752252
 30
0.0
 11
-44.01826328675634
 21
559.4927561109273
 31
0.0
  0
LINE
  5
251
330
43
100
AcDbEntity
  8
1
  6
Continuous
 62
     2
100
AcDbLine
 10
-46.57104193204687
 20
560.0818588752252
 30
0.0
 11
-46.57104193204687
 21
558.9036533466297
 31
0.0
  0
LINE
  5
252
330
43
100
AcDbEntity
  8
1
  6
Continuous
 62
     2
100
AcDbLine
 10
-46.24187396411106
 20
559.4927561109273
 30
0.0
 11
-46.07104193204687
 21
559.5321788875576
 31
0.0
  0
LINE
  5
253
330
43
100
AcDbEntity
  8
1
  6
Continuous
 62
     2
100
AcDbLine
 10
-46.07104193204687
 20
559.4533333342972
 30
0.0
 11
-46.24187396411106
 21
559.4927561109273
 31
0.0
  0
LINE
  5
254
330
43
100
AcDbEntity
  8
1
  6
Continuous
 62
     2
100
AcDbLine
 10
-46.07104193204687
 20
559.4533333342972
 30
0.0
 11
-46.07104193204687
 21
559.5321788875576
 31
0.0
  0
LINE
  5
255
330
43
100
AcDbEntity
  8
1
  6
Continuous
 62
     1
100
AcDbLine
 10
-74.32104193204687
 20
598.2427561109275
 30
0.0
 11
-72.47488808589316
 21
590.2427561109275
 31
0.0
  0
LINE
  5
256
330
43
100
AcDbEntity
  8
1
  6
Continuous
 62
     1
100
AcDbLine
 10
-74.32104193204687
 20
581.9927561109275
 30
0.0
 11
-74.32104193204687
 21
590.2427561109275
 31
0.0
  0
LINE
  5
257
330
43
100
AcDbEntity
  8
1
  6
Continuous
 62
     1
100
AcDbLine
 10
-76.16719577820044
 20
590.2427561109275
 30
0.0
 11
-72.47488808589316
 21
590.2427561109275
 31
0.0
  0
LINE
  5
258
330
43
100
AcDbEntity
  8
1
  6
Continuous
 62
     1
100
AcDbLine
 10
-76.16719577820044
 20
590.2427561109275
 30
0.0
 11
-74.32104193204687
 21
598.2427561109275
 31
0.0
  0
LINE
  5
259
330
43
100
AcDbEntity
  8
1
  6
Continuous
 62
     2
100
AcDbLine
 10
-75.53867023727256
 20
590.7427561109275
 30
0.0
 11
-73.10341362682124
 21
590.7427561109275
 31
0.0
  0
LINE
  5
25A
330
43
100
AcDbEntity
  8
1
  6
Continuous
 62
     2
100
AcDbLine
 10
-75.53867023727256
 20
590.7427561109275
 30
0.0
 11
-74.32104193204687
 21
596.0191454335729
 31
0.0
  0
LINE
  5
25B
330
43
100
AcDbEntity
  8
1
  6
Continuous
 62
     2
100
AcDbLine
 10
-74.32104193204687
 20
596.0191454335729
 30
0.0
 11
-73.10341362682124
 21
590.7427561109275
 31
0.0
  0
LINE
  5
25C
330
43
100
AcDbEntity
  8
1
  6
Continuous
 62
     2
100
AcDbLine
 10
-74.32104193204687
 20
593.7955347562181
 30
0.0
 11
-73.73193916774915
 21
591.2427561109275
 31
0.0
  0
LINE
  5
25D
330
43
100
AcDbEntity
  8
1
  6
Continuous
 62
     2
100
AcDbLine
 10
-74.91014469634445
 20
591.2427561109275
 30
0.0
 11
-74.32104193204687
 21
593.7955347562181
 31
0.0
  0
LINE
  5
25E
330
43
100
AcDbEntity
  8
1
  6
Continuous
 62
     2
100
AcDbLine
 10
-74.91014469634445
 20
591.2427561109275
 30
0.0
 11
-73.73193916774915
 21
591.2427561109275
 31
0.0
  0
LINE
  5
25F
330
43
100
AcDbEntity
  8
1
  6
Continuous
 62
     2
100
AcDbLine
 10
-74.32104193204687
 20
591.5719240788635
 30
0.0
 11
-74.36046470867706
 21
591.7427561109275
 31
0.0
  0
LINE
  5
260
330
43
100
AcDbEntity
  8
1
  6
Continuous
 62
     2
100
AcDbLine
 10
-74.28161915541665
 20
591.7427561109275
 30
0.0
 11
-74.32104193204687
 21
591.5719240788635
 31
0.0
  0
LINE
  5
261
330
43
100
AcDbEntity
  8
1
  6
Continuous
 62
     2
100
AcDbLine
 10
-74.28161915541665
 20
591.7427561109275
 30
0.0
 11
-74.36046470867706
 21
591.7427561109275
 31
0.0
  0
LINE
  5
262
330
43
100
AcDbEntity
  8
1
  6
Continuous
 62
     3
100
AcDbLine
 10
5.9289580679524
 20
603.814184682356
 30
0.0
 11
5.92895806795308
 21
572.2427561109275
 31
0.0
  0
LINE
  5
263
330
43
100
AcDbEntity
  8
1
  6
Continuous
 62
     1
100
AcDbLine
 10
5.92895806795308
 20
572.2427561109275
 30
0.0
 11
-65.57104193204687
 21
572.2427561109275
 31
0.0
  0
LINE
  5
264
330
43
100
AcDbEntity
  8
1
  6
Continuous
 62
     1
100
AcDbLine
 10
-65.57104193204687
 20
598.2427561109275
 30
0.0
 11
-65.57104193204687
 21
601.4927561109275
 31
0.0
  0
LINE
  5
265
330
43
100
AcDbEntity
  8
1
  6
Continuous
 62
     3
100
AcDbLine
 10
-0.57104193204692
 20
611.2427561109275
 30
0.0
 11
-0.57104193204692
 21
572.2427561109275
 31
0.0
  0
LINE
  5
266
330
43
100
AcDbEntity
  8
1
  6
Continuous
 62
     3
100
AcDbLine
 10
-65.57104193204687
 20
604.7427561109275
 30
0.0
 11
18.92895806795308
 21
604.7427561109275
 31
0.0
  0
LINE
  5
267
330
43
100
AcDbEntity
  8
1
  6
Continuous
 62
     3
100
AcDbLine
 10
-27.89604193204691
 20
585.2427561109275
 30
0.0
 11
-65.57104193204687
 21
585.2427561109275
 31
0.0
  0
LINE
  5
268
330
43
100
AcDbEntity
  8
1
  6
Continuous
 62
     3
100
AcDbLine
 10
1.35395806795309
 20
585.2427561109275
 30
0.0
 11
-27.89604193204691
 21
585.2427561109275
 31
0.0
  0
LINE
  5
269
330
43
100
AcDbEntity
  8
1
  6
Continuous
 62
     3
100
AcDbLine
 10
18.92895806795308
 20
611.2427561109275
 30
0.0
 11
18.92895806795308
 21
604.7427561109275
 31
0.0
  0
LINE
  5
26A
330
43
100
AcDbEntity
  8
1
  6
Continuous
 62
     3
100
AcDbLine
 10
-59.07104193204687
 20
572.2427561109275
 30
0.0
 11
-59.07104193204687
 21
611.2427561109275
 31
0.0
  0
LINE
  5
26B
330
43
100
AcDbEntity
  8
1
  6
Continuous
 62
     3
100
AcDbLine
 10
-20.07104193204686
 20
572.2427561109275
 30
0.0
 11
-20.07104193204686
 21
611.2427561109275
 31
0.0
  0
LINE
  5
26C
330
43
100
AcDbEntity
  8
1
  6
Continuous
 62
     3
100
AcDbLine
 10
-16.17104193204637
 20
578.7427561109275
 30
0.0
 11
-65.57104193204687
 21
578.7427561109275
 31
0.0
  0
LINE
  5
26D
330
43
100
AcDbEntity
  8
1
  6
Continuous
 62
     3
100
AcDbLine
 10
18.92895806795308
 20
581.9927561109275
 30
0.0
 11
18.92895806795308
 21
579.8700623839902
 31
0.0
  0
LINE
  5
26E
330
43
100
AcDbEntity
  8
1
  6
Continuous
 62
     1
100
AcDbLine
 10
-23.41131970982463
 20
607.9927561109275
 30
0.0
 11
1.05395806795309
 21
591.7427561109275
 31
0.0
  0
LINE
  5
26F
330
43
100
AcDbEntity
  8
1
  6
Continuous
 62
     7
100
AcDbLine
 10
12.42895806795308
 20
611.2427561109275
 30
0.0
 11
12.42895806795308
 21
572.2427561109275
 31
0.0
  0
LINE
  5
270
330
43
100
AcDbEntity
  8
1
  6
Continuous
 62
     1
100
AcDbLine
 10
12.42895806795308
 20
572.2427561109275
 30
0.0
 11
5.92895806795308
 21
572.2427561109275
 31
0.0
  0
LINE
  5
271
330
43
100
AcDbEntity
  8
1
  6
Continuous
 62
     1
100
AcDbLine
 10
-65.57104193204687
 20
604.7427561109275
 30
0.0
 11
-65.57104193204687
 21
611.2427561109275
 31
0.0
  0
LINE
  5
272
330
43
100
AcDbEntity
  8
1
  6
Continuous
 62
     1
100
AcDbLine
 10
-65.57104193204687
 20
601.4927561109275
 30
0.0
 11
-65.57104193204687
 21
604.7427561109275
 31
0.0
  0
LINE
  5
273
330
43
100
AcDbEntity
  8
1
  6
Continuous
 62
     3
100
AcDbLine
 10
-59.07104193204687
 20
611.2427561109275
 30
0.0
 11
-52.57104193204687
 21
611.2427561109275
 31
0.0
  0
LINE
  5
274
330
43
100
AcDbEntity
  8
1
  6
Continuous
 62
     3
100
AcDbLine
 10
18.92895806795308
 20
604.7427561109275
 30
0.0
 11
18.92895806795308
 21
601.4927561109275
 31
0.0
  0
LINE
  5
275
330
43
100
AcDbEntity
  8
1
  6
Continuous
 62
     3
100
AcDbLine
 10
-46.07104193204687
 20
611.2427561109275
 30
0.0
 11
-39.57104193204687
 21
611.2427561109275
 31
0.0
  0
LINE
  5
276
330
43
100
AcDbEntity
  8
1
  6
Continuous
 62
     3
100
AcDbLine
 10
18.92895806795308
 20
601.4927561109275
 30
0.0
 11
18.92895806795308
 21
594.9927561109275
 31
0.0
  0
LINE
  5
277
330
43
100
AcDbEntity
  8
1
  6
Continuous
 62
     3
100
AcDbLine
 10
-39.57104193204687
 20
611.2427561109275
 30
0.0
 11
-33.07104193204687
 21
611.2427561109275
 31
0.0
  0
LINE
  5
278
330
43
100
AcDbEntity
  8
1
  6
Continuous
 62
     3
100
AcDbLine
 10
18.92895806795308
 20
594.9927561109275
 30
0.0
 11
18.92895806795308
 21
581.9927561109275
 31
0.0
  0
LINE
  5
279
330
43
100
AcDbEntity
  8
1
  6
Continuous
 62
     3
100
AcDbLine
 10
-33.07104193204687
 20
611.2427561109275
 30
0.0
 11
-26.57104193204687
 21
611.2427561109275
 31
0.0
  0
LINE
  5
27A
330
43
100
AcDbEntity
  8
1
  6
Continuous
 62
     3
100
AcDbLine
 10
-20.07104193204686
 20
611.2427561109275
 30
0.0
 11
-13.57104193204766
 21
611.2427561109275
 31
0.0
  0
LINE
  5
27B
330
43
100
AcDbEntity
  8
1
  6
Continuous
 62
     3
100
AcDbLine
 10
-13.57104193204766
 20
611.2427561109275
 30
0.0
 11
-7.07104193204692
 21
611.2427561109275
 31
0.0
  0
LINE
  5
27C
330
43
100
AcDbEntity
  8
1
  6
Continuous
 62
     3
100
AcDbLine
 10
12.42895806795308
 20
611.2427561109275
 30
0.0
 11
18.92895806795308
 21
611.2427561109275
 31
0.0
  0
LINE
  5
27D
330
43
100
AcDbEntity
  8
1
  6
Continuous
 62
     3
100
AcDbLine
 10
-52.57104193204687
 20
611.2427561109275
 30
0.0
 11
-46.07104193204687
 21
611.2427561109275
 31
0.0
  0
LINE
  5
27E
330
43
100
AcDbEntity
  8
1
  6
Continuous
 62
     3
100
AcDbLine
 10
-7.07104193204692
 20
611.2427561109275
 30
0.0
 11
5.92895806795223
 21
611.2427561109275
 31
0.0
  0
LINE
  5
27F
330
43
100
AcDbEntity
  8
1
  6
Continuous
 62
     3
100
AcDbLine
 10
5.92895806795223
 20
611.2427561109275
 30
0.0
 11
12.42895806795308
 21
611.2427561109275
 31
0.0
  0
LINE
  5
280
330
43
100
AcDbEntity
  8
1
  6
Continuous
 62
     3
100
AcDbLine
 10
5.92895806795223
 20
611.2427561109275
 30
0.0
 11
5.92895806795308
 21
572.2427561109275
 31
0.0
  0
LINE
  5
281
330
43
100
AcDbEntity
  8
1
  6
Continuous
 62
     3
100
AcDbLine
 10
-26.57104193204687
 20
611.2427561109275
 30
0.0
 11
-20.07104193204686
 21
611.2427561109275
 31
0.0
  0
LINE
  5
282
330
43
100
AcDbEntity
  8
1
  6
Continuous
 62
     3
100
AcDbLine
 10
-26.57104193204687
 20
572.2427561109275
 30
0.0
 11
-26.57104193204687
 21
611.2427561109275
 31
0.0
  0
LINE
  5
283
330
43
100
AcDbEntity
  8
1
  6
Continuous
 62
     3
100
AcDbLine
 10
18.11645806795302
 20
578.7427561109275
 30
0.0
 11
-16.17104193204637
 21
578.7427561109275
 31
0.0
  0
LINE
  5
284
330
43
100
AcDbEntity
  8
1
  6
Continuous
 62
     3
100
AcDbLine
 10
-45.42104193204689
 20
607.9927561109275
 30
0.0
 11
18.92895806795308
 21
607.9927561109275
 31
0.0
  0
ARC
  5
285
330
43
100
AcDbEntity
  8
1
  6
Continuous
 62
     1
100
AcDbCircle
 10
-42.40334640582996
 20
646.6177275267576
 30
0.0
 40
5.200000000000066
100
AcDbArc
 50
-94.0548072279965
 51
-90.0
  0
ARC
  5
286
330
43
100
AcDbEntity
  8
1
  6
Continuous
 62
     1
100
AcDbCircle
 10
-32.37104193204682
 20
639.8177275267574
 30
0.0
 40
1.599999999999913
100
AcDbArc
 50
0.0
 51
90.0
  0
ARC
  5
287
330
43
100
AcDbEntity
  8
1
  6
Continuous
 62
     1
100
AcDbCircle
 10
-43.13873745826385
 20
645.8823364743234
 30
0.0
 40
5.200000000000284
100
AcDbArc
 50
4.05480722799625
 51
85.94519277200374
  0
ARC
  5
288
330
43
100
AcDbEntity
  8
1
  6
Continuous
 62
     1
100
AcDbCircle
 10
-43.13873745826385
 20
646.6177275267576
 30
0.0
 40
5.200000000000045
100
AcDbArc
 50
-90.0
 51
-4.05480722799875
  0
ARC
  5
289
330
43
100
AcDbEntity
  8
1
  6
Continuous
 62
     1
100
AcDbCircle
 10
-43.37104193204682
 20
639.8177275267574
 30
0.0
 40
1.600000000000136
100
AcDbArc
 50
90.0
 51
180.0
  0
ARC
  5
28A
330
43
100
AcDbEntity
  8
1
  6
Continuous
 62
     4
100
AcDbCircle
 10
-42.77104193204691
 20
649.2500320005404
 30
0.0
 40
0.6200000000001253
100
AcDbArc
 50
0.0
 51
180.0
  0
ARC
  5
28B
330
43
100
AcDbEntity
  8
1
  6
Continuous
 62
     4
100
AcDbCircle
 10
-42.77104193204691
 20
646.2500320005404
 30
0.0
 40
2.9999999999997
100
AcDbArc
 50
11.92708155573609
 51
78.07291844426557
  0
ARC
  5
28C
330
43
100
AcDbEntity
  8
1
  6
Continuous
 62
     4
100
AcDbCircle
 10
-42.77104193204691
 20
646.2500320005404
 30
0.0
 40
3.000000000000096
100
AcDbArc
 50
101.9270815557299
 51
168.0729184442639
  0
ARC
  5
28D
330
43
100
AcDbEntity
  8
1
  6
Continuous
 62
     4
100
AcDbCircle
 10
-45.77104193204691
 20
646.2500320005404
 30
0.0
 40
0.6200000000001182
100
AcDbArc
 50
90.0
 51
-90.0
  0
ARC
  5
28E
330
43
100
AcDbEntity
  8
1
  6
Continuous
 62
     4
100
AcDbCircle
 10
-42.77104193204691
 20
646.2500320005404
 30
0.0
 40
2.999999999999653
100
AcDbArc
 50
-168.0729184442682
 51
-101.9270815557308
  0
ARC
  5
28F
330
43
100
AcDbEntity
  8
1
  6
Continuous
 62
     4
100
AcDbCircle
 10
-42.77104193204691
 20
643.2500320005404
 30
0.0
 40
0.6199999999998838
100
AcDbArc
 50
180.0
 51
0.0
  0
ARC
  5
290
330
43
100
AcDbEntity
  8
1
  6
Continuous
 62
     4
100
AcDbCircle
 10
-39.77104193204691
 20
646.2500320005404
 30
0.0
 40
0.6199999999998909
100
AcDbArc
 50
-90.0
 51
90.0
  0
ARC
  5
291
330
43
100
AcDbEntity
  8
1
  6
Continuous
 62
     4
100
AcDbCircle
 10
-42.77104193204691
 20
646.2500320005404
 30
0.0
 40
2.999999999999924
100
AcDbArc
 50
-78.07291844426467
 51
-11.92708155573185
  0
ARC
  5
292
330
43
100
AcDbEntity
  8
1
  6
Continuous
 62
     1
100
AcDbCircle
 10
-42.40334640582996
 20
645.8823364743234
 30
0.0
 40
5.200000000000066
100
AcDbArc
 50
94.0548072279965
 51
115.0135621854698
  0
ARC
  5
293
330
43
100
AcDbEntity
  8
1
  6
Continuous
 62
     1
100
AcDbCircle
 10
-23.35604904561587
 20
638.3060199395084
 30
0.0
 40
7.999999999999975
100
AcDbArc
 50
47.69121670047689
 51
76.64624107233588
  0
ARC
  5
294
330
43
100
AcDbEntity
  8
1
  6
Continuous
 62
     1
100
AcDbCircle
 10
-51.30148506044993
 20
638.640702472914
 30
0.0
 40
8.000000000000348
100
AcDbArc
 50
115.013562185472
 51
143.9685865573257
  0
SOLID
  5
295
330
43
100
AcDbEntity
  8
1
 62
     7
100
AcDbTrace
 10
-29.3140281831346
 20
584.8789334929158
 30
0.0
 11
-29.98137015366385
 21
585.5144972743722
 31
0.0
 12
-27.23390606495108
 22
587.7311981422648
 32
0.0
 13
-27.23390606495108
 23
587.7311981422648
 33
0.0
  0
LEADER
  5
296
330
43
100
AcDbEntity
  8
1
  6
Continuous
 62
     7
100
AcDbLeader
  3
Standard
 71
     0
 76
     2
 10
-27.23390606495108
 20
587.7311981422648
 30
0.0
 10
-45.86362171776109
 20
568.1699967068131
 30
0.0
  0
SOLID
  5
297
330
43
100
AcDbEntity
  8
1
 62
     7
100
AcDbTrace
 10
2.17403939236687
 20
586.7970840765722
 30
0.0
 11
1.40637841218495
 21
587.3069695984642
 31
0.0
 12
3.72669142724108
 22
589.967508861216
 32
0.0
 13
3.72669142724108
 23
589.967508861216
 33
0.0
  0
LEADER
  5
298
330
43
100
AcDbEntity
  8
1
  6
Continuous
 62
     7
100
AcDbLeader
  3
Standard
 71
     0
 76
     2
 10
3.72669142724108
 20
589.967508861216
 30
0.0
 10
-10.4955653637649
 20
568.5551111369787
 30
0.0
  0
TEXT
  5
299
330
43
100
AcDbEntity
  8
1
 62
     4
100
AcDbText
 10
-67.37296047849958
 20
545.1799713959933
 30
0.0
 40
3.5
  1
X-Maß = max. 90 mm
 41
0.9
  7
CONVERTER_12
100
AcDbText
  0
MTEXT
  5
29A
330
43
100
AcDbEntity
  8
1
 62
     3
100
AcDbMText
 10
-69.29567473302706
 20
577.9304567286254
 30
0.0
 40
1.625
 41
0.0
 71
     7
 72
     1
  1
50
  7
CONVERTER_12
 73
     1
 44
1.02040816326531
  0
MTEXT
  5
29B
330
43
100
AcDbEntity
  8
1
 62
     3
100
AcDbMText
 10
-69.29257750937907
 20
584.4304567286254
 30
0.0
 40
1.625
 41
0.0
 71
     7
 72
     1
  1
60
  7
CONVERTER_12
 73
     1
 44
1.02040816326531
  0
MTEXT
  5
29C
330
43
100
AcDbEntity
  8
1
 62
     3
100
AcDbMText
 10
-69.29257750937907
 20
590.9304567286254
 30
0.0
 40
1.625
 41
0.0
 71
     7
 72
     1
  1
70
  7
CONVERTER_12
 73
     1
 44
1.02040816326531
  0
MTEXT
  5
29D
330
43
100
AcDbEntity
  8
1
 62
     3
100
AcDbMText
 10
-69.29257750937907
 20
597.4304567286254
 30
0.0
 40
1.625
 41
0.0
 71
     7
 72
     1
  1
80
  7
CONVERTER_12
 73
     1
 44
1.02040816326531
  0
MTEXT
  5
29E
330
43
100
AcDbEntity
  8
1
 62
     3
100
AcDbMText
 10
-70.29561486960586
 20
610.4304567286254
 30
0.0
 40
1.625
 41
0.0
 71
     7
 72
     1
  1
100
  7
CONVERTER_12
 73
     1
 44
1.02040816326531
  0
MTEXT
  5
29F
330
43
100
AcDbEntity
  8
1
 62
     3
100
AcDbMText
 10
-60.75750649715116
 20
569.0616858720603
 30
0.0
 40
1.625
 41
0.0
 71
     7
 72
     1
  1
100
  7
CONVERTER_12
 73
     1
 44
1.02040816326531
  0
MTEXT
  5
2A0
330
43
100
AcDbEntity
  8
1
 62
     3
100
AcDbMText
 10
-27.92359524748606
 20
569.0616858720603
 30
0.0
 40
1.625
 41
0.0
 71
     7
 72
     1
  1
110
  7
CONVERTER_12
 73
     1
 44
1.02040816326531
  0
MTEXT
  5
2A1
330
43
100
AcDbEntity
  8
1
 62
     3
100
AcDbMText
 10
4.29836688136389
 20
569.0616858720603
 30
0.0
 40
1.625
 41
0.0
 71
     7
 72
     1
  1
120
  7
CONVERTER_12
 73
     1
 44
1.02040816326531
  0
TEXT
  5
2A3
330
43
100
AcDbEntity
  8
1
 62
     4
100
AcDbText
 10
-79.38636700009386
 20
608.8703462888184
 30
0.0
 40
4.0
  1
X
 41
0.95
  7
CONVERTER_17
100
AcDbText
  0
TEXT
  5
2A4
330
43
100
AcDbEntity
  8
1
 62
     4
100
AcDbText
 10
-83.3412640744429
 20
604.8703462888186
 30
0.0
 40
3.0
  1
in mm
 41
0.9
  7
CONVERTER_12
100
AcDbText
  0
TEXT
  5
2A5
330
43
100
AcDbEntity
  8
1
 62
     4
100
AcDbText
 10
-67.57104193204687
 20
553.8279934120299
 30
0.0
 40
3.5
  1
Türöffnungswinkel
 41
0.9
  7
CONVERTER_12
100
AcDbText
  0
MTEXT
  5
2A6
330
43
100
AcDbEntity
  8
1
 62
     4
100
AcDbMText
 10
-104.5710419320469
 20
524.0302284210737
 30
0.0
 40
3.0
 41
0.0
 71
     7
 72
     1
  1
Ablesebeispiel : X = 90 mm ^S 104° Türöffnungswinkel\P                 je nach Öffnungsgeschwindigkeit der Tür vergrößert sich der Türöffnungswinkel\P                 bis max.112°
  7
CONVERTER_13
 73
     1
 44
1.02040816326531
  0
MTEXT
  5
2A7
330
43
100
AcDbEntity
  8
1
 62
     3
100
AcDbMText
 10
-69.28992910348896
 20
603.9304567286254
 30
0.0
 40
1.625
 41
0.0
 71
     7
 72
     1
  1
90
  7
CONVERTER_12
 73
     1
 44
1.02040816326531
  0
TEXT
  5
2A8
330
43
100
AcDbEntity
  8
1
 62
     4
100
AcDbText
 10
-56.9915742021205
 20
565.0449427170784
 30
0.0
 40
2.0
  1
Beginn Dämpfung
 41
0.9
  7
CONVERTER_12
100
AcDbText
  0
MTEXT
  5
2A9
330
43
100
AcDbEntity
  8
1
 62
     4
100
AcDbMText
 10
-22.77024152155668
 20
561.6654699143785
 30
0.0
 40
2.0
 41
0.0
 71
     7
 72
     1
  1
Ende Dämpfung\P( max. Öffnungswinkel )
  7
CONVERTER_12
 73
     1
 44
1.02040816326531
  0
DIMENSION
  5
2B4
330
43
100
AcDbEntity
  8
1
100
AcDbDimension
  2
*D12
 10
-3.55914793909558
 20
618.2500320005404
 30
0.0
 11
-7.55914793909557
 21
632.1504225088424
 31
0.0
 70
    32
  1
X
 71
     5
 42
-1.0
 53
90.0
  3
ME10_DIM_10
100
AcDbAlignedDimension
 13
-38.97104193204696
 23
646.2500320005404
 33
0.0
 14
-11.59720365159496
 24
618.2500320005404
 34
0.0
 50
90.0
100
AcDbRotatedDimension
  0
ENDBLK
  5
47
330
43
100
AcDbEntity
  8
0
100
AcDbBlockEnd
  0
BLOCK
  5
49
330
48
100
AcDbEntity
  8
0
100
AcDbBlockBegin
  2
1__5
 70
     0
 71
     0
 10
81.60873527362338
 20
1312.543016117848
 30
0.0
  3
1__5
  1

  0
POINT
  5
2B5
330
48
100
AcDbEntity
  8
1
 62
     3
 60
     1
100
AcDbPoint
 10
161.1047353934501
 20
1771.349223998024
 30
0.0
  0
POINT
  5
2B6
330
48
100
AcDbEntity
  8
1
 62
     3
 60
     1
100
AcDbPoint
 10
234.308795273626
 20
1698.145164117848
 30
0.0
  0
POINT
  5
2B7
330
48
100
AcDbEntity
  8
1
 62
     3
 60
     1
100
AcDbPoint
 10
419.2473798759571
 20
1617.015676568428
 30
0.0
  0
POINT
  5
2B8
330
48
100
AcDbEntity
  8
1
 62
     3
 60
     1
100
AcDbPoint
 10
391.2473798759571
 20
1638.015676568428
 30
0.0
  0
POINT
  5
2B9
330
48
100
AcDbEntity
  8
1
 62
     3
 60
     1
100
AcDbPoint
 10
767.6621067611331
 20
1670.91723928031
 30
0.0
  0
POINT
  5
2BA
330
48
100
AcDbEntity
  8
1
 62
     3
 60
     1
100
AcDbPoint
 10
752.6621067611331
 20
1703.91723928031
 30
0.0
  0
LINE
  5
2BB
330
48
100
AcDbEntity
  8
1
  6
DASH_CENTER
 62
     3
100
AcDbLine
 10
608.0156303759795
 20
1406.741298237672
 30
0.0
 11
608.0156303759795
 21
1422.341298237671
 31
0.0
  0
LINE
  5
2BC
330
48
100
AcDbEntity
  8
1
  6
DASH_CENTER
 62
     3
100
AcDbLine
 10
615.8156303759795
 20
1414.541298237672
 30
0.0
 11
600.2156303759793
 21
1414.541298237672
 31
0.0
  0
LINE
  5
2BD
330
48
100
AcDbEntity
  8
1
  6
DASH_CENTER
 62
     3
100
AcDbLine
 10
608.0156303759795
 20
1362.741298237671
 30
0.0
 11
608.0156303759795
 21
1378.341298237672
 31
0.0
  0
LINE
  5
2BE
330
48
100
AcDbEntity
  8
1
  6
DASH_CENTER
 62
     3
100
AcDbLine
 10
615.8156303759795
 20
1370.541298237672
 30
0.0
 11
600.2156303759793
 21
1370.541298237672
 31
0.0
  0
LINE
  5
2BF
330
48
100
AcDbEntity
  8
1
  6
DASH_CENTER
 62
     3
100
AcDbLine
 10
568.0156303759795
 20
1384.741298237672
 30
0.0
 11
568.0156303759795
 21
1400.341298237671
 31
0.0
  0
LINE
  5
2C0
330
48
100
AcDbEntity
  8
1
  6
DASH_CENTER
 62
     3
100
AcDbLine
 10
575.815630375979
 20
1392.541298237672
 30
0.0
 11
560.2156303759796
 21
1392.541298237672
 31
0.0
  0
LINE
  5
2C1
330
48
100
AcDbEntity
  8
1
  6
DASH_CENTER
 62
     3
100
AcDbLine
 10
608.0156303759795
 20
1384.741298237671
 30
0.0
 11
608.0156303759795
 21
1400.341298237672
 31
0.0
  0
LINE
  5
2C2
330
48
100
AcDbEntity
  8
1
  6
DASH_CENTER
 62
     3
100
AcDbLine
 10
615.1781437955342
 20
1392.541298237672
 30
0.0
 11
600.8857617601084
 21
1392.541298237672
 31
0.0
  0
LINE
  5
2C3
330
48
100
AcDbEntity
  8
1
  6
DASH_CENTER
 62
     3
100
AcDbLine
 10
568.0156303759795
 20
1362.741298237671
 30
0.0
 11
568.0156303759795
 21
1378.341298237672
 31
0.0
  0
LINE
  5
2C4
330
48
100
AcDbEntity
  8
1
  6
DASH_CENTER
 62
     3
100
AcDbLine
 10
575.8156303759795
 20
1370.541298237672
 30
0.0
 11
560.2156303759793
 21
1370.541298237672
 31
0.0
  0
LINE
  5
2C5
330
48
100
AcDbEntity
  8
1
  6
DASH_CENTER
 62
     3
100
AcDbLine
 10
568.0156303759795
 20
1406.741298237672
 30
0.0
 11
568.0156303759795
 21
1422.341298237671
 31
0.0
  0
LINE
  5
2C6
330
48
100
AcDbEntity
  8
1
  6
DASH_CENTER
 62
     3
100
AcDbLine
 10
575.815630375979
 20
1414.541298237672
 30
0.0
 11
560.2156303759796
 21
1414.541298237672
 31
0.0
  0
LINE
  5
2C7
330
48
100
AcDbEntity
  8
1
  6
Continuous
 62
     3
100
AcDbLine
 10
202.1623188884696
 20
1448.113179400134
 30
0.0
 11
187.1623188884696
 21
1415.113179400134
 31
0.0
  0
LINE
  5
2C8
330
48
100
AcDbEntity
  8
1
  6
Continuous
 62
     3
100
AcDbLine
 10
563.5770457736455
 20
1382.211616688252
 30
0.0
 11
535.5770457736455
 21
1361.211616688252
 31
0.0
  0
LINE
  5
2C9
330
48
100
AcDbEntity
  8
0
  6
DASH_CENTER
 62
     3
100
AcDbLine
 10
611.0158743759794
 20
1452.540810237672
 30
0.0
 11
612.0156303759793
 21
1452.540810237672
 31
0.0
  0
LINE
  5
2CA
330
48
100
AcDbEntity
  8
0
  6
DASH_CENTER
 62
     3
100
AcDbLine
 10
588.0156303759793
 20
1355.165322237672
 30
0.0
 11
588.0156303759793
 21
1442.041298237672
 31
0.0
  0
LINE
  5
2CB
330
48
100
AcDbEntity
  8
0
  6
DASH_CENTER
 62
     3
100
AcDbLine
 10
161.10473539345
 20
1327.183342237672
 30
0.0
 11
793.7196902561527
 21
1327.183342237672
 31
0.0
  0
LINE
  5
2CC
330
48
100
AcDbEntity
  8
0
  6
Continuous
 62
     4
100
AcDbLine
 10
599.0151423759794
 20
1431.277138237672
 30
0.0
 11
597.9967103759793
 21
1433.040810237672
 31
0.0
  0
LINE
  5
2CD
330
48
100
AcDbEntity
  8
0
  6
Continuous
 62
     4
100
AcDbLine
 10
578.0336983759794
 20
1433.040810237672
 30
0.0
 11
577.0153863759792
 21
1431.277138237672
 31
0.0
  0
LINE
  5
2CE
330
48
100
AcDbEntity
  8
0
  6
Continuous
 62
     4
100
AcDbLine
 10
577.0153863759792
 20
1431.277138237672
 30
0.0
 11
599.0151423759794
 21
1431.277138237672
 31
0.0
  0
LINE
  5
2CF
330
48
100
AcDbEntity
  8
0
  6
Continuous
 62
     4
100
AcDbLine
 10
180.5162303759794
 20
1472.340616237672
 30
0.0
 11
180.5162303759794
 21
1442.341104237672
 31
0.0
  0
LINE
  5
2D0
330
48
100
AcDbEntity
  8
0
  6
Continuous
 62
     1
100
AcDbLine
 10
627.0156303759793
 20
1472.340616237672
 30
0.0
 11
180.5162303759794
 21
1472.340616237672
 31
0.0
  0
LINE
  5
2D1
330
48
100
AcDbEntity
  8
0
  6
Continuous
 62
     4
100
AcDbLine
 10
627.0156303759793
 20
1442.341104237672
 30
0.0
 11
627.0156303759793
 21
1472.340616237672
 31
0.0
  0
LINE
  5
2D2
330
48
100
AcDbEntity
  8
0
  6
Continuous
 62
     1
100
AcDbLine
 10
180.5162303759794
 20
1442.341104237672
 30
0.0
 11
627.0156303759793
 21
1442.341104237672
 31
0.0
  0
LINE
  5
2D3
330
48
100
AcDbEntity
  8
0
  6
Continuous
 62
     4
100
AcDbLine
 10
222.015386375979
 20
1439.040810237672
 30
0.0
 11
599.0151423759794
 21
1439.040810237672
 31
0.0
  0
LINE
  5
2D4
330
48
100
AcDbEntity
  8
0
  6
DASH_CENTER
 62
     3
100
AcDbLine
 10
233.0156303759793
 20
1449.041298237672
 30
0.0
 11
233.0156303759793
 21
1429.041298237672
 31
0.0
  0
LINE
  5
2D5
330
48
100
AcDbEntity
  8
0
  6
Continuous
 62
     4
100
AcDbLine
 10
228.7655083759792
 20
1432.041298237672
 30
0.0
 11
237.2657523759792
 21
1432.041298237672
 31
0.0
  0
LINE
  5
2D6
330
48
100
AcDbEntity
  8
0
  6
Continuous
 62
     4
100
AcDbLine
 10
227.7659963759791
 20
1433.040810237672
 30
0.0
 11
228.7655083759792
 21
1432.041298237672
 31
0.0
  0
LINE
  5
2D7
330
48
100
AcDbEntity
  8
0
  6
Continuous
 62
     4
100
AcDbLine
 10
238.265386375979
 20
1433.040810237672
 30
0.0
 11
237.2657523759792
 21
1432.041298237672
 31
0.0
  0
LINE
  5
2D8
330
48
100
AcDbEntity
  8
0
  6
Continuous
 62
     4
100
AcDbLine
 10
599.0151423759794
 20
1433.040810237672
 30
0.0
 11
222.015386375979
 21
1433.040810237672
 31
0.0
  0
LINE
  5
2D9
330
48
100
AcDbEntity
  8
0
  6
Continuous
 62
     4
100
AcDbLine
 10
225.0156303759793
 20
1442.341104237672
 30
0.0
 11
225.0156303759793
 21
1439.040810237672
 31
0.0
  0
LINE
  5
2DA
330
48
100
AcDbEntity
  8
0
  6
Continuous
 62
     4
100
AcDbLine
 10
241.0156303759792
 20
1442.341104237672
 30
0.0
 11
241.0156303759792
 21
1439.040810237672
 31
0.0
  0
LINE
  5
2DB
330
48
100
AcDbEntity
  8
0
  6
Continuous
 62
     4
100
AcDbLine
 10
222.015386375979
 20
1433.040810237672
 30
0.0
 11
222.015386375979
 21
1439.040810237672
 31
0.0
  0
LINE
  5
2DC
330
48
100
AcDbEntity
  8
0
  6
DASH_CENTER
 62
     3
100
AcDbLine
 10
181.003046375979
 20
1452.540810237672
 30
0.0
 11
196.5161083759795
 21
1452.540810237672
 31
0.0
  0
LINE
  5
2DD
330
48
100
AcDbEntity
  8
0
  6
DASH_CENTER
 62
     3
100
AcDbLine
 10
189.5162303759794
 20
1445.540810237672
 30
0.0
 11
189.5162303759794
 21
1459.541298237672
 31
0.0
  0
LINE
  5
2DE
330
48
100
AcDbEntity
  8
0
  6
Continuous
 62
     4
100
AcDbLine
 10
599.0151423759794
 20
1439.040810237672
 30
0.0
 11
599.0151423759794
 21
1433.040810237672
 31
0.0
  0
LINE
  5
2DF
330
48
100
AcDbEntity
  8
0
  6
Continuous
 62
     4
100
AcDbLine
 10
577.0153863759792
 20
1429.541298237672
 30
0.0
 11
577.0153863759792
 21
1431.277138237672
 31
0.0
  0
LINE
  5
2E0
330
48
100
AcDbEntity
  8
0
  6
Continuous
 62
     4
100
AcDbLine
 10
599.0151423759794
 20
1429.541298237672
 30
0.0
 11
599.0151423759794
 21
1422.541298237672
 31
0.0
  0
LINE
  5
2E1
330
48
100
AcDbEntity
  8
0
  6
DASH_CENTER
 62
     3
100
AcDbLine
 10
612.0156303759793
 20
1452.540810237672
 30
0.0
 11
625.0162403759794
 21
1452.540810237672
 31
0.0
  0
LINE
  5
2E2
330
48
100
AcDbEntity
  8
0
  6
DASH_CENTER
 62
     3
100
AcDbLine
 10
618.0156303759793
 20
1445.540810237672
 30
0.0
 11
618.0156303759793
 21
1459.541298237672
 31
0.0
  0
LINE
  5
2E3
330
48
100
AcDbEntity
  8
0
  6
Continuous
 62
     1
100
AcDbLine
 10
630.0156303759793
 20
1472.340616237672
 30
0.0
 11
177.5268413944343
 21
1472.340616237672
 31
0.0
  0
LINE
  5
2E4
330
48
100
AcDbEntity
  8
0
  6
Continuous
 62
     4
100
AcDbLine
 10
177.5268413944343
 20
1442.341104237672
 30
0.0
 11
177.5268413944343
 21
1472.340616237672
 31
0.0
  0
LINE
  5
2E5
330
48
100
AcDbEntity
  8
0
  6
Continuous
 62
     1
100
AcDbLine
 10
180.5162303759794
 20
1442.341104237672
 30
0.0
 11
177.5268413944343
 21
1442.341104237672
 31
0.0
  0
LINE
  5
2E6
330
48
100
AcDbEntity
  8
0
  6
Continuous
 62
     4
100
AcDbLine
 10
630.0156303759793
 20
1442.341104237672
 30
0.0
 11
630.0156303759793
 21
1472.340616237672
 31
0.0
  0
LINE
  5
2E7
330
48
100
AcDbEntity
  8
0
  6
Continuous
 62
     4
100
AcDbLine
 10
627.0156303759793
 20
1442.341104237672
 30
0.0
 11
630.0156303759793
 21
1442.341104237672
 31
0.0
  0
LINE
  5
2E8
330
48
100
AcDbEntity
  8
0
  6
DOT_CENTER
 62
     3
100
AcDbLine
 10
758.0156303759793
 20
1327.183342237672
 30
0.0
 11
758.0156303759793
 21
1375.341594237672
 31
0.0
  0
LINE
  5
2E9
330
48
100
AcDbEntity
  8
0
  6
Continuous
 62
     3
100
AcDbLine
 10
747.0156303759793
 20
1355.341594237672
 30
0.0
 11
769.0156303759793
 21
1355.341594237672
 31
0.0
  0
LINE
  5
2EA
330
48
100
AcDbEntity
  8
0
  6
LONG_DASHED
 62
     3
100
AcDbLine
 10
769.0156303759793
 20
1327.183342237672
 30
0.0
 11
769.0156303759793
 21
1355.341594237672
 31
0.0
  0
LINE
  5
2EB
330
48
100
AcDbEntity
  8
0
  6
LONG_DASHED
 62
     3
100
AcDbLine
 10
747.0156303759793
 20
1327.183342237672
 30
0.0
 11
747.0156303759793
 21
1355.341594237672
 31
0.0
  0
LINE
  5
2EC
330
48
100
AcDbEntity
  8
0
  6
Continuous
 62
     1
100
AcDbLine
 10
720.5156303759768
 20
1442.341104237672
 30
0.0
 11
720.5156303759777
 21
1327.183342237672
 31
0.0
  0
LINE
  5
2ED
330
48
100
AcDbEntity
  8
1
  6
Continuous
 62
     1
100
AcDbLine
 10
610.0151423759794
 20
1442.341104237672
 30
0.0
 11
720.5156303759768
 21
1442.341104237672
 31
0.0
  0
LINE
  5
2EE
330
48
100
AcDbEntity
  8
0
  6
Continuous
 62
     4
100
AcDbLine
 10
599.0151423759794
 20
1431.277138237672
 30
0.0
 11
599.0151423759794
 21
1429.541298237672
 31
0.0
  0
LINE
  5
2EF
330
48
100
AcDbEntity
  8
0
  6
DASH_CENTER
 62
     3
100
AcDbLine
 10
161.10473539345
 20
1327.183342237672
 30
0.0
 11
161.1215998315361
 21
1442.341104237672
 31
0.0
  0
LINE
  5
2F0
330
48
100
AcDbEntity
  8
0
  6
Continuous
 62
     4
100
AcDbLine
 10
577.0153863759792
 20
1422.541298237672
 30
0.0
 11
577.0153863759792
 21
1429.541298237672
 31
0.0
  0
LINE
  5
2F1
330
48
100
AcDbEntity
  8
1
  6
DASH_CENTER
 62
     3
100
AcDbLine
 10
793.7196902561527
 20
1327.183342237672
 30
0.0
 11
793.7196902561527
 21
1515.545164117848
 31
0.0
  0
LINE
  5
2F2
330
48
100
AcDbEntity
  8
1
  6
DOT_CENTER
 62
     3
100
AcDbLine
 10
608.0156303759795
 20
1379.541298237672
 30
0.0
 11
608.0156303759795
 21
1361.541298237672
 31
0.0
  0
LINE
  5
2F3
330
48
100
AcDbEntity
  8
1
  6
DOT_CENTER
 62
     3
100
AcDbLine
 10
599.0156303759795
 20
1370.541298237672
 30
0.0
 11
617.0156303759795
 21
1370.541298237672
 31
0.0
  0
LINE
  5
2F4
330
48
100
AcDbEntity
  8
1
  6
DOT_CENTER
 62
     3
100
AcDbLine
 10
568.0156303759795
 20
1379.541298237672
 30
0.0
 11
568.0156303759795
 21
1361.541298237672
 31
0.0
  0
LINE
  5
2F5
330
48
100
AcDbEntity
  8
1
  6
DOT_CENTER
 62
     3
100
AcDbLine
 10
559.0156303759795
 20
1370.541298237672
 30
0.0
 11
577.0156303759795
 21
1370.541298237672
 31
0.0
  0
LINE
  5
2F6
330
48
100
AcDbEntity
  8
0
  6
Continuous
 62
     3
100
AcDbLine
 10
606.2480523759793
 20
1368.773232237672
 30
0.0
 11
609.7834523759796
 21
1372.308876237672
 31
0.0
  0
LINE
  5
2F7
330
48
100
AcDbEntity
  8
0
  6
Continuous
 62
     3
100
AcDbLine
 10
606.2482963759794
 20
1372.308876237672
 30
0.0
 11
609.7836963759796
 21
1368.773232237672
 31
0.0
  0
LINE
  5
2F8
330
48
100
AcDbEntity
  8
0
  6
Continuous
 62
     3
100
AcDbLine
 10
566.2479303759796
 20
1368.773232237672
 30
0.0
 11
569.7834523759796
 21
1372.308876237672
 31
0.0
  0
LINE
  5
2F9
330
48
100
AcDbEntity
  8
0
  6
Continuous
 62
     3
100
AcDbLine
 10
566.2480523759793
 20
1372.308876237672
 30
0.0
 11
569.7835743759795
 21
1368.773232237672
 31
0.0
  0
LINE
  5
2FA
330
48
100
AcDbEntity
  8
1
  6
DOT_CENTER
 62
     3
100
AcDbLine
 10
608.0156303759795
 20
1423.541298237672
 30
0.0
 11
608.0156303759795
 21
1405.541298237672
 31
0.0
  0
LINE
  5
2FB
330
48
100
AcDbEntity
  8
1
  6
DOT_CENTER
 62
     3
100
AcDbLine
 10
568.0156303759795
 20
1423.541298237672
 30
0.0
 11
568.0156303759795
 21
1405.541298237672
 31
0.0
  0
LINE
  5
2FC
330
48
100
AcDbEntity
  8
1
  6
DOT_CENTER
 62
     3
100
AcDbLine
 10
559.0156303759795
 20
1414.541298237672
 30
0.0
 11
577.0156303759795
 21
1414.541298237672
 31
0.0
  0
LINE
  5
2FD
330
48
100
AcDbEntity
  8
1
  6
DOT_CENTER
 62
     3
100
AcDbLine
 10
599.0156303759795
 20
1414.541298237672
 30
0.0
 11
617.0156303759795
 21
1414.541298237672
 31
0.0
  0
LINE
  5
2FE
330
48
100
AcDbEntity
  8
0
  6
Continuous
 62
     3
100
AcDbLine
 10
574.0560963759792
 20
1376.181434237672
 30
0.0
 11
577.4964043759792
 21
1376.181434237672
 31
0.0
  0
LINE
  5
2FF
330
48
100
AcDbEntity
  8
0
  6
Continuous
 62
     3
100
AcDbLine
 10
578.8760443759793
 20
1375.548134237672
 30
0.0
 11
578.8760443759793
 21
1375.421670237672
 31
0.0
  0
LINE
  5
300
330
48
100
AcDbEntity
  8
0
  6
Continuous
 62
     3
100
AcDbLine
 10
578.8760443759793
 20
1375.421670237672
 30
0.0
 11
577.7955983759794
 21
1375.421670237672
 31
0.0
  0
LINE
  5
301
330
48
100
AcDbEntity
  8
0
  6
Continuous
 62
     3
100
AcDbLine
 10
577.7955983759794
 20
1375.421670237672
 30
0.0
 11
577.7955983759794
 21
1375.921670237672
 31
0.0
  0
LINE
  5
302
330
48
100
AcDbEntity
  8
0
  6
Continuous
 62
     3
100
AcDbLine
 10
577.7955983759794
 20
1375.921670237672
 30
0.0
 11
573.7561703759793
 21
1375.921670237672
 31
0.0
  0
LINE
  5
303
330
48
100
AcDbEntity
  8
0
  6
Continuous
 62
     3
100
AcDbLine
 10
573.7561703759793
 20
1375.921670237672
 30
0.0
 11
573.7561703759793
 21
1372.441688237672
 31
0.0
  0
LINE
  5
304
330
48
100
AcDbEntity
  8
0
  6
Continuous
 62
     3
100
AcDbLine
 10
573.7561703759793
 20
1372.441688237672
 30
0.0
 11
577.7955983759794
 21
1372.441688237672
 31
0.0
  0
LINE
  5
305
330
48
100
AcDbEntity
  8
0
  6
Continuous
 62
     3
100
AcDbLine
 10
577.7955983759794
 20
1372.441688237672
 30
0.0
 11
577.7955983759794
 21
1374.051552237672
 31
0.0
  0
LINE
  5
306
330
48
100
AcDbEntity
  8
0
  6
Continuous
 62
     3
100
AcDbLine
 10
577.7955983759794
 20
1374.051552237672
 30
0.0
 11
576.0761163759792
 21
1374.051552237672
 31
0.0
  0
LINE
  5
307
330
48
100
AcDbEntity
  8
0
  6
Continuous
 62
     3
100
AcDbLine
 10
576.0761163759792
 20
1374.051552237672
 30
0.0
 11
576.0761163759792
 21
1374.311318237672
 31
0.0
  0
LINE
  5
308
330
48
100
AcDbEntity
  8
0
  6
Continuous
 62
     3
100
AcDbLine
 10
576.0761163759792
 20
1374.311318237672
 30
0.0
 11
578.8760443759793
 21
1374.311318237672
 31
0.0
  0
LINE
  5
309
330
48
100
AcDbEntity
  8
0
  6
Continuous
 62
     3
100
AcDbLine
 10
578.8760443759793
 20
1374.311318237672
 30
0.0
 11
578.8760443759793
 21
1372.814736237672
 31
0.0
  0
LINE
  5
30A
330
48
100
AcDbEntity
  8
0
  6
Continuous
 62
     3
100
AcDbLine
 10
577.4964043759792
 20
1372.181434237672
 30
0.0
 11
574.0560963759792
 21
1372.181434237672
 31
0.0
  0
LINE
  5
30B
330
48
100
AcDbEntity
  8
0
  6
Continuous
 62
     3
100
AcDbLine
 10
572.6763363759794
 20
1372.814736237672
 30
0.0
 11
572.6763363759794
 21
1375.548134237672
 31
0.0
  0
LINE
  5
30C
330
48
100
AcDbEntity
  8
0
  6
Continuous
 62
     3
100
AcDbLine
 10
581.1557063759792
 20
1376.181434237672
 30
0.0
 11
587.356146375979
 21
1376.181434237672
 31
0.0
  0
LINE
  5
30D
330
48
100
AcDbEntity
  8
0
  6
Continuous
 62
     3
100
AcDbLine
 10
587.356146375979
 20
1376.181434237672
 30
0.0
 11
587.356146375979
 21
1375.921670237672
 31
0.0
  0
LINE
  5
30E
330
48
100
AcDbEntity
  8
0
  6
Continuous
 62
     3
100
AcDbLine
 10
587.356146375979
 20
1375.921670237672
 30
0.0
 11
582.2361503759792
 21
1375.921670237672
 31
0.0
  0
LINE
  5
30F
330
48
100
AcDbEntity
  8
0
  6
Continuous
 62
     3
100
AcDbLine
 10
582.2361503759792
 20
1375.921670237672
 30
0.0
 11
582.2361503759792
 21
1374.311318237672
 31
0.0
  0
LINE
  5
310
330
48
100
AcDbEntity
  8
0
  6
Continuous
 62
     3
100
AcDbLine
 10
582.2361503759792
 20
1374.311318237672
 30
0.0
 11
587.356146375979
 21
1374.311318237672
 31
0.0
  0
LINE
  5
311
330
48
100
AcDbEntity
  8
0
  6
Continuous
 62
     3
100
AcDbLine
 10
587.356146375979
 20
1374.311318237672
 30
0.0
 11
587.356146375979
 21
1374.051552237672
 31
0.0
  0
LINE
  5
312
330
48
100
AcDbEntity
  8
0
  6
Continuous
 62
     3
100
AcDbLine
 10
587.356146375979
 20
1374.051552237672
 30
0.0
 11
582.2361503759792
 21
1374.051552237672
 31
0.0
  0
LINE
  5
313
330
48
100
AcDbEntity
  8
0
  6
Continuous
 62
     3
100
AcDbLine
 10
582.2361503759792
 20
1374.051552237672
 30
0.0
 11
582.2361503759792
 21
1372.441688237672
 31
0.0
  0
LINE
  5
314
330
48
100
AcDbEntity
  8
0
  6
Continuous
 62
     3
100
AcDbLine
 10
582.2361503759792
 20
1372.441688237672
 30
0.0
 11
587.356146375979
 21
1372.441688237672
 31
0.0
  0
LINE
  5
315
330
48
100
AcDbEntity
  8
0
  6
Continuous
 62
     3
100
AcDbLine
 10
587.356146375979
 20
1372.441688237672
 30
0.0
 11
587.356146375979
 21
1372.181434237672
 31
0.0
  0
LINE
  5
316
330
48
100
AcDbEntity
  8
0
  6
Continuous
 62
     3
100
AcDbLine
 10
587.356146375979
 20
1372.181434237672
 30
0.0
 11
581.1557063759792
 21
1372.181434237672
 31
0.0
  0
LINE
  5
317
330
48
100
AcDbEntity
  8
0
  6
Continuous
 62
     3
100
AcDbLine
 10
581.1557063759792
 20
1372.181434237672
 30
0.0
 11
581.1557063759792
 21
1376.181434237672
 31
0.0
  0
LINE
  5
318
330
48
100
AcDbEntity
  8
0
  6
Continuous
 62
     3
100
AcDbLine
 10
589.1558283759794
 20
1376.181434237672
 30
0.0
 11
595.3555363759792
 21
1376.181434237672
 31
0.0
  0
LINE
  5
319
330
48
100
AcDbEntity
  8
0
  6
Continuous
 62
     3
100
AcDbLine
 10
595.3555363759792
 20
1376.181434237672
 30
0.0
 11
595.3555363759792
 21
1375.791786237672
 31
0.0
  0
LINE
  5
31A
330
48
100
AcDbEntity
  8
0
  6
Continuous
 62
     3
100
AcDbLine
 10
595.3555363759792
 20
1375.791786237672
 30
0.0
 11
589.7731383759792
 21
1372.441688237672
 31
0.0
  0
LINE
  5
31B
330
48
100
AcDbEntity
  8
0
  6
Continuous
 62
     3
100
AcDbLine
 10
589.7731383759792
 20
1372.441688237672
 30
0.0
 11
595.3555363759792
 21
1372.441688237672
 31
0.0
  0
LINE
  5
31C
330
48
100
AcDbEntity
  8
0
  6
Continuous
 62
     3
100
AcDbLine
 10
595.3555363759792
 20
1372.441688237672
 30
0.0
 11
595.3555363759792
 21
1372.181434237672
 31
0.0
  0
LINE
  5
31D
330
48
100
AcDbEntity
  8
0
  6
Continuous
 62
     3
100
AcDbLine
 10
595.3555363759792
 20
1372.181434237672
 30
0.0
 11
589.1558283759794
 21
1372.181434237672
 31
0.0
  0
LINE
  5
31E
330
48
100
AcDbEntity
  8
0
  6
Continuous
 62
     3
100
AcDbLine
 10
589.1558283759794
 20
1372.181434237672
 30
0.0
 11
589.1558283759794
 21
1372.571572237672
 31
0.0
  0
LINE
  5
31F
330
48
100
AcDbEntity
  8
0
  6
Continuous
 62
     3
100
AcDbLine
 10
589.1558283759794
 20
1372.571572237672
 30
0.0
 11
594.7389583759791
 21
1375.921670237672
 31
0.0
  0
LINE
  5
320
330
48
100
AcDbEntity
  8
0
  6
Continuous
 62
     3
100
AcDbLine
 10
594.7389583759791
 20
1375.921670237672
 30
0.0
 11
589.1558283759794
 21
1375.921670237672
 31
0.0
  0
LINE
  5
321
330
48
100
AcDbEntity
  8
0
  6
Continuous
 62
     3
100
AcDbLine
 10
589.1558283759794
 20
1375.921670237672
 30
0.0
 11
589.1558283759794
 21
1376.181434237672
 31
0.0
  0
LINE
  5
322
330
48
100
AcDbEntity
  8
0
  6
Continuous
 62
     3
100
AcDbLine
 10
597.1559503759793
 20
1376.181434237672
 30
0.0
 11
603.3556583759794
 21
1376.181434237672
 31
0.0
  0
LINE
  5
323
330
48
100
AcDbEntity
  8
0
  6
Continuous
 62
     3
100
AcDbLine
 10
603.3556583759794
 20
1376.181434237672
 30
0.0
 11
603.3556583759794
 21
1375.921670237672
 31
0.0
  0
LINE
  5
324
330
48
100
AcDbEntity
  8
0
  6
Continuous
 62
     3
100
AcDbLine
 10
603.3556583759794
 20
1375.921670237672
 30
0.0
 11
598.2356623759792
 21
1375.921670237672
 31
0.0
  0
LINE
  5
325
330
48
100
AcDbEntity
  8
0
  6
Continuous
 62
     3
100
AcDbLine
 10
598.2356623759792
 20
1375.921670237672
 30
0.0
 11
598.2356623759792
 21
1374.311318237672
 31
0.0
  0
LINE
  5
326
330
48
100
AcDbEntity
  8
0
  6
Continuous
 62
     3
100
AcDbLine
 10
598.2356623759792
 20
1374.311318237672
 30
0.0
 11
603.3556583759794
 21
1374.311318237672
 31
0.0
  0
LINE
  5
327
330
48
100
AcDbEntity
  8
0
  6
Continuous
 62
     3
100
AcDbLine
 10
603.3556583759794
 20
1374.311318237672
 30
0.0
 11
603.3556583759794
 21
1374.051552237672
 31
0.0
  0
LINE
  5
328
330
48
100
AcDbEntity
  8
0
  6
Continuous
 62
     3
100
AcDbLine
 10
603.3556583759794
 20
1374.051552237672
 30
0.0
 11
598.2356623759792
 21
1374.051552237672
 31
0.0
  0
LINE
  5
329
330
48
100
AcDbEntity
  8
0
  6
Continuous
 62
     3
100
AcDbLine
 10
598.2356623759792
 20
1374.051552237672
 30
0.0
 11
598.2356623759792
 21
1372.441688237672
 31
0.0
  0
LINE
  5
32A
330
48
100
AcDbEntity
  8
0
  6
Continuous
 62
     3
100
AcDbLine
 10
598.2356623759792
 20
1372.441688237672
 30
0.0
 11
603.3556583759794
 21
1372.441688237672
 31
0.0
  0
LINE
  5
32B
330
48
100
AcDbEntity
  8
0
  6
Continuous
 62
     3
100
AcDbLine
 10
603.3556583759794
 20
1372.441688237672
 30
0.0
 11
603.3556583759794
 21
1372.181434237672
 31
0.0
  0
LINE
  5
32C
330
48
100
AcDbEntity
  8
0
  6
Continuous
 62
     3
100
AcDbLine
 10
603.3556583759794
 20
1372.181434237672
 30
0.0
 11
597.1559503759793
 21
1372.181434237672
 31
0.0
  0
LINE
  5
32D
330
48
100
AcDbEntity
  8
0
  6
Continuous
 62
     3
100
AcDbLine
 10
597.1559503759793
 20
1372.181434237672
 30
0.0
 11
597.1559503759793
 21
1376.181434237672
 31
0.0
  0
LINE
  5
32E
330
48
100
AcDbEntity
  8
0
  6
Continuous
 62
     3
100
AcDbLine
 10
570.6959903759794
 20
1377.941200237673
 30
0.0
 11
605.3352723759792
 21
1377.941200237673
 31
0.0
  0
LINE
  5
32F
330
48
100
AcDbEntity
  8
0
  6
Continuous
 62
     3
100
AcDbLine
 10
606.7157643759792
 20
1377.307900237672
 30
0.0
 11
606.7157643759792
 21
1371.175088237672
 31
0.0
  0
LINE
  5
330
330
48
100
AcDbEntity
  8
0
  6
Continuous
 62
     3
100
AcDbLine
 10
605.3352723759792
 20
1370.541298237672
 30
0.0
 11
570.6959903759794
 21
1370.541298237672
 31
0.0
  0
LINE
  5
331
330
48
100
AcDbEntity
  8
0
  6
Continuous
 62
     3
100
AcDbLine
 10
569.3154963759794
 20
1371.175088237672
 30
0.0
 11
569.3154963759794
 21
1377.255166237672
 31
0.0
  0
LINE
  5
332
330
48
100
AcDbEntity
  8
0
  6
Continuous
 62
     3
100
AcDbLine
 10
569.3154963759794
 20
1377.255166237672
 30
0.0
 11
569.3524843759792
 21
1377.349404237672
 31
0.0
  0
LINE
  5
333
330
48
100
AcDbEntity
  8
0
  6
Continuous
 62
     3
100
AcDbLine
 10
570.6959903759794
 20
1377.681434237672
 30
0.0
 11
605.3352723759792
 21
1377.681434237672
 31
0.0
  0
LINE
  5
334
330
48
100
AcDbEntity
  8
0
  6
Continuous
 62
     3
100
AcDbLine
 10
605.6359303759791
 20
1377.381630237672
 30
0.0
 11
605.6359303759791
 21
1371.101356237673
 31
0.0
  0
LINE
  5
335
330
48
100
AcDbEntity
  8
0
  6
Continuous
 62
     3
100
AcDbLine
 10
605.3352723759792
 20
1370.801552237672
 30
0.0
 11
570.6959903759794
 21
1370.801552237672
 31
0.0
  0
LINE
  5
336
330
48
100
AcDbEntity
  8
0
  6
Continuous
 62
     3
100
AcDbLine
 10
570.3960623759792
 20
1371.101356237673
 30
0.0
 11
570.3960623759792
 21
1377.381630237672
 31
0.0
  0
LINE
  5
337
330
48
100
AcDbEntity
  8
0
  6
Continuous
 62
     3
100
AcDbLine
 10
566.2479303759796
 20
1412.773232237672
 30
0.0
 11
569.7834523759796
 21
1416.308876237672
 31
0.0
  0
LINE
  5
338
330
48
100
AcDbEntity
  8
0
  6
Continuous
 62
     3
100
AcDbLine
 10
566.2480523759793
 20
1416.308876237672
 30
0.0
 11
569.7835743759795
 21
1412.773232237672
 31
0.0
  0
LINE
  5
339
330
48
100
AcDbEntity
  8
0
  6
Continuous
 62
     3
100
AcDbLine
 10
606.2480523759796
 20
1412.773232237672
 30
0.0
 11
609.7835743759795
 21
1416.308876237672
 31
0.0
  0
LINE
  5
33A
330
48
100
AcDbEntity
  8
0
  6
Continuous
 62
     3
100
AcDbLine
 10
606.2481743759797
 20
1416.308876237672
 30
0.0
 11
609.7836963759796
 21
1412.773232237672
 31
0.0
  0
LINE
  5
33B
330
48
100
AcDbEntity
  8
0
  6
Continuous
 62
     1
100
AcDbLine
 10
618.0156303759795
 20
1362.541298237671
 30
0.0
 11
618.0156303759795
 21
1363.143533508368
 31
0.0
  0
LINE
  5
33C
330
48
100
AcDbEntity
  8
0
  6
Continuous
 62
     1
100
AcDbLine
 10
558.0156303759793
 20
1422.541298237672
 30
0.0
 11
558.0156303759793
 21
1421.939062966977
 31
0.0
  0
LINE
  5
33D
330
48
100
AcDbEntity
  8
0
  6
Continuous
 62
     4
100
AcDbLine
 10
618.0156303759795
 20
1363.143533508368
 30
0.0
 11
558.0156303759793
 21
1363.143533508368
 31
0.0
  0
LINE
  5
33E
330
48
100
AcDbEntity
  8
0
  6
Continuous
 62
     1
100
AcDbLine
 10
558.0156303759793
 20
1421.939062966977
 30
0.0
 11
558.0156303759793
 21
1363.143533508368
 31
0.0
  0
LINE
  5
33F
330
48
100
AcDbEntity
  8
0
  6
Continuous
 62
     1
100
AcDbLine
 10
618.0156303759795
 20
1421.939062966977
 30
0.0
 11
618.0156303759795
 21
1422.541298237672
 31
0.0
  0
LINE
  5
340
330
48
100
AcDbEntity
  8
0
  6
Continuous
 62
     1
100
AcDbLine
 10
618.0156303759795
 20
1421.939062966977
 30
0.0
 11
618.0156303759795
 21
1363.143533508368
 31
0.0
  0
LINE
  5
341
330
48
100
AcDbEntity
  8
0
  6
Continuous
 62
     4
100
AcDbLine
 10
618.0156303759795
 20
1362.541298237671
 30
0.0
 11
558.0156303759793
 21
1362.541298237671
 31
0.0
  0
LINE
  5
342
330
48
100
AcDbEntity
  8
0
  6
Continuous
 62
     1
100
AcDbLine
 10
558.0156303759793
 20
1363.143533508368
 30
0.0
 11
558.0156303759793
 21
1362.541298237671
 31
0.0
  0
LINE
  5
343
330
48
100
AcDbEntity
  8
0
  6
Continuous
 62
     4
100
AcDbLine
 10
618.0156303759795
 20
1421.939062966977
 30
0.0
 11
558.0156303759793
 21
1421.939062966977
 31
0.0
  0
LINE
  5
344
330
48
100
AcDbEntity
  8
0
  6
Continuous
 62
     4
100
AcDbLine
 10
618.0156303759795
 20
1422.541298237672
 30
0.0
 11
558.0156303759793
 21
1422.541298237672
 31
0.0
  0
LINE
  5
345
330
48
100
AcDbEntity
  8
1
  6
Continuous
 62
     1
100
AcDbLine
 10
161.1215998315361
 20
1442.341104237672
 30
0.0
 11
577.0153863759792
 21
1442.341104237672
 31
0.0
  0
LINE
  5
346
330
48
100
AcDbEntity
  8
1
  6
LONG_DASHED
 62
     3
100
AcDbLine
 10
752.5156303759768
 20
1474.341104237672
 30
0.0
 11
752.5156303759768
 21
1327.183342237672
 31
0.0
  0
LINE
  5
347
330
48
100
AcDbEntity
  8
1
  6
LONG_DASHED
 62
     3
100
AcDbLine
 10
763.5156303759782
 20
1485.341104237673
 30
0.0
 11
763.5156303759782
 21
1327.183342237672
 31
0.0
  0
LINE
  5
348
330
48
100
AcDbEntity
  8
1
  6
LONG_DASHED
 62
     3
100
AcDbLine
 10
161.1245158964786
 20
1474.341104237672
 30
0.0
 11
752.5156303759768
 21
1474.341104237672
 31
0.0
  0
LINE
  5
349
330
48
100
AcDbEntity
  8
1
  6
LONG_DASHED
 62
     3
100
AcDbLine
 10
161.1252618665806
 20
1485.341104237673
 30
0.0
 11
763.5156303759782
 21
1485.341104237673
 31
0.0
  0
LINE
  5
34A
330
48
100
AcDbEntity
  8
0
  6
DASH_CENTER
 62
     3
100
AcDbLine
 10
161.1215998315361
 20
1420.341104237671
 30
0.0
 11
161.1223458016381
 21
1431.341104237672
 31
0.0
  0
LINE
  5
34B
330
48
100
AcDbEntity
  8
0
  6
DASH_CENTER
 62
     3
100
AcDbLine
 10
161.1223458016381
 20
1431.341104237672
 30
0.0
 11
161.1280561390147
 21
1515.545164117848
 31
0.0
  0
LINE
  5
34C
330
48
100
AcDbEntity
  8
1
  6
Continuous
 62
     1
100
AcDbLine
 10
793.7196902561527
 20
1515.545164117848
 30
0.0
 11
709.5156303759768
 21
1431.341104237672
 31
0.0
  0
LINE
  5
34D
330
48
100
AcDbEntity
  8
1
  6
DASH_CENTER
 62
     3
100
AcDbLine
 10
161.1280561390147
 20
1515.545164117848
 30
0.0
 11
793.7196902561527
 21
1515.545164117848
 31
0.0
  0
LINE
  5
34E
330
48
100
AcDbEntity
  8
1
  6
Continuous
 62
     1
100
AcDbLine
 10
161.1223458016381
 20
1431.341104237672
 30
0.0
 11
577.0153863759792
 21
1431.341104237672
 31
0.0
  0
LINE
  5
34F
330
48
100
AcDbEntity
  8
1
  6
Continuous
 62
     1
100
AcDbLine
 10
709.5156303759768
 20
1431.341104237672
 30
0.0
 11
709.5156303759768
 21
1327.183342237672
 31
0.0
  0
LINE
  5
350
330
48
100
AcDbEntity
  8
1
  6
Continuous
 62
     1
100
AcDbLine
 10
599.0151423759794
 20
1431.341104237672
 30
0.0
 11
709.5156303759768
 21
1431.341104237672
 31
0.0
  0
LINE
  5
351
330
48
100
AcDbEntity
  8
1
  6
Continuous
 62
     1
100
AcDbLine
 10
245.308795273626
 20
1687.145164117848
 30
0.0
 11
355.8092832736234
 21
1687.145164117848
 31
0.0
  0
LINE
  5
352
330
48
100
AcDbEntity
  8
1
  6
Continuous
 62
     1
100
AcDbLine
 10
245.308795273626
 20
1582.987402117848
 30
0.0
 11
245.308795273626
 21
1687.145164117848
 31
0.0
  0
LINE
  5
353
330
48
100
AcDbEntity
  8
1
  6
Continuous
 62
     1
100
AcDbLine
 10
377.8090392736235
 20
1687.145164117848
 30
0.0
 11
793.7020798479647
 21
1687.145164117848
 31
0.0
  0
LINE
  5
354
330
48
100
AcDbEntity
  8
1
  6
DASH_CENTER
 62
     3
100
AcDbLine
 10
161.1047353934501
 20
1771.349223998024
 30
0.0
 11
793.696369510588
 21
1771.349223998024
 31
0.0
  0
LINE
  5
355
330
48
100
AcDbEntity
  8
1
  6
Continuous
 62
     1
100
AcDbLine
 10
245.308795273626
 20
1687.145164117848
 30
0.0
 11
161.1047353934501
 21
1771.349223998024
 31
0.0
  0
LINE
  5
356
330
48
100
AcDbEntity
  8
0
  6
DASH_CENTER
 62
     3
100
AcDbLine
 10
793.696369510588
 20
1771.349223998024
 30
0.0
 11
793.7020798479647
 21
1687.145164117848
 31
0.0
  0
LINE
  5
357
330
48
100
AcDbEntity
  8
0
  6
DASH_CENTER
 62
     3
100
AcDbLine
 10
793.7020798479647
 20
1687.145164117848
 30
0.0
 11
793.7028258180667
 21
1676.145164117847
 31
0.0
  0
LINE
  5
358
330
48
100
AcDbEntity
  8
1
  6
LONG_DASHED
 62
     3
100
AcDbLine
 10
191.3087952736246
 20
1741.145164117849
 30
0.0
 11
793.6991637830222
 21
1741.145164117849
 31
0.0
  0
LINE
  5
359
330
48
100
AcDbEntity
  8
1
  6
LONG_DASHED
 62
     3
100
AcDbLine
 10
202.308795273626
 20
1730.145164117848
 30
0.0
 11
793.6999097531242
 21
1730.145164117848
 31
0.0
  0
LINE
  5
35A
330
48
100
AcDbEntity
  8
1
  6
LONG_DASHED
 62
     3
100
AcDbLine
 10
191.3087952736246
 20
1582.987402117848
 30
0.0
 11
191.3087952736246
 21
1741.145164117849
 31
0.0
  0
LINE
  5
35B
330
48
100
AcDbEntity
  8
1
  6
LONG_DASHED
 62
     3
100
AcDbLine
 10
202.308795273626
 20
1582.987402117848
 30
0.0
 11
202.308795273626
 21
1730.145164117848
 31
0.0
  0
LINE
  5
35C
330
48
100
AcDbEntity
  8
1
  6
Continuous
 62
     1
100
AcDbLine
 10
377.8090392736235
 20
1698.145164117848
 30
0.0
 11
793.7028258180667
 21
1698.145164117848
 31
0.0
  0
LINE
  5
35D
330
48
100
AcDbEntity
  8
1
  6
DASH_CENTER
 62
     3
100
AcDbLine
 10
386.8087952736232
 20
1678.145358117847
 30
0.0
 11
386.8087952736232
 21
1662.545358117848
 31
0.0
  0
LINE
  5
35E
330
48
100
AcDbEntity
  8
1
  6
DASH_CENTER
 62
     3
100
AcDbLine
 10
394.6087952736231
 20
1670.345358117848
 30
0.0
 11
379.0087952736237
 21
1670.345358117848
 31
0.0
  0
LINE
  5
35F
330
48
100
AcDbEntity
  8
1
  6
DASH_CENTER
 62
     3
100
AcDbLine
 10
386.8087952736232
 20
1634.145358117848
 30
0.0
 11
386.8087952736232
 21
1618.545358117847
 31
0.0
  0
LINE
  5
360
330
48
100
AcDbEntity
  8
1
  6
DASH_CENTER
 62
     3
100
AcDbLine
 10
394.6087952736234
 20
1626.345358117848
 30
0.0
 11
379.0087952736233
 21
1626.345358117848
 31
0.0
  0
LINE
  5
361
330
48
100
AcDbEntity
  8
1
  6
DASH_CENTER
 62
     3
100
AcDbLine
 10
346.8087952736232
 20
1656.145358117848
 30
0.0
 11
346.8087952736232
 21
1640.545358117847
 31
0.0
  0
LINE
  5
362
330
48
100
AcDbEntity
  8
1
  6
DASH_CENTER
 62
     3
100
AcDbLine
 10
353.9386638894944
 20
1648.345358117848
 30
0.0
 11
339.6462818540686
 21
1648.345358117848
 31
0.0
  0
LINE
  5
363
330
48
100
AcDbEntity
  8
1
  6
DASH_CENTER
 62
     3
100
AcDbLine
 10
386.8087952736232
 20
1656.145358117847
 30
0.0
 11
386.8087952736232
 21
1640.545358117848
 31
0.0
  0
LINE
  5
364
330
48
100
AcDbEntity
  8
1
  6
DASH_CENTER
 62
     3
100
AcDbLine
 10
394.6087952736231
 20
1648.345358117848
 30
0.0
 11
379.0087952736237
 21
1648.345358117848
 31
0.0
  0
LINE
  5
365
330
48
100
AcDbEntity
  8
1
  6
DASH_CENTER
 62
     3
100
AcDbLine
 10
346.8087952736232
 20
1634.145358117848
 30
0.0
 11
346.8087952736232
 21
1618.545358117847
 31
0.0
  0
LINE
  5
366
330
48
100
AcDbEntity
  8
1
  6
DASH_CENTER
 62
     3
100
AcDbLine
 10
354.6087952736234
 20
1626.345358117848
 30
0.0
 11
339.0087952736233
 21
1626.345358117848
 31
0.0
  0
LINE
  5
367
330
48
100
AcDbEntity
  8
1
  6
DASH_CENTER
 62
     3
100
AcDbLine
 10
346.8087952736232
 20
1678.145358117847
 30
0.0
 11
346.8087952736232
 21
1662.545358117848
 31
0.0
  0
LINE
  5
368
330
48
100
AcDbEntity
  8
1
  6
DASH_CENTER
 62
     3
100
AcDbLine
 10
354.6087952736234
 20
1670.345358117848
 30
0.0
 11
339.0087952736233
 21
1670.345358117848
 31
0.0
  0
LINE
  5
369
330
48
100
AcDbEntity
  8
0
  6
Continuous
 62
     4
100
AcDbLine
 10
396.8087952736235
 20
1678.345358117848
 30
0.0
 11
336.8087952736232
 21
1678.345358117848
 31
0.0
  0
LINE
  5
36A
330
48
100
AcDbEntity
  8
0
  6
Continuous
 62
     4
100
AcDbLine
 10
396.8087952736235
 20
1677.743122847153
 30
0.0
 11
336.8087952736232
 21
1677.743122847153
 31
0.0
  0
LINE
  5
36B
330
48
100
AcDbEntity
  8
0
  6
Continuous
 62
     1
100
AcDbLine
 10
396.8087952736235
 20
1618.345358117847
 30
0.0
 11
396.8087952736235
 21
1618.947593388544
 31
0.0
  0
LINE
  5
36C
330
48
100
AcDbEntity
  8
0
  6
Continuous
 62
     4
100
AcDbLine
 10
396.8087952736235
 20
1618.345358117847
 30
0.0
 11
336.8087952736232
 21
1618.345358117847
 31
0.0
  0
LINE
  5
36D
330
48
100
AcDbEntity
  8
0
  6
Continuous
 62
     1
100
AcDbLine
 10
336.8087952736232
 20
1618.947593388544
 30
0.0
 11
336.8087952736232
 21
1677.743122847153
 31
0.0
  0
LINE
  5
36E
330
48
100
AcDbEntity
  8
0
  6
Continuous
 62
     1
100
AcDbLine
 10
336.8087952736232
 20
1678.345358117848
 30
0.0
 11
336.8087952736232
 21
1677.743122847153
 31
0.0
  0
LINE
  5
36F
330
48
100
AcDbEntity
  8
0
  6
Continuous
 62
     1
100
AcDbLine
 10
396.8087952736235
 20
1618.947593388544
 30
0.0
 11
396.8087952736235
 21
1677.743122847153
 31
0.0
  0
LINE
  5
370
330
48
100
AcDbEntity
  8
0
  6
Continuous
 62
     4
100
AcDbLine
 10
396.8087952736235
 20
1618.947593388544
 30
0.0
 11
336.8087952736232
 21
1618.947593388544
 31
0.0
  0
LINE
  5
371
330
48
100
AcDbEntity
  8
0
  6
Continuous
 62
     1
100
AcDbLine
 10
396.8087952736235
 20
1677.743122847153
 30
0.0
 11
396.8087952736235
 21
1678.345358117848
 31
0.0
  0
LINE
  5
372
330
48
100
AcDbEntity
  8
0
  6
Continuous
 62
     1
100
AcDbLine
 10
336.8087952736232
 20
1618.947593388544
 30
0.0
 11
336.8087952736232
 21
1618.345358117847
 31
0.0
  0
LINE
  5
373
330
48
100
AcDbEntity
  8
0
  6
Continuous
 62
     3
100
AcDbLine
 10
345.0407292736232
 20
1668.577292117848
 30
0.0
 11
348.5762512736231
 21
1672.112936117848
 31
0.0
  0
LINE
  5
374
330
48
100
AcDbEntity
  8
0
  6
Continuous
 62
     3
100
AcDbLine
 10
345.0408512736233
 20
1672.112936117848
 30
0.0
 11
348.5763732736232
 21
1668.577292117848
 31
0.0
  0
LINE
  5
375
330
48
100
AcDbEntity
  8
0
  6
Continuous
 62
     3
100
AcDbLine
 10
385.0408512736233
 20
1668.577292117848
 30
0.0
 11
388.5763732736234
 21
1672.112936117848
 31
0.0
  0
LINE
  5
376
330
48
100
AcDbEntity
  8
0
  6
Continuous
 62
     3
100
AcDbLine
 10
385.0409732736233
 20
1672.112936117848
 30
0.0
 11
388.5764952736231
 21
1668.577292117848
 31
0.0
  0
LINE
  5
377
330
48
100
AcDbEntity
  8
0
  6
Continuous
 62
     3
100
AcDbLine
 10
349.1892272736234
 20
1626.905416117849
 30
0.0
 11
349.1892272736234
 21
1633.185690117848
 31
0.0
  0
LINE
  5
378
330
48
100
AcDbEntity
  8
0
  6
Continuous
 62
     3
100
AcDbLine
 10
384.1284372736234
 20
1626.605612117848
 30
0.0
 11
349.4891552736235
 21
1626.605612117848
 31
0.0
  0
LINE
  5
379
330
48
100
AcDbEntity
  8
0
  6
Continuous
 62
     3
100
AcDbLine
 10
384.4290952736233
 20
1633.185690117848
 30
0.0
 11
384.4290952736233
 21
1626.905416117849
 31
0.0
  0
LINE
  5
37A
330
48
100
AcDbEntity
  8
0
  6
Continuous
 62
     3
100
AcDbLine
 10
349.4891552736235
 20
1633.485494117848
 30
0.0
 11
384.1284372736234
 21
1633.485494117848
 31
0.0
  0
LINE
  5
37B
330
48
100
AcDbEntity
  8
0
  6
Continuous
 62
     3
100
AcDbLine
 10
348.1086612736235
 20
1633.059226117848
 30
0.0
 11
348.1456492736234
 21
1633.153464117848
 31
0.0
  0
LINE
  5
37C
330
48
100
AcDbEntity
  8
0
  6
Continuous
 62
     3
100
AcDbLine
 10
348.1086612736235
 20
1626.979148117848
 30
0.0
 11
348.1086612736235
 21
1633.059226117848
 31
0.0
  0
LINE
  5
37D
330
48
100
AcDbEntity
  8
0
  6
Continuous
 62
     3
100
AcDbLine
 10
384.1284372736234
 20
1626.345358117848
 30
0.0
 11
349.4891552736235
 21
1626.345358117848
 31
0.0
  0
LINE
  5
37E
330
48
100
AcDbEntity
  8
0
  6
Continuous
 62
     3
100
AcDbLine
 10
385.5089292736234
 20
1633.111960117848
 30
0.0
 11
385.5089292736234
 21
1626.979148117848
 31
0.0
  0
LINE
  5
37F
330
48
100
AcDbEntity
  8
0
  6
Continuous
 62
     3
100
AcDbLine
 10
349.4891552736235
 20
1633.745260117849
 30
0.0
 11
384.1284372736234
 21
1633.745260117849
 31
0.0
  0
LINE
  5
380
330
48
100
AcDbEntity
  8
0
  6
Continuous
 62
     3
100
AcDbLine
 10
375.9491152736233
 20
1627.985494117848
 30
0.0
 11
375.9491152736233
 21
1631.985494117848
 31
0.0
  0
LINE
  5
381
330
48
100
AcDbEntity
  8
0
  6
Continuous
 62
     3
100
AcDbLine
 10
382.1488232736234
 20
1627.985494117848
 30
0.0
 11
375.9491152736233
 21
1627.985494117848
 31
0.0
  0
LINE
  5
382
330
48
100
AcDbEntity
  8
0
  6
Continuous
 62
     3
100
AcDbLine
 10
382.1488232736234
 20
1628.245748117848
 30
0.0
 11
382.1488232736234
 21
1627.985494117848
 31
0.0
  0
LINE
  5
383
330
48
100
AcDbEntity
  8
0
  6
Continuous
 62
     3
100
AcDbLine
 10
377.0288272736234
 20
1628.245748117848
 30
0.0
 11
382.1488232736234
 21
1628.245748117848
 31
0.0
  0
LINE
  5
384
330
48
100
AcDbEntity
  8
0
  6
Continuous
 62
     3
100
AcDbLine
 10
377.0288272736234
 20
1629.855612117848
 30
0.0
 11
377.0288272736234
 21
1628.245748117848
 31
0.0
  0
LINE
  5
385
330
48
100
AcDbEntity
  8
0
  6
Continuous
 62
     3
100
AcDbLine
 10
382.1488232736234
 20
1629.855612117848
 30
0.0
 11
377.0288272736234
 21
1629.855612117848
 31
0.0
  0
LINE
  5
386
330
48
100
AcDbEntity
  8
0
  6
Continuous
 62
     3
100
AcDbLine
 10
382.1488232736234
 20
1630.115378117848
 30
0.0
 11
382.1488232736234
 21
1629.855612117848
 31
0.0
  0
LINE
  5
387
330
48
100
AcDbEntity
  8
0
  6
Continuous
 62
     3
100
AcDbLine
 10
377.0288272736234
 20
1630.115378117848
 30
0.0
 11
382.1488232736234
 21
1630.115378117848
 31
0.0
  0
LINE
  5
388
330
48
100
AcDbEntity
  8
0
  6
Continuous
 62
     3
100
AcDbLine
 10
377.0288272736234
 20
1631.725730117848
 30
0.0
 11
377.0288272736234
 21
1630.115378117848
 31
0.0
  0
LINE
  5
389
330
48
100
AcDbEntity
  8
0
  6
Continuous
 62
     3
100
AcDbLine
 10
382.1488232736234
 20
1631.725730117848
 30
0.0
 11
377.0288272736234
 21
1631.725730117848
 31
0.0
  0
LINE
  5
38A
330
48
100
AcDbEntity
  8
0
  6
Continuous
 62
     3
100
AcDbLine
 10
382.1488232736234
 20
1631.985494117848
 30
0.0
 11
382.1488232736234
 21
1631.725730117848
 31
0.0
  0
LINE
  5
38B
330
48
100
AcDbEntity
  8
0
  6
Continuous
 62
     3
100
AcDbLine
 10
375.9491152736233
 20
1631.985494117848
 30
0.0
 11
382.1488232736234
 21
1631.985494117848
 31
0.0
  0
LINE
  5
38C
330
48
100
AcDbEntity
  8
0
  6
Continuous
 62
     3
100
AcDbLine
 10
367.9489932736235
 20
1631.725730117848
 30
0.0
 11
367.9489932736235
 21
1631.985494117848
 31
0.0
  0
LINE
  5
38D
330
48
100
AcDbEntity
  8
0
  6
Continuous
 62
     3
100
AcDbLine
 10
373.5321232736233
 20
1631.725730117848
 30
0.0
 11
367.9489932736235
 21
1631.725730117848
 31
0.0
  0
LINE
  5
38E
330
48
100
AcDbEntity
  8
0
  6
Continuous
 62
     3
100
AcDbLine
 10
367.9489932736235
 20
1628.375632117848
 30
0.0
 11
373.5321232736233
 21
1631.725730117848
 31
0.0
  0
LINE
  5
38F
330
48
100
AcDbEntity
  8
0
  6
Continuous
 62
     3
100
AcDbLine
 10
367.9489932736235
 20
1627.985494117848
 30
0.0
 11
367.9489932736235
 21
1628.375632117848
 31
0.0
  0
LINE
  5
390
330
48
100
AcDbEntity
  8
0
  6
Continuous
 62
     3
100
AcDbLine
 10
374.1487012736234
 20
1627.985494117848
 30
0.0
 11
367.9489932736235
 21
1627.985494117848
 31
0.0
  0
LINE
  5
391
330
48
100
AcDbEntity
  8
0
  6
Continuous
 62
     3
100
AcDbLine
 10
374.1487012736234
 20
1628.245748117848
 30
0.0
 11
374.1487012736234
 21
1627.985494117848
 31
0.0
  0
LINE
  5
392
330
48
100
AcDbEntity
  8
0
  6
Continuous
 62
     3
100
AcDbLine
 10
368.5663032736234
 20
1628.245748117848
 30
0.0
 11
374.1487012736234
 21
1628.245748117848
 31
0.0
  0
LINE
  5
393
330
48
100
AcDbEntity
  8
0
  6
Continuous
 62
     3
100
AcDbLine
 10
374.1487012736234
 20
1631.595846117848
 30
0.0
 11
368.5663032736234
 21
1628.245748117848
 31
0.0
  0
LINE
  5
394
330
48
100
AcDbEntity
  8
0
  6
Continuous
 62
     3
100
AcDbLine
 10
374.1487012736234
 20
1631.985494117848
 30
0.0
 11
374.1487012736234
 21
1631.595846117848
 31
0.0
  0
LINE
  5
395
330
48
100
AcDbEntity
  8
0
  6
Continuous
 62
     3
100
AcDbLine
 10
367.9489932736235
 20
1631.985494117848
 30
0.0
 11
374.1487012736234
 21
1631.985494117848
 31
0.0
  0
LINE
  5
396
330
48
100
AcDbEntity
  8
0
  6
Continuous
 62
     3
100
AcDbLine
 10
359.9488712736234
 20
1627.985494117848
 30
0.0
 11
359.9488712736234
 21
1631.985494117848
 31
0.0
  0
LINE
  5
397
330
48
100
AcDbEntity
  8
0
  6
Continuous
 62
     3
100
AcDbLine
 10
366.1493112736233
 20
1627.985494117848
 30
0.0
 11
359.9488712736234
 21
1627.985494117848
 31
0.0
  0
LINE
  5
398
330
48
100
AcDbEntity
  8
0
  6
Continuous
 62
     3
100
AcDbLine
 10
366.1493112736233
 20
1628.245748117848
 30
0.0
 11
366.1493112736233
 21
1627.985494117848
 31
0.0
  0
LINE
  5
399
330
48
100
AcDbEntity
  8
0
  6
Continuous
 62
     3
100
AcDbLine
 10
361.0293152736233
 20
1628.245748117848
 30
0.0
 11
366.1493112736233
 21
1628.245748117848
 31
0.0
  0
LINE
  5
39A
330
48
100
AcDbEntity
  8
0
  6
Continuous
 62
     3
100
AcDbLine
 10
361.0293152736233
 20
1629.855612117848
 30
0.0
 11
361.0293152736233
 21
1628.245748117848
 31
0.0
  0
LINE
  5
39B
330
48
100
AcDbEntity
  8
0
  6
Continuous
 62
     3
100
AcDbLine
 10
366.1493112736233
 20
1629.855612117848
 30
0.0
 11
361.0293152736233
 21
1629.855612117848
 31
0.0
  0
LINE
  5
39C
330
48
100
AcDbEntity
  8
0
  6
Continuous
 62
     3
100
AcDbLine
 10
366.1493112736233
 20
1630.115378117848
 30
0.0
 11
366.1493112736233
 21
1629.855612117848
 31
0.0
  0
LINE
  5
39D
330
48
100
AcDbEntity
  8
0
  6
Continuous
 62
     3
100
AcDbLine
 10
361.0293152736233
 20
1630.115378117848
 30
0.0
 11
366.1493112736233
 21
1630.115378117848
 31
0.0
  0
LINE
  5
39E
330
48
100
AcDbEntity
  8
0
  6
Continuous
 62
     3
100
AcDbLine
 10
361.0293152736233
 20
1631.725730117848
 30
0.0
 11
361.0293152736233
 21
1630.115378117848
 31
0.0
  0
LINE
  5
39F
330
48
100
AcDbEntity
  8
0
  6
Continuous
 62
     3
100
AcDbLine
 10
366.1493112736233
 20
1631.725730117848
 30
0.0
 11
361.0293152736233
 21
1631.725730117848
 31
0.0
  0
LINE
  5
3A0
330
48
100
AcDbEntity
  8
0
  6
Continuous
 62
     3
100
AcDbLine
 10
366.1493112736233
 20
1631.985494117848
 30
0.0
 11
366.1493112736233
 21
1631.725730117848
 31
0.0
  0
LINE
  5
3A1
330
48
100
AcDbEntity
  8
0
  6
Continuous
 62
     3
100
AcDbLine
 10
359.9488712736234
 20
1631.985494117848
 30
0.0
 11
366.1493112736233
 21
1631.985494117848
 31
0.0
  0
LINE
  5
3A2
330
48
100
AcDbEntity
  8
0
  6
Continuous
 62
     3
100
AcDbLine
 10
351.4695012736235
 20
1628.618796117848
 30
0.0
 11
351.4695012736235
 21
1631.352194117848
 31
0.0
  0
LINE
  5
3A3
330
48
100
AcDbEntity
  8
0
  6
Continuous
 62
     3
100
AcDbLine
 10
356.2895692736234
 20
1627.985494117848
 30
0.0
 11
352.8492612736234
 21
1627.985494117848
 31
0.0
  0
LINE
  5
3A4
330
48
100
AcDbEntity
  8
0
  6
Continuous
 62
     3
100
AcDbLine
 10
357.6692092736234
 20
1630.115378117848
 30
0.0
 11
357.6692092736234
 21
1628.618796117848
 31
0.0
  0
LINE
  5
3A5
330
48
100
AcDbEntity
  8
0
  6
Continuous
 62
     3
100
AcDbLine
 10
354.8692812736233
 20
1630.115378117848
 30
0.0
 11
357.6692092736234
 21
1630.115378117848
 31
0.0
  0
LINE
  5
3A6
330
48
100
AcDbEntity
  8
0
  6
Continuous
 62
     3
100
AcDbLine
 10
354.8692812736233
 20
1629.855612117848
 30
0.0
 11
354.8692812736233
 21
1630.115378117848
 31
0.0
  0
LINE
  5
3A7
330
48
100
AcDbEntity
  8
0
  6
Continuous
 62
     3
100
AcDbLine
 10
356.5887632736235
 20
1629.855612117848
 30
0.0
 11
354.8692812736233
 21
1629.855612117848
 31
0.0
  0
LINE
  5
3A8
330
48
100
AcDbEntity
  8
0
  6
Continuous
 62
     3
100
AcDbLine
 10
356.5887632736235
 20
1628.245748117848
 30
0.0
 11
356.5887632736235
 21
1629.855612117848
 31
0.0
  0
LINE
  5
3A9
330
48
100
AcDbEntity
  8
0
  6
Continuous
 62
     3
100
AcDbLine
 10
352.5493352736235
 20
1628.245748117848
 30
0.0
 11
356.5887632736235
 21
1628.245748117848
 31
0.0
  0
LINE
  5
3AA
330
48
100
AcDbEntity
  8
0
  6
Continuous
 62
     3
100
AcDbLine
 10
352.5493352736235
 20
1631.725730117848
 30
0.0
 11
352.5493352736235
 21
1628.245748117848
 31
0.0
  0
LINE
  5
3AB
330
48
100
AcDbEntity
  8
0
  6
Continuous
 62
     3
100
AcDbLine
 10
356.5887632736235
 20
1631.725730117848
 30
0.0
 11
352.5493352736235
 21
1631.725730117848
 31
0.0
  0
LINE
  5
3AC
330
48
100
AcDbEntity
  8
0
  6
Continuous
 62
     3
100
AcDbLine
 10
356.5887632736235
 20
1631.225730117848
 30
0.0
 11
356.5887632736235
 21
1631.725730117848
 31
0.0
  0
LINE
  5
3AD
330
48
100
AcDbEntity
  8
0
  6
Continuous
 62
     3
100
AcDbLine
 10
357.6692092736234
 20
1631.225730117848
 30
0.0
 11
356.5887632736235
 21
1631.225730117848
 31
0.0
  0
LINE
  5
3AE
330
48
100
AcDbEntity
  8
0
  6
Continuous
 62
     3
100
AcDbLine
 10
357.6692092736234
 20
1631.352194117848
 30
0.0
 11
357.6692092736234
 21
1631.225730117848
 31
0.0
  0
LINE
  5
3AF
330
48
100
AcDbEntity
  8
0
  6
Continuous
 62
     3
100
AcDbLine
 10
352.8492612736234
 20
1631.985494117848
 30
0.0
 11
356.2895692736234
 21
1631.985494117848
 31
0.0
  0
LINE
  5
3B0
330
48
100
AcDbEntity
  8
1
  6
DOT_CENTER
 62
     3
100
AcDbLine
 10
337.8087952736232
 20
1670.345358117848
 30
0.0
 11
355.8087952736232
 21
1670.345358117848
 31
0.0
  0
LINE
  5
3B1
330
48
100
AcDbEntity
  8
1
  6
DOT_CENTER
 62
     3
100
AcDbLine
 10
377.8087952736232
 20
1670.345358117848
 30
0.0
 11
395.8087952736232
 21
1670.345358117848
 31
0.0
  0
LINE
  5
3B2
330
48
100
AcDbEntity
  8
1
  6
DOT_CENTER
 62
     3
100
AcDbLine
 10
386.8087952736232
 20
1661.345358117848
 30
0.0
 11
386.8087952736232
 21
1679.345358117848
 31
0.0
  0
LINE
  5
3B3
330
48
100
AcDbEntity
  8
1
  6
DOT_CENTER
 62
     3
100
AcDbLine
 10
346.8087952736232
 20
1661.345358117848
 30
0.0
 11
346.8087952736232
 21
1679.345358117848
 31
0.0
  0
LINE
  5
3B4
330
48
100
AcDbEntity
  8
0
  6
Continuous
 62
     3
100
AcDbLine
 10
385.0408512736233
 20
1624.577292117848
 30
0.0
 11
388.5763732736234
 21
1628.112936117848
 31
0.0
  0
LINE
  5
3B5
330
48
100
AcDbEntity
  8
0
  6
Continuous
 62
     3
100
AcDbLine
 10
385.0409732736233
 20
1628.112936117848
 30
0.0
 11
388.5764952736231
 21
1624.577292117848
 31
0.0
  0
LINE
  5
3B6
330
48
100
AcDbEntity
  8
0
  6
Continuous
 62
     3
100
AcDbLine
 10
345.0407292736232
 20
1624.577292117848
 30
0.0
 11
348.5761292736233
 21
1628.112936117848
 31
0.0
  0
LINE
  5
3B7
330
48
100
AcDbEntity
  8
0
  6
Continuous
 62
     3
100
AcDbLine
 10
345.0409732736233
 20
1628.112936117848
 30
0.0
 11
348.5763732736234
 21
1624.577292117848
 31
0.0
  0
LINE
  5
3B8
330
48
100
AcDbEntity
  8
1
  6
DOT_CENTER
 62
     3
100
AcDbLine
 10
377.8087952736232
 20
1626.345358117848
 30
0.0
 11
395.8087952736232
 21
1626.345358117848
 31
0.0
  0
LINE
  5
3B9
330
48
100
AcDbEntity
  8
1
  6
DOT_CENTER
 62
     3
100
AcDbLine
 10
386.8087952736232
 20
1617.345358117848
 30
0.0
 11
386.8087952736232
 21
1635.345358117848
 31
0.0
  0
LINE
  5
3BA
330
48
100
AcDbEntity
  8
1
  6
DOT_CENTER
 62
     3
100
AcDbLine
 10
337.8087952736232
 20
1626.345358117848
 30
0.0
 11
355.8087952736232
 21
1626.345358117848
 31
0.0
  0
LINE
  5
3BB
330
48
100
AcDbEntity
  8
1
  6
DOT_CENTER
 62
     3
100
AcDbLine
 10
346.8087952736232
 20
1617.345358117848
 30
0.0
 11
346.8087952736232
 21
1635.345358117848
 31
0.0
  0
LINE
  5
3BC
330
48
100
AcDbEntity
  8
1
  6
DASH_CENTER
 62
     3
100
AcDbLine
 10
161.1047353934501
 20
1771.349223998024
 30
0.0
 11
161.1047353934501
 21
1582.987402117848
 31
0.0
  0
LINE
  5
3BD
330
48
100
AcDbEntity
  8
0
  6
Continuous
 62
     4
100
AcDbLine
 10
377.8090392736235
 20
1685.345358117848
 30
0.0
 11
377.8090392736235
 21
1678.345358117848
 31
0.0
  0
LINE
  5
3BE
330
48
100
AcDbEntity
  8
0
  6
DASH_CENTER
 62
     3
100
AcDbLine
 10
793.7028258180667
 20
1698.145164117848
 30
0.0
 11
793.7196902561527
 21
1582.987402117848
 31
0.0
  0
LINE
  5
3BF
330
48
100
AcDbEntity
  8
0
  6
Continuous
 62
     4
100
AcDbLine
 10
355.8092832736234
 20
1685.345358117848
 30
0.0
 11
355.8092832736234
 21
1687.081198117848
 31
0.0
  0
LINE
  5
3C0
330
48
100
AcDbEntity
  8
1
  6
Continuous
 62
     1
100
AcDbLine
 10
234.308795273626
 20
1698.145164117848
 30
0.0
 11
344.8092832736234
 21
1698.145164117848
 31
0.0
  0
LINE
  5
3C1
330
48
100
AcDbEntity
  8
0
  6
Continuous
 62
     1
100
AcDbLine
 10
234.3087952736251
 20
1582.987402117848
 30
0.0
 11
234.308795273626
 21
1698.145164117848
 31
0.0
  0
LINE
  5
3C2
330
48
100
AcDbEntity
  8
0
  6
LONG_DASHED
 62
     3
100
AcDbLine
 10
207.8087952736235
 20
1611.145654117848
 30
0.0
 11
207.8087952736235
 21
1582.987402117848
 31
0.0
  0
LINE
  5
3C3
330
48
100
AcDbEntity
  8
0
  6
LONG_DASHED
 62
     3
100
AcDbLine
 10
185.8087952736235
 20
1611.145654117848
 30
0.0
 11
185.8087952736235
 21
1582.987402117848
 31
0.0
  0
LINE
  5
3C4
330
48
100
AcDbEntity
  8
0
  6
Continuous
 62
     3
100
AcDbLine
 10
185.8087952736235
 20
1611.145654117848
 30
0.0
 11
207.8087952736235
 21
1611.145654117848
 31
0.0
  0
LINE
  5
3C5
330
48
100
AcDbEntity
  8
0
  6
DOT_CENTER
 62
     3
100
AcDbLine
 10
196.8087952736235
 20
1631.145654117848
 30
0.0
 11
196.8087952736235
 21
1582.987402117848
 31
0.0
  0
LINE
  5
3C6
330
48
100
AcDbEntity
  8
0
  6
Continuous
 62
     4
100
AcDbLine
 10
324.8087952736235
 20
1698.145164117848
 30
0.0
 11
327.8087952736235
 21
1698.145164117848
 31
0.0
  0
LINE
  5
3C7
330
48
100
AcDbEntity
  8
0
  6
Continuous
 62
     4
100
AcDbLine
 10
324.8087952736234
 20
1728.144676117848
 30
0.0
 11
324.8087952736235
 21
1698.145164117848
 31
0.0
  0
LINE
  5
3C8
330
48
100
AcDbEntity
  8
0
  6
Continuous
 62
     1
100
AcDbLine
 10
777.2975842551684
 20
1698.145164117848
 30
0.0
 11
774.3081952736234
 21
1698.145164117848
 31
0.0
  0
LINE
  5
3C9
330
48
100
AcDbEntity
  8
0
  6
Continuous
 62
     4
100
AcDbLine
 10
777.2975842551684
 20
1728.144676117848
 30
0.0
 11
777.2975842551684
 21
1698.145164117848
 31
0.0
  0
LINE
  5
3CA
330
48
100
AcDbEntity
  8
0
  6
Continuous
 62
     1
100
AcDbLine
 10
777.2975842551684
 20
1728.144676117848
 30
0.0
 11
324.8087952736234
 21
1728.144676117848
 31
0.0
  0
LINE
  5
3CB
330
48
100
AcDbEntity
  8
0
  6
DASH_CENTER
 62
     3
100
AcDbLine
 10
336.8087952736235
 20
1715.345358117848
 30
0.0
 11
336.8087952736235
 21
1701.344870117848
 31
0.0
  0
LINE
  5
3CC
330
48
100
AcDbEntity
  8
0
  6
DASH_CENTER
 62
     3
100
AcDbLine
 10
329.8081852736234
 20
1708.344870117848
 30
0.0
 11
342.8087952736235
 21
1708.344870117848
 31
0.0
  0
LINE
  5
3CD
330
48
100
AcDbEntity
  8
0
  6
Continuous
 62
     4
100
AcDbLine
 10
355.8092832736234
 20
1678.345358117848
 30
0.0
 11
355.8092832736234
 21
1685.345358117848
 31
0.0
  0
LINE
  5
3CE
330
48
100
AcDbEntity
  8
0
  6
Continuous
 62
     4
100
AcDbLine
 10
377.8090392736235
 20
1687.081198117848
 30
0.0
 11
377.8090392736235
 21
1685.345358117848
 31
0.0
  0
LINE
  5
3CF
330
48
100
AcDbEntity
  8
0
  6
Continuous
 62
     4
100
AcDbLine
 10
355.8092832736234
 20
1688.844870117848
 30
0.0
 11
355.8092832736234
 21
1694.844870117848
 31
0.0
  0
LINE
  5
3D0
330
48
100
AcDbEntity
  8
0
  6
DASH_CENTER
 62
     3
100
AcDbLine
 10
765.3081952736234
 20
1715.345358117848
 30
0.0
 11
765.3081952736234
 21
1701.344870117848
 31
0.0
  0
LINE
  5
3D1
330
48
100
AcDbEntity
  8
0
  6
DASH_CENTER
 62
     3
100
AcDbLine
 10
758.3083172736233
 20
1708.344870117848
 30
0.0
 11
773.8213792736237
 21
1708.344870117848
 31
0.0
  0
LINE
  5
3D2
330
48
100
AcDbEntity
  8
0
  6
Continuous
 62
     4
100
AcDbLine
 10
732.8090392736237
 20
1694.844870117848
 30
0.0
 11
732.8090392736237
 21
1688.844870117848
 31
0.0
  0
LINE
  5
3D3
330
48
100
AcDbEntity
  8
0
  6
Continuous
 62
     4
100
AcDbLine
 10
713.8087952736236
 20
1694.844870117848
 30
0.0
 11
713.8087952736236
 21
1698.145164117848
 31
0.0
  0
LINE
  5
3D4
330
48
100
AcDbEntity
  8
0
  6
Continuous
 62
     4
100
AcDbLine
 10
729.8087952736234
 20
1694.844870117848
 30
0.0
 11
729.8087952736234
 21
1698.145164117848
 31
0.0
  0
LINE
  5
3D5
330
48
100
AcDbEntity
  8
0
  6
Continuous
 62
     4
100
AcDbLine
 10
732.8090392736237
 20
1688.844870117848
 30
0.0
 11
355.8092832736234
 21
1688.844870117848
 31
0.0
  0
LINE
  5
3D6
330
48
100
AcDbEntity
  8
0
  6
Continuous
 62
     4
100
AcDbLine
 10
717.5586732736235
 20
1687.845358117848
 30
0.0
 11
716.5590392736237
 21
1688.844870117848
 31
0.0
  0
LINE
  5
3D7
330
48
100
AcDbEntity
  8
0
  6
Continuous
 62
     4
100
AcDbLine
 10
726.0589172736236
 20
1687.845358117848
 30
0.0
 11
727.0584292736237
 21
1688.844870117848
 31
0.0
  0
LINE
  5
3D8
330
48
100
AcDbEntity
  8
0
  6
Continuous
 62
     4
100
AcDbLine
 10
717.5586732736235
 20
1687.845358117848
 30
0.0
 11
726.0589172736236
 21
1687.845358117848
 31
0.0
  0
LINE
  5
3D9
330
48
100
AcDbEntity
  8
0
  6
DASH_CENTER
 62
     3
100
AcDbLine
 10
721.8087952736234
 20
1684.845358117848
 30
0.0
 11
721.8087952736234
 21
1704.845358117848
 31
0.0
  0
LINE
  5
3DA
330
48
100
AcDbEntity
  8
0
  6
Continuous
 62
     4
100
AcDbLine
 10
355.8092832736234
 20
1694.844870117848
 30
0.0
 11
732.8090392736237
 21
1694.844870117848
 31
0.0
  0
LINE
  5
3DB
330
48
100
AcDbEntity
  8
0
  6
Continuous
 62
     1
100
AcDbLine
 10
327.8087952736235
 20
1698.145164117848
 30
0.0
 11
774.3081952736234
 21
1698.145164117848
 31
0.0
  0
LINE
  5
3DC
330
48
100
AcDbEntity
  8
0
  6
Continuous
 62
     4
100
AcDbLine
 10
327.8087952736235
 20
1728.144676117848
 30
0.0
 11
327.8087952736235
 21
1698.145164117848
 31
0.0
  0
LINE
  5
3DD
330
48
100
AcDbEntity
  8
0
  6
Continuous
 62
     1
100
AcDbLine
 10
774.3081952736234
 20
1728.144676117848
 30
0.0
 11
327.8087952736235
 21
1728.144676117848
 31
0.0
  0
LINE
  5
3DE
330
48
100
AcDbEntity
  8
0
  6
Continuous
 62
     4
100
AcDbLine
 10
774.3081952736234
 20
1698.145164117848
 30
0.0
 11
774.3081952736234
 21
1728.144676117848
 31
0.0
  0
LINE
  5
3DF
330
48
100
AcDbEntity
  8
0
  6
Continuous
 62
     4
100
AcDbLine
 10
355.8092832736234
 20
1687.081198117848
 30
0.0
 11
377.8090392736235
 21
1687.081198117848
 31
0.0
  0
LINE
  5
3E0
330
48
100
AcDbEntity
  8
0
  6
Continuous
 62
     4
100
AcDbLine
 10
377.8090392736235
 20
1687.081198117848
 30
0.0
 11
376.7907272736234
 21
1688.844870117848
 31
0.0
  0
LINE
  5
3E1
330
48
100
AcDbEntity
  8
0
  6
Continuous
 62
     4
100
AcDbLine
 10
356.8277152736233
 20
1688.844870117848
 30
0.0
 11
355.8092832736234
 21
1687.081198117848
 31
0.0
  0
LINE
  5
3E2
330
48
100
AcDbEntity
  8
0
  6
DASH_CENTER
 62
     3
100
AcDbLine
 10
161.1047353934501
 20
1582.987402117848
 30
0.0
 11
793.7196902561527
 21
1582.987402117848
 31
0.0
  0
LINE
  5
3E3
330
48
100
AcDbEntity
  8
0
  6
DASH_CENTER
 62
     3
100
AcDbLine
 10
366.8087952736235
 20
1697.845358117848
 30
0.0
 11
366.8087952736235
 21
1610.969382117848
 31
0.0
  0
LINE
  5
3E4
330
48
100
AcDbEntity
  8
0
  6
DASH_CENTER
 62
     3
100
AcDbLine
 10
342.8087952736235
 20
1708.344870117848
 30
0.0
 11
343.8085512736234
 21
1708.344870117848
 31
0.0
  0
LINE
  5
3E5
330
48
100
AcDbEntity
  8
1
  6
Continuous
 62
     3
100
AcDbLine
 10
419.2473798759571
 20
1617.015676568428
 30
0.0
 11
391.2473798759571
 21
1638.015676568428
 31
0.0
  0
LINE
  5
3E6
330
48
100
AcDbEntity
  8
1
  6
Continuous
 62
     3
100
AcDbLine
 10
767.6621067611331
 20
1670.91723928031
 30
0.0
 11
752.6621067611331
 21
1703.91723928031
 31
0.0
  0
ARC
  5
3E7
330
48
100
AcDbEntity
  8
0
  6
LONG_DASHED
 62
     3
100
AcDbCircle
 10
758.0156303759793
 20
1355.341594237672
 30
0.0
 40
11.0
100
AcDbArc
 50
0.0
 51
180.0
  0
ARC
  5
3E8
330
48
100
AcDbEntity
  8
0
  6
Continuous
 62
     3
100
AcDbCircle
 10
577.4964043759794
 20
1374.361610237672
 30
0.0
 40
1.819824000000282
100
AcDbArc
 50
40.69634700001154
 51
90.00000000000716
  0
ARC
  5
3E9
330
48
100
AcDbEntity
  8
0
  6
Continuous
 62
     3
100
AcDbCircle
 10
577.496404375979
 20
1374.001748237672
 30
0.0
 40
1.819999999999936
100
AcDbArc
 50
-89.99999999999285
 51
-40.70800099997871
  0
ARC
  5
3EA
330
48
100
AcDbEntity
  8
0
  6
Continuous
 62
     3
100
AcDbCircle
 10
574.0560963759788
 20
1374.001748237672
 30
0.0
 40
1.820312000000124
100
AcDbArc
 50
-139.294504999987
 51
-89.99999999998569
  0
ARC
  5
3EB
330
48
100
AcDbEntity
  8
0
  6
Continuous
 62
     3
100
AcDbCircle
 10
574.0560963759799
 20
1374.361610237672
 30
0.0
 40
1.819774000000052
100
AcDbArc
 50
90.00000000002147
 51
139.306159000033
  0
ARC
  5
3EC
330
48
100
AcDbEntity
  8
0
  6
Continuous
 62
     3
100
AcDbCircle
 10
605.3352723759799
 20
1376.121376237672
 30
0.0
 40
1.819823999999916
100
AcDbArc
 50
40.67881000003035
 51
90.00000000002147
  0
ARC
  5
3ED
330
48
100
AcDbEntity
  8
0
  6
Continuous
 62
     3
100
AcDbCircle
 10
605.3352723759792
 20
1372.361610237672
 30
0.0
 40
1.820330000000013
100
AcDbArc
 50
-90.0
 51
-40.67880999999248
  0
ARC
  5
3EE
330
48
100
AcDbEntity
  8
0
  6
Continuous
 62
     3
100
AcDbCircle
 10
570.6959903759798
 20
1372.361610237672
 30
0.0
 40
1.820311999999879
100
AcDbArc
 50
-139.3211900000246
 51
-90.00000000001431
  0
ARC
  5
3EF
330
48
100
AcDbEntity
  8
0
  6
Continuous
 62
     3
100
AcDbCircle
 10
570.6959903759787
 20
1376.121376237672
 30
0.0
 40
1.820182000000159
100
AcDbArc
 50
89.99999999997854
 51
137.5712249999654
  0
ARC
  5
3F0
330
48
100
AcDbEntity
  8
0
  6
Continuous
 62
     3
100
AcDbCircle
 10
605.3352723759792
 20
1377.381630237672
 30
0.0
 40
0.2998039999999946
100
AcDbArc
 50
0.0
 51
90.0
  0
ARC
  5
3F1
330
48
100
AcDbEntity
  8
0
  6
Continuous
 62
     3
100
AcDbCircle
 10
605.3352723759792
 20
1371.101356237673
 30
0.0
 40
0.3006600000010167
100
AcDbArc
 50
-90.0
 51
0.0
  0
ARC
  5
3F2
330
48
100
AcDbEntity
  8
0
  6
Continuous
 62
     3
100
AcDbCircle
 10
570.6959903759789
 20
1371.101356237673
 30
0.0
 40
0.2998039999995399
100
AcDbArc
 50
180.0
 51
-89.9999999999131
  0
ARC
  5
3F3
330
48
100
AcDbEntity
  8
0
  6
Continuous
 62
     3
100
AcDbCircle
 10
570.6959903759794
 20
1377.381630237672
 30
0.0
 40
0.2999260000001414
100
AcDbArc
 50
90.0
 51
180.0
  0
ARC
  5
3F4
330
48
100
AcDbEntity
  8
0
  6
Continuous
 62
     3
100
AcDbCircle
 10
349.4891552736235
 20
1633.185690117848
 30
0.0
 40
0.299925999999914
100
AcDbArc
 50
90.0
 51
180.0
  0
ARC
  5
3F5
330
48
100
AcDbEntity
  8
0
  6
Continuous
 62
     3
100
AcDbCircle
 10
349.4891552736231
 20
1626.905416117849
 30
0.0
 40
0.2998039999995967
100
AcDbArc
 50
180.0
 51
-89.99999999992396
  0
ARC
  5
3F6
330
48
100
AcDbEntity
  8
0
  6
Continuous
 62
     3
100
AcDbCircle
 10
384.1284372736233
 20
1626.905416117849
 30
0.0
 40
0.3006600000010167
100
AcDbArc
 50
-89.99999999998917
 51
0.0
  0
ARC
  5
3F7
330
48
100
AcDbEntity
  8
0
  6
Continuous
 62
     3
100
AcDbCircle
 10
384.1284372736234
 20
1633.185690117848
 30
0.0
 40
0.2998040000000515
100
AcDbArc
 50
0.0
 51
90.0
  0
ARC
  5
3F8
330
48
100
AcDbEntity
  8
0
  6
Continuous
 62
     3
100
AcDbCircle
 10
349.4891552736227
 20
1631.925436117848
 30
0.0
 40
1.820181999999932
100
AcDbArc
 50
89.99999999997495
 51
137.571224999963
  0
ARC
  5
3F9
330
48
100
AcDbEntity
  8
0
  6
Continuous
 62
     3
100
AcDbCircle
 10
349.4891552736239
 20
1628.165670117848
 30
0.0
 40
1.820311999999879
100
AcDbArc
 50
-139.3211900000246
 51
-90.00000000001253
  0
ARC
  5
3FA
330
48
100
AcDbEntity
  8
0
  6
Continuous
 62
     3
100
AcDbCircle
 10
384.1284372736233
 20
1628.165670117848
 30
0.0
 40
1.820330000000013
100
AcDbArc
 50
-89.99999999999822
 51
-40.67880999999674
  0
ARC
  5
3FB
330
48
100
AcDbEntity
  8
0
  6
Continuous
 62
     3
100
AcDbCircle
 10
384.1284372736241
 20
1631.925436117848
 30
0.0
 40
1.819823999999873
100
AcDbArc
 50
40.67881000003153
 51
90.00000000002326
  0
ARC
  5
3FC
330
48
100
AcDbEntity
  8
0
  6
Continuous
 62
     3
100
AcDbCircle
 10
352.8492612736241
 20
1630.165670117848
 30
0.0
 40
1.819773999999825
100
AcDbArc
 50
90.00000000002147
 51
139.3061590000353
  0
ARC
  5
3FD
330
48
100
AcDbEntity
  8
0
  6
Continuous
 62
     3
100
AcDbCircle
 10
352.8492612736229
 20
1629.805808117848
 30
0.0
 40
1.820312000000229
100
AcDbArc
 50
-139.2945049999804
 51
-89.9999999999839
  0
ARC
  5
3FE
330
48
100
AcDbEntity
  8
0
  6
Continuous
 62
     3
100
AcDbCircle
 10
356.2895692736231
 20
1629.805808117848
 30
0.0
 40
1.820000000000164
100
AcDbArc
 50
-89.99999999999106
 51
-40.7080009999853
  0
ARC
  5
3FF
330
48
100
AcDbEntity
  8
0
  6
Continuous
 62
     3
100
AcDbCircle
 10
356.2895692736236
 20
1630.165670117848
 30
0.0
 40
1.819824000000239
100
AcDbArc
 50
40.6963470000127
 51
90.00000000000716
  0
ARC
  5
400
330
48
100
AcDbEntity
  8
0
  6
LONG_DASHED
 62
     3
100
AcDbCircle
 10
196.8087952736235
 20
1611.145654117848
 30
0.0
 40
11.0
100
AcDbArc
 50
0.0
 51
180.0
  0
CIRCLE
  5
401
330
48
100
AcDbEntity
  8
1
  6
Continuous
 62
     3
100
AcDbCircle
 10
202.1623188884696
 20
1448.113179400134
 30
0.0
 40
0.600000000000108
  0
CIRCLE
  5
402
330
48
100
AcDbEntity
  8
1
  6
Continuous
 62
     3
100
AcDbCircle
 10
563.5770457736455
 20
1382.211616688252
 30
0.0
 40
0.599999999999909
  0
CIRCLE
  5
403
330
48
100
AcDbEntity
  8
1
  6
Continuous
 62
     4
100
AcDbCircle
 10
189.5162303759794
 20
1452.541104237672
 30
0.0
 40
6.0
  0
CIRCLE
  5
404
330
48
100
AcDbEntity
  8
1
  6
Continuous
 62
     4
100
AcDbCircle
 10
618.0156303759793
 20
1452.540810237672
 30
0.0
 40
6.0
  0
CIRCLE
  5
405
330
48
100
AcDbEntity
  8
0
  6
DASHED
 62
     3
100
AcDbCircle
 10
568.0156303759795
 20
1370.541298237672
 30
0.0
 40
5.0
  0
CIRCLE
  5
406
330
48
100
AcDbEntity
  8
0
  6
DASHED
 62
     3
100
AcDbCircle
 10
608.0156303759795
 20
1370.541298237672
 30
0.0
 40
5.0
  0
CIRCLE
  5
407
330
48
100
AcDbEntity
  8
0
  6
DASHED
 62
     3
100
AcDbCircle
 10
608.0156303759795
 20
1414.541298237672
 30
0.0
 40
5.0
  0
CIRCLE
  5
408
330
48
100
AcDbEntity
  8
0
  6
DASHED
 62
     3
100
AcDbCircle
 10
568.0156303759795
 20
1414.541298237672
 30
0.0
 40
5.0
  0
CIRCLE
  5
409
330
48
100
AcDbEntity
  8
0
  6
LONG_DASHED
 62
     3
100
AcDbCircle
 10
608.0156303759795
 20
1414.541298237672
 30
0.0
 40
5.200000000000045
  0
CIRCLE
  5
40A
330
48
100
AcDbEntity
  8
0
  6
LONG_DASHED
 62
     3
100
AcDbCircle
 10
608.0156303759795
 20
1370.541298237672
 30
0.0
 40
5.200000000000045
  0
CIRCLE
  5
40B
330
48
100
AcDbEntity
  8
0
  6
LONG_DASHED
 62
     3
100
AcDbCircle
 10
568.0156303759795
 20
1392.541298237672
 30
0.0
 40
5.199999999998909
  0
CIRCLE
  5
40C
330
48
100
AcDbEntity
  8
0
  6
LONG_DASHED
 62
     3
100
AcDbCircle
 10
608.0156303759795
 20
1392.541298237672
 30
0.0
 40
5.200000000000045
  0
CIRCLE
  5
40D
330
48
100
AcDbEntity
  8
0
  6
LONG_DASHED
 62
     3
100
AcDbCircle
 10
608.0156303759795
 20
1392.541298237672
 30
0.0
 40
2.900000000000091
  0
CIRCLE
  5
40E
330
48
100
AcDbEntity
  8
0
  6
LONG_DASHED
 62
     3
100
AcDbCircle
 10
568.0156303759795
 20
1392.541298237672
 30
0.0
 40
2.900000000000091
  0
CIRCLE
  5
40F
330
48
100
AcDbEntity
  8
0
  6
LONG_DASHED
 62
     3
100
AcDbCircle
 10
568.0156303759795
 20
1370.541298237672
 30
0.0
 40
5.200000000000045
  0
CIRCLE
  5
410
330
48
100
AcDbEntity
  8
0
  6
LONG_DASHED
 62
     3
100
AcDbCircle
 10
568.0156303759795
 20
1414.541298237672
 30
0.0
 40
5.199999999998909
  0
CIRCLE
  5
411
330
48
100
AcDbEntity
  8
0
  6
LONG_DASHED
 62
     3
100
AcDbCircle
 10
386.8087952736232
 20
1670.345358117848
 30
0.0
 40
5.199999999998909
  0
CIRCLE
  5
412
330
48
100
AcDbEntity
  8
0
  6
LONG_DASHED
 62
     3
100
AcDbCircle
 10
386.8087952736232
 20
1626.345358117848
 30
0.0
 40
5.200000000000045
  0
CIRCLE
  5
413
330
48
100
AcDbEntity
  8
0
  6
LONG_DASHED
 62
     3
100
AcDbCircle
 10
386.8087952736232
 20
1648.345358117848
 30
0.0
 40
2.900000000000091
  0
CIRCLE
  5
414
330
48
100
AcDbEntity
  8
0
  6
LONG_DASHED
 62
     3
100
AcDbCircle
 10
346.8087952736232
 20
1648.345358117848
 30
0.0
 40
2.900000000000091
  0
CIRCLE
  5
415
330
48
100
AcDbEntity
  8
0
  6
LONG_DASHED
 62
     3
100
AcDbCircle
 10
346.8087952736232
 20
1648.345358117848
 30
0.0
 40
5.200000000000045
  0
CIRCLE
  5
416
330
48
100
AcDbEntity
  8
0
  6
LONG_DASHED
 62
     3
100
AcDbCircle
 10
386.8087952736232
 20
1648.345358117848
 30
0.0
 40
5.199999999998909
  0
CIRCLE
  5
417
330
48
100
AcDbEntity
  8
0
  6
LONG_DASHED
 62
     3
100
AcDbCircle
 10
346.8087952736232
 20
1626.345358117848
 30
0.0
 40
5.200000000000045
  0
CIRCLE
  5
418
330
48
100
AcDbEntity
  8
0
  6
LONG_DASHED
 62
     3
100
AcDbCircle
 10
346.8087952736232
 20
1670.345358117848
 30
0.0
 40
5.200000000000045
  0
CIRCLE
  5
419
330
48
100
AcDbEntity
  8
0
  6
DASHED
 62
     3
100
AcDbCircle
 10
386.8087952736232
 20
1670.345358117848
 30
0.0
 40
5.0
  0
CIRCLE
  5
41A
330
48
100
AcDbEntity
  8
0
  6
DASHED
 62
     3
100
AcDbCircle
 10
346.8087952736232
 20
1670.345358117848
 30
0.0
 40
5.0
  0
CIRCLE
  5
41B
330
48
100
AcDbEntity
  8
0
  6
DASHED
 62
     3
100
AcDbCircle
 10
346.8087952736232
 20
1626.345358117848
 30
0.0
 40
5.0
  0
CIRCLE
  5
41C
330
48
100
AcDbEntity
  8
0
  6
DASHED
 62
     3
100
AcDbCircle
 10
386.8087952736232
 20
1626.345358117848
 30
0.0
 40
5.0
  0
CIRCLE
  5
41D
330
48
100
AcDbEntity
  8
1
  6
Continuous
 62
     4
100
AcDbCircle
 10
336.8087952736235
 20
1708.344870117848
 30
0.0
 40
6.0
  0
CIRCLE
  5
41E
330
48
100
AcDbEntity
  8
1
  6
Continuous
 62
     4
100
AcDbCircle
 10
765.3081952736234
 20
1708.345164117848
 30
0.0
 40
6.0
  0
CIRCLE
  5
41F
330
48
100
AcDbEntity
  8
1
  6
Continuous
 62
     3
100
AcDbCircle
 10
391.2473798759571
 20
1638.015676568428
 30
0.0
 40
0.6000000000000796
  0
CIRCLE
  5
420
330
48
100
AcDbEntity
  8
1
  6
Continuous
 62
     3
100
AcDbCircle
 10
752.6621067611331
 20
1703.91723928031
 30
0.0
 40
0.6000000000001364
  0
MTEXT
  5
421
330
48
100
AcDbEntity
  8
1
 62
     4
100
AcDbMText
 10
184.2824394988932
 20
1408.654267810126
 30
0.0
 40
10.0
 41
0.0
 71
     9
 72
     1
  1
2
  7
CONVERTER_17
 73
     1
 44
1.02040816326531
  0
MTEXT
  5
422
330
48
100
AcDbEntity
  8
1
 62
     4
100
AcDbMText
 10
534.2465318349934
 20
1357.126117428129
 30
0.0
 40
10.0
 41
0.0
 71
     9
 72
     1
  1
1
  7
CONVERTER_17
 73
     1
 44
1.02040816326531
  0
TEXT
  5
424
330
48
100
AcDbEntity
  8
0
 62
     4
100
AcDbText
 10
218.6247309003919
 20
1568.107488624922
 30
0.0
 40
6.0
  1
Anschlagmaße für Tür mit Rechtsflügel
 41
0.99
  7
CONVERTER_18
100
AcDbText
  0
TEXT
  5
425
330
48
100
AcDbEntity
  8
1
 62
     4
100
AcDbText
 10
420.5778938146093
 20
1612.930177308305
 30
0.0
 40
10.0
  1
1
 41
0.95
  7
CONVERTER_17
100
AcDbText
  0
TEXT
  5
426
330
48
100
AcDbEntity
  8
1
 62
     4
100
AcDbText
 10
770.5419861507096
 20
1664.458327690302
 30
0.0
 40
10.0
  1
2
 41
0.95
  7
CONVERTER_17
100
AcDbText
  0
TEXT
  5
427
330
48
100
AcDbEntity
  8
0
 62
     4
100
AcDbText
 10
571.424730900392
 20
1310.307488624922
 30
0.0
 40
6.0
  1
Anschlagmaße für Tür mit Linksflügel
 41
0.99
  7
CONVERTER_18
100
AcDbText
  0
DIMENSION
  5
432
330
48
100
AcDbEntity
  8
1
100
AcDbDimension
  2
*D13
 10
608.0156303759795
 20
1341.0087092768
 30
0.0
 11
681.414245076008
 21
1348.5087092768
 31
0.0
 70
    32
  1
<>
 71
     5
 42
-1.0
 53
0.00013888888889
  3
ME10_DIM_11
100
AcDbAlignedDimension
 13
758.0156303759793
 23
1375.341594237672
 33
0.0
 14
608.0156303759795
 24
1361.541298237672
 34
0.0
100
AcDbRotatedDimension
  0
DIMENSION
  5
43D
330
48
100
AcDbEntity
  8
1
100
AcDbDimension
  2
*D14
 10
608.0156303759795
 20
1341.0087092768
 30
0.0
 11
587.721921128231
 21
1348.5087092768
 31
0.0
 70
    32
  1
<>
 71
     5
 42
-1.0
 53
0.00013888888889
  3
ME10_DIM_12
100
AcDbAlignedDimension
 13
568.0156303759795
 23
1361.541298237672
 33
0.0
 14
608.0156303759795
 24
1361.541298237672
 34
0.0
100
AcDbRotatedDimension
  0
DIMENSION
  5
448
330
48
100
AcDbEntity
  8
1
100
AcDbDimension
  2
*D15
 10
346.8087952736232
 20
1594.4685450719
 30
0.0
 11
274.990754733907
 21
1601.9685450719
 31
0.0
 70
    32
  1
<>
 71
     5
 42
-1.0
 53
0.00013888888889
  3
ME10_DIM_13
100
AcDbAlignedDimension
 13
196.8087952736235
 23
1631.145654117848
 33
0.0
 14
346.8087952736232
 24
1617.345358117848
 34
0.0
100
AcDbRotatedDimension
  0
DIMENSION
  5
453
330
48
100
AcDbEntity
  8
1
100
AcDbDimension
  2
*D16
 10
346.8087952736232
 20
1594.4685450719
 30
0.0
 11
366.670027871611
 21
1601.9685450719
 31
0.0
 70
    32
  1
<>
 71
     5
 42
-1.0
 53
0.00013888888889
  3
ME10_DIM_14
100
AcDbAlignedDimension
 13
386.8087952736232
 23
1617.345358117848
 33
0.0
 14
346.8087952736232
 24
1617.345358117848
 34
0.0
100
AcDbRotatedDimension
  0
DIMENSION
  5
45E
330
48
100
AcDbEntity
  8
1
100
AcDbDimension
  2
*D17
 10
758.0156303759793
 20
1525.668052039264
 30
0.0
 11
689.7506263330138
 21
1533.168052039264
 31
0.0
 70
    32
  1
<>
 71
     5
 42
-1.0
 53
0.00013888888889
  3
ME10_DIM_15
100
AcDbAlignedDimension
 13
618.0156303759793
 23
1459.541298237672
 33
0.0
 14
758.0156303759793
 24
1375.341594237672
 34
0.0
100
AcDbRotatedDimension
  0
DIMENSION
  5
469
330
48
100
AcDbEntity
  8
1
100
AcDbDimension
  2
*D18
 10
618.0156303759793
 20
1525.668052039264
 30
0.0
 11
379.1057905244509
 21
1533.168052039264
 31
0.0
 70
    32
  1
<>
 71
     5
 42
-1.0
 53
0.00013888888889
  3
ME10_DIM_16
100
AcDbAlignedDimension
 13
189.5162303759794
 23
1459.541298237672
 33
0.0
 14
618.0156303759793
 24
1459.541298237672
 34
0.0
100
AcDbRotatedDimension
  0
DIMENSION
  5
474
330
48
100
AcDbEntity
  8
1
100
AcDbDimension
  2
*D19
 10
196.8087952736235
 20
1781.47211191944
 30
0.0
 11
265.073799316589
 21
1788.97211191944
 31
0.0
 70
    32
  1
<>
 71
     5
 42
-1.0
 53
0.00013888888889
  3
ME10_DIM_17
100
AcDbAlignedDimension
 13
336.8087952736235
 23
1715.345358117848
 33
0.0
 14
196.8087952736235
 24
1631.145654117848
 34
0.0
100
AcDbRotatedDimension
  0
DIMENSION
  5
47F
330
48
100
AcDbEntity
  8
1
100
AcDbDimension
  2
*D20
 10
336.8087952736235
 20
1781.47211191944
 30
0.0
 11
575.718635125152
 21
1788.97211191944
 31
0.0
 70
    32
  1
<>
 71
     5
 42
-1.0
 53
0.00013888888889
  3
ME10_DIM_18
100
AcDbAlignedDimension
 13
765.3081952736234
 23
1715.345358117848
 33
0.0
 14
336.8087952736235
 24
1715.345358117848
 34
0.0
100
AcDbRotatedDimension
  0
ENDBLK
  5
4A
330
48
100
AcDbEntity
  8
0
100
AcDbBlockEnd
  0
BLOCK
  5
4D
330
4B
100
AcDbEntity
  8
0
100
AcDbBlockBegin
  2
TOP__6
 70
     0
 71
     0
 10
115.614507812575
 20
84.96433284956811
 30
0.0
  3
TOP__6
  1

  0
INSERT
  5
4C
330
4B
100
AcDbEntity
  8
1
100
AcDbBlockReference
  2
1__5
 10
40.80436763681169
 20
656.271508058924
 30
0.0
 41
0.5
 42
0.5
 43
0.5
  0
ENDBLK
  5
4E
330
4B
100
AcDbEntity
  8
0
100
AcDbBlockEnd
  0
BLOCK
  5
51
330
4F
100
AcDbEntity
  8
0
100
AcDbBlockBegin
  2
Blindlager
 70
     0
 71
     0
 10
255.8002232548678
 20
2301.287546910528
 30
0.0
  3
Blindlager
  1

  0
INSERT
  5
50
330
4F
100
AcDbEntity
  8
0
100
AcDbBlockReference
  2
TOP__6
 10
231.22901562515
 20
169.9286656991362
 30
0.0
 41
2.0
 42
2.0
 43
2.0
  0
ENDBLK
  5
52
330
4F
100
AcDbEntity
  8
0
100
AcDbBlockEnd
  0
BLOCK
  5
54
330
53
100
AcDbEntity
  8
0
100
AcDbBlockBegin
  2
Schiene
 70
     0
 71
     0
 10
-73.9592012481169
 20
330.2726310589244
 30
0.0
  3
Schiene
  1

  0
LINE
  5
480
330
53
100
AcDbEntity
  8
1
  6
DOT_CENTER
 62
     3
100
AcDbLine
 10
-44.45920124811703
 20
804.0016467006411
 30
0.0
 11
-44.45920124811703
 21
795.5122414162892
 31
0.0
  0
LINE
  5
481
330
53
100
AcDbEntity
  8
1
  6
Continuous
 62
     1
100
AcDbLine
 10
-28.95920124811703
 20
801.2726310589244
 30
0.0
 11
-28.95920124811703
 21
831.2726310589244
 31
0.0
  0
ENDBLK
  5
55
330
53
100
AcDbEntity
  8
0
100
AcDbBlockEnd
  0
BLOCK
  5
57
330
56
100
AcDbEntity
  8
0
100
AcDbBlockBegin
  2
Profil-Stahltuer
 70
     0
 71
     0
 10
42.08755252871197
 20
-423.6397934017957
 30
0.0
  3
Profil-Stahltuer
  1

  0
LINE
  5
482
330
56
100
AcDbEntity
  8
0
  6
Continuous
 62
     1
100
AcDbLine
 10
-26.45920124811703
 20
820.9725820589242
 30
0.0
 11
-26.95920124811693
 21
820.9725820589233
 31
0.0
  0
LINE
  5
483
330
56
100
AcDbEntity
  8
0
  6
Continuous
 62
     1
100
AcDbLine
 10
-26.45920124811703
 20
815.9725820589242
 30
0.0
 11
-26.95920124811693
 21
815.9725820589233
 31
0.0
  0
LINE
  5
484
330
56
100
AcDbEntity
  8
0
  6
Continuous
 62
     3
100
AcDbLine
 10
-26.45920124811703
 20
816.6727770589237
 30
0.0
 11
-26.95920124811693
 21
816.6727770589246
 31
0.0
  0
LINE
  5
485
330
56
100
AcDbEntity
  8
0
  6
Continuous
 62
     3
100
AcDbLine
 10
-26.45920124811703
 20
820.2726300589243
 30
0.0
 11
-26.95920124811693
 21
820.2726300589243
 31
0.0
  0
LINE
  5
486
330
56
100
AcDbEntity
  8
0
  6
DASH_CENTER
 62
     3
100
AcDbLine
 10
-33.0538166328942
 20
671.5437010589243
 30
0.0
 11
24.8461833671059
 21
671.5437010589243
 31
0.0
  0
LINE
  5
487
102
{ACAD_REACTORS
330
4D6
330
4D6
102
}
330
56
100
AcDbEntity
  8
0
  6
Continuous
 62
     1
100
AcDbLine
 10
15.04079875188298
 20
831.4725820589242
 30
0.0
 11
15.04079875188298
 21
841.7518228388685
 31
0.0
  0
LINE
  5
488
102
{ACAD_REACTORS
330
4D6
330
4D6
102
}
330
56
100
AcDbEntity
  8
0
  6
Continuous
 62
     1
100
AcDbLine
 10
-26.95920124811703
 20
880.4725820589242
 30
0.0
 11
19.04079875188298
 21
880.4725820589242
 31
0.0
  0
LINE
  5
489
102
{ACAD_REACTORS
330
4D6
330
4D6
102
}
330
56
100
AcDbEntity
  8
0
  6
Continuous
 62
     1
100
AcDbLine
 10
13.04079875188298
 20
831.4725820589242
 30
0.0
 11
8.79079875188298
 21
831.4725820589242
 31
0.0
  0
LINE
  5
48A
102
{ACAD_REACTORS
330
4D6
330
4D6
102
}
330
56
100
AcDbEntity
  8
0
  6
Continuous
 62
     1
100
AcDbLine
 10
8.79079875188298
 20
824.9725820589242
 30
0.0
 11
12.79079875188298
 21
824.9725820589242
 31
0.0
  0
LINE
  5
48B
102
{ACAD_REACTORS
330
4D6
330
4D6
102
}
330
56
100
AcDbEntity
  8
0
  6
Continuous
 62
     1
100
AcDbLine
 10
8.79079875188298
 20
829.4725820589242
 30
0.0
 11
13.04079875188298
 21
829.4725820589242
 31
0.0
  0
LINE
  5
48C
102
{ACAD_REACTORS
330
4D6
330
4D6
102
}
330
56
100
AcDbEntity
  8
0
  6
Continuous
 62
     1
100
AcDbLine
 10
12.79079875188298
 20
826.9725820589242
 30
0.0
 11
8.79079875188298
 21
826.9725820589242
 31
0.0
  0
LINE
  5
48D
102
{ACAD_REACTORS
330
4D6
330
4D6
102
}
330
56
100
AcDbEntity
  8
0
  6
Continuous
 62
     1
100
AcDbLine
 10
12.79079875188298
 20
824.4725820589242
 30
0.0
 11
-24.45920124811703
 21
824.4725820589242
 31
0.0
  0
LINE
  5
48E
102
{ACAD_REACTORS
330
4D6
330
4D6
102
}
330
56
100
AcDbEntity
  8
0
  6
Continuous
 62
     1
100
AcDbLine
 10
-24.45920124811703
 20
822.4725820589242
 30
0.0
 11
12.79079875188298
 21
822.4725820589242
 31
0.0
  0
LINE
  5
48F
102
{ACAD_REACTORS
330
4D6
330
4D6
102
}
330
56
100
AcDbEntity
  8
0
  6
Continuous
 62
     1
100
AcDbLine
 10
13.04079875188298
 20
841.7518228388685
 30
0.0
 11
13.04079875188298
 21
831.4725820589242
 31
0.0
  0
LINE
  5
490
102
{ACAD_REACTORS
330
4D6
330
4D6
102
}
330
56
100
AcDbEntity
  8
0
  6
Continuous
 62
     1
100
AcDbLine
 10
-26.95920124811703
 20
803.7225820589242
 30
0.0
 11
-26.95920124811703
 21
880.4725820589242
 31
0.0
  0
LINE
  5
491
102
{ACAD_REACTORS
330
4D6
330
4D6
102
}
330
56
100
AcDbEntity
  8
0
  6
Continuous
 62
     1
100
AcDbLine
 10
-26.45920124811703
 20
822.4725820589242
 30
0.0
 11
-26.45920124811703
 21
803.7225820589242
 31
0.0
  0
LINE
  5
492
102
{ACAD_REACTORS
330
4D6
330
4D6
102
}
330
56
100
AcDbEntity
  8
0
  6
Continuous
 62
     1
100
AcDbLine
 10
-24.45920124811703
 20
803.7225820589242
 30
0.0
 11
-24.45920124811703
 21
822.4725820589242
 31
0.0
  0
LINE
  5
493
102
{ACAD_REACTORS
330
4D6
330
4D6
102
}
330
56
100
AcDbEntity
  8
0
  6
Continuous
 62
     1
100
AcDbLine
 10
19.04079875188298
 20
882.4725820589242
 30
0.0
 11
-26.95920124811703
 21
882.4725820589242
 31
0.0
  0
LINE
  5
494
102
{ACAD_REACTORS
330
4D6
330
4D6
102
}
330
56
100
AcDbEntity
  8
0
  6
Continuous
 62
     1
100
AcDbLine
 10
-28.95920124811703
 20
880.4725820589242
 30
0.0
 11
-28.95920124811703
 21
803.7225820589242
 31
0.0
  0
LINE
  5
495
102
{ACAD_REACTORS
330
4D6
330
4D6
102
}
330
56
100
AcDbEntity
  8
0
  6
Continuous
 62
     1
100
AcDbLine
 10
21.04079875188298
 20
846.6348597190931
 30
0.0
 11
21.04079875188298
 21
878.4725820589242
 31
0.0
  0
LINE
  5
496
102
{ACAD_REACTORS
330
4D6
330
4D6
102
}
330
56
100
AcDbEntity
  8
0
  6
Continuous
 62
     1
100
AcDbLine
 10
18.35702651789787
 20
845.6861764210421
 30
0.0
 11
15.09211545383194
 21
844.5978727330207
 31
0.0
  0
LINE
  5
497
102
{ACAD_REACTORS
330
4D6
330
4D6
102
}
330
56
100
AcDbEntity
  8
0
  6
Continuous
 62
     1
100
AcDbLine
 10
15.72457098586399
 20
842.7005061369186
 30
0.0
 11
18.9894820499331
 21
843.7888098249427
 31
0.0
  0
LINE
  5
498
102
{ACAD_REACTORS
330
4D6
330
4D6
102
}
330
56
100
AcDbEntity
  8
0
  6
Continuous
 62
     1
100
AcDbLine
 10
19.04079875188298
 20
880.4725820589242
 30
0.0
 11
19.04079875188298
 21
846.6348597190931
 31
0.0
  0
LINE
  5
499
102
{ACAD_REACTORS
330
4D6
330
4D6
102
}
330
56
100
AcDbEntity
  8
0
  6
Continuous
 62
     1
100
AcDbLine
 10
21.04079875188298
 20
878.4725820589242
 30
0.0
 11
21.04079875188298
 21
880.4725820589242
 31
0.0
  0
LINE
  5
49A
102
{ACAD_REACTORS
330
4D5
330
4D5
102
}
330
56
100
AcDbEntity
  8
0
  6
Continuous
 62
     1
100
AcDbLine
 10
18.54079875188298
 20
807.4725820589242
 30
0.0
 11
18.54079875188298
 21
831.2225820589242
 31
0.0
  0
LINE
  5
49B
102
{ACAD_REACTORS
330
4D5
330
4D5
102
}
330
56
100
AcDbEntity
  8
0
  6
Continuous
 62
     1
100
AcDbLine
 10
19.04079875188298
 20
831.2225820589242
 30
0.0
 11
19.04079875188298
 21
722.4725820589251
 31
0.0
  0
LINE
  5
49C
102
{ACAD_REACTORS
330
4D5
330
4D5
102
}
330
56
100
AcDbEntity
  8
0
  6
Continuous
 62
     1
100
AcDbLine
 10
16.54079875188298
 20
831.2225820589242
 30
0.0
 11
16.54079875188298
 21
807.4725820589242
 31
0.0
  0
LINE
  5
49D
102
{ACAD_REACTORS
330
4D5
330
4D5
102
}
330
56
100
AcDbEntity
  8
0
  6
Continuous
 62
     1
100
AcDbLine
 10
21.04079875188298
 20
722.4725820589251
 30
0.0
 11
21.04079875188298
 21
831.2225820589242
 31
0.0
  0
LINE
  5
49E
102
{ACAD_REACTORS
330
4D5
330
4D5
102
}
330
56
100
AcDbEntity
  8
0
  6
Continuous
 62
     1
100
AcDbLine
 10
-16.70920124811703
 20
804.9725820589242
 30
0.0
 11
-20.70920124811703
 21
804.9725820589242
 31
0.0
  0
LINE
  5
49F
102
{ACAD_REACTORS
330
4D5
330
4D5
102
}
330
56
100
AcDbEntity
  8
0
  6
Continuous
 62
     1
100
AcDbLine
 10
-20.70920124811703
 20
802.9725820589242
 30
0.0
 11
-16.70920124811703
 21
802.9725820589242
 31
0.0
  0
LINE
  5
4A0
102
{ACAD_REACTORS
330
4D5
330
4D5
102
}
330
56
100
AcDbEntity
  8
0
  6
Continuous
 62
     1
100
AcDbLine
 10
16.54079875188298
 20
807.4725820589242
 30
0.0
 11
-20.70920124811703
 21
807.4725820589242
 31
0.0
  0
LINE
  5
4A1
102
{ACAD_REACTORS
330
4D5
330
4D5
102
}
330
56
100
AcDbEntity
  8
0
  6
Continuous
 62
     1
100
AcDbLine
 10
-20.70920124811703
 20
805.4725820589242
 30
0.0
 11
16.54079875188298
 21
805.4725820589242
 31
0.0
  0
LINE
  5
4A2
102
{ACAD_REACTORS
330
4D5
330
4D5
102
}
330
56
100
AcDbEntity
  8
0
  6
Continuous
 62
     1
100
AcDbLine
 10
-16.70920124811703
 20
800.4725820589242
 30
0.0
 11
-20.95920124811703
 21
800.4725820589242
 31
0.0
  0
LINE
  5
4A3
102
{ACAD_REACTORS
330
4D5
330
4D5
102
}
330
56
100
AcDbEntity
  8
0
  6
Continuous
 62
     1
100
AcDbLine
 10
-26.95920124811703
 20
720.4725820589251
 30
0.0
 11
19.04079875188298
 21
720.4725820589251
 31
0.0
  0
LINE
  5
4A4
102
{ACAD_REACTORS
330
4D5
330
4D5
102
}
330
56
100
AcDbEntity
  8
0
  6
Continuous
 62
     1
100
AcDbLine
 10
-28.95920124811703
 20
788.3103043987562
 30
0.0
 11
-28.95920124811703
 21
722.4725820589251
 31
0.0
  0
LINE
  5
4A5
102
{ACAD_REACTORS
330
4D5
330
4D5
102
}
330
56
100
AcDbEntity
  8
0
  6
Continuous
 62
     1
100
AcDbLine
 10
-26.95920124811703
 20
722.4725820589251
 30
0.0
 11
-26.95920124811703
 21
788.3103043987562
 31
0.0
  0
LINE
  5
4A6
102
{ACAD_REACTORS
330
4D5
330
4D5
102
}
330
56
100
AcDbEntity
  8
0
  6
Continuous
 62
     1
100
AcDbLine
 10
-26.27542901413601
 20
789.2589876968063
 30
0.0
 11
-23.0105179500669
 21
790.3472913848286
 31
0.0
  0
LINE
  5
4A7
102
{ACAD_REACTORS
330
4D5
330
4D5
102
}
330
56
100
AcDbEntity
  8
0
  6
Continuous
 62
     1
100
AcDbLine
 10
-23.64297348210214
 20
792.2446579809289
 30
0.0
 11
-26.90788454616806
 21
791.1563542929066
 31
0.0
  0
LINE
  5
4A8
102
{ACAD_REACTORS
330
4D5
330
4D5
102
}
330
56
100
AcDbEntity
  8
0
  6
Continuous
 62
     1
100
AcDbLine
 10
-20.95920124811703
 20
798.4725820589242
 30
0.0
 11
-16.70920124811703
 21
798.4725820589242
 31
0.0
  0
LINE
  5
4A9
102
{ACAD_REACTORS
330
4D5
330
4D5
102
}
330
56
100
AcDbEntity
  8
0
  6
Continuous
 62
     1
100
AcDbLine
 10
-20.95920124811703
 20
793.1933412789817
 30
0.0
 11
-20.95920124811703
 21
798.4725820589242
 31
0.0
  0
LINE
  5
4AA
102
{ACAD_REACTORS
330
4D5
330
4D5
102
}
330
56
100
AcDbEntity
  8
0
  6
Continuous
 62
     1
100
AcDbLine
 10
-22.95920124811703
 20
798.4725820589242
 30
0.0
 11
-22.95920124811703
 21
793.1933412789817
 31
0.0
  0
LINE
  5
4AB
102
{ACAD_REACTORS
330
4D5
330
4D5
102
}
330
56
100
AcDbEntity
  8
0
  6
Continuous
 62
     1
100
AcDbLine
 10
19.04079875188298
 20
722.4725820589251
 30
0.0
 11
-26.95920124811703
 21
722.4725820589251
 31
0.0
  0
LINE
  5
4AC
330
56
100
AcDbEntity
  8
0
  6
Continuous
 62
     1
100
AcDbLine
 10
21.04079875188298
 20
878.4725820589242
 30
0.0
 11
21.04079875188298
 21
848.4725820589242
 31
0.0
  0
LINE
  5
4AD
330
56
100
AcDbEntity
  8
0
  6
Continuous
 62
     1
100
AcDbLine
 10
21.04079875188298
 20
767.1045480701737
 30
0.0
 11
21.04079875188298
 21
826.3406160476748
 31
0.0
  0
LINE
  5
4AE
330
56
100
AcDbEntity
  8
0
  6
Continuous
 62
     1
100
AcDbLine
 10
21.04079875188299
 20
671.5437010589244
 30
0.0
 11
21.04079875188298
 21
722.4725820589251
 31
0.0
  0
LINE
  5
4AF
330
56
100
AcDbEntity
  8
0
  6
Continuous
 62
     1
100
AcDbLine
 10
-28.95920124811704
 20
671.5437010589244
 30
0.0
 11
-28.95920124811703
 21
722.4725820589251
 31
0.0
  0
ARC
  5
4B0
102
{ACAD_REACTORS
330
4D6
330
4D6
102
}
330
56
100
AcDbEntity
  8
0
  6
Continuous
 62
     1
100
AcDbCircle
 10
16.04079875188298
 20
841.7518228388685
 30
0.0
 40
3.000000000000794
100
AcDbArc
 50
108.4349488229276
 51
180.0
  0
ARC
  5
4B1
102
{ACAD_REACTORS
330
4D6
330
4D6
102
}
330
56
100
AcDbEntity
  8
0
  6
Continuous
 62
     1
100
AcDbCircle
 10
12.79079875188298
 20
824.7225820589242
 30
0.0
 40
2.25
100
AcDbArc
 50
0.0
 51
90.0
  0
ARC
  5
4B2
102
{ACAD_REACTORS
330
4D6
330
4D6
102
}
330
56
100
AcDbEntity
  8
0
  6
Continuous
 62
     1
100
AcDbCircle
 10
12.79079875188298
 20
824.7225820589242
 30
0.0
 40
0.25
100
AcDbArc
 50
-90.0
 51
0.0
  0
ARC
  5
4B3
102
{ACAD_REACTORS
330
4D6
330
4D6
102
}
330
56
100
AcDbEntity
  8
0
  6
Continuous
 62
     1
100
AcDbCircle
 10
12.79079875188298
 20
824.7225820589242
 30
0.0
 40
2.25
100
AcDbArc
 50
-90.0
 51
0.0
  0
ARC
  5
4B4
102
{ACAD_REACTORS
330
4D6
330
4D6
102
}
330
56
100
AcDbEntity
  8
0
  6
Continuous
 62
     1
100
AcDbCircle
 10
13.04079875188298
 20
831.4725820589242
 30
0.0
 40
2.0
100
AcDbArc
 50
-90.0
 51
0.0
  0
ARC
  5
4B5
102
{ACAD_REACTORS
330
4D6
330
4D6
102
}
330
56
100
AcDbEntity
  8
0
  6
Continuous
 62
     1
100
AcDbCircle
 10
8.79079875188298
 20
828.2225820589242
 30
0.0
 40
3.250000000000001
100
AcDbArc
 50
180.0
 51
-90.0
  0
ARC
  5
4B6
102
{ACAD_REACTORS
330
4D6
330
4D6
102
}
330
56
100
AcDbEntity
  8
0
  6
Continuous
 62
     1
100
AcDbCircle
 10
8.79079875188298
 20
828.2225820589242
 30
0.0
 40
1.250000000000001
100
AcDbArc
 50
180.0
 51
-90.0
  0
ARC
  5
4B7
102
{ACAD_REACTORS
330
4D6
330
4D6
102
}
330
56
100
AcDbEntity
  8
0
  6
Continuous
 62
     1
100
AcDbCircle
 10
8.79079875188298
 20
828.2225820589242
 30
0.0
 40
1.25
100
AcDbArc
 50
90.0
 51
180.0
  0
ARC
  5
4B8
102
{ACAD_REACTORS
330
4D6
330
4D6
102
}
330
56
100
AcDbEntity
  8
0
  6
Continuous
 62
     1
100
AcDbCircle
 10
8.79079875188298
 20
828.2225820589242
 30
0.0
 40
3.25
100
AcDbArc
 50
90.0
 51
180.0
  0
ARC
  5
4B9
102
{ACAD_REACTORS
330
4D6
330
4D6
102
}
330
56
100
AcDbEntity
  8
0
  6
Continuous
 62
     1
100
AcDbCircle
 10
12.79079875188298
 20
824.7225820589242
 30
0.0
 40
0.25
100
AcDbArc
 50
0.0
 51
90.0
  0
ARC
  5
4BA
102
{ACAD_REACTORS
330
4D6
330
4D6
102
}
330
56
100
AcDbEntity
  8
0
  6
Continuous
 62
     1
100
AcDbCircle
 10
-26.95920124811703
 20
880.4725820589242
 30
0.0
 40
2.0
100
AcDbArc
 50
90.0
 51
180.0
  0
ARC
  5
4BB
102
{ACAD_REACTORS
330
4D6
330
4D6
102
}
330
56
100
AcDbEntity
  8
0
  6
Continuous
 62
     1
100
AcDbCircle
 10
-24.45920124811703
 20
822.4725820589242
 30
0.0
 40
2.0
100
AcDbArc
 50
90.0
 51
180.0
  0
ARC
  5
4BC
102
{ACAD_REACTORS
330
4D6
330
4D6
102
}
330
56
100
AcDbEntity
  8
0
  6
Continuous
 62
     1
100
AcDbCircle
 10
-26.70920124811703
 20
803.7225820589242
 30
0.0
 40
0.25
100
AcDbArc
 50
180.0
 51
0.0
  0
ARC
  5
4BD
102
{ACAD_REACTORS
330
4D6
330
4D6
102
}
330
56
100
AcDbEntity
  8
0
  6
Continuous
 62
     1
100
AcDbCircle
 10
-26.70920124811703
 20
803.7225820589242
 30
0.0
 40
2.25
100
AcDbArc
 50
180.0
 51
0.0
  0
ARC
  5
4BE
102
{ACAD_REACTORS
330
4D6
330
4D6
102
}
330
56
100
AcDbEntity
  8
0
  6
Continuous
 62
     1
100
AcDbCircle
 10
19.04079875188298
 20
880.4725820589242
 30
0.0
 40
2.0
100
AcDbArc
 50
0.0
 51
90.0
  0
ARC
  5
4BF
102
{ACAD_REACTORS
330
4D6
330
4D6
102
}
330
56
100
AcDbEntity
  8
0
  6
Continuous
 62
     1
100
AcDbCircle
 10
16.04079875188298
 20
841.7518228388685
 30
0.0
 40
1.000000000000315
100
AcDbArc
 50
108.4349488230461
 51
180.0
  0
ARC
  5
4C0
102
{ACAD_REACTORS
330
4D6
330
4D6
102
}
330
56
100
AcDbEntity
  8
0
  6
Continuous
 62
     1
100
AcDbCircle
 10
18.04079875188298
 20
846.6348597190931
 30
0.0
 40
0.9999999999998805
100
AcDbArc
 50
-71.56505117719334
 51
0.0
  0
ARC
  5
4C1
102
{ACAD_REACTORS
330
4D6
330
4D6
102
}
330
56
100
AcDbEntity
  8
0
  6
Continuous
 62
     1
100
AcDbCircle
 10
18.04079875188298
 20
846.6348597190931
 30
0.0
 40
2.999999999998776
100
AcDbArc
 50
-71.56505117707819
 51
0.0
  0
ARC
  5
4C2
102
{ACAD_REACTORS
330
4D5
330
4D5
102
}
330
56
100
AcDbEntity
  8
0
  6
Continuous
 62
     1
100
AcDbCircle
 10
18.79079875188298
 20
831.2225820589242
 30
0.0
 40
0.25
100
AcDbArc
 50
0.0
 51
180.0
  0
ARC
  5
4C3
102
{ACAD_REACTORS
330
4D5
330
4D5
102
}
330
56
100
AcDbEntity
  8
0
  6
Continuous
 62
     1
100
AcDbCircle
 10
18.79079875188298
 20
831.2225820589242
 30
0.0
 40
2.25
100
AcDbArc
 50
0.0
 51
90.0
  0
ARC
  5
4C4
102
{ACAD_REACTORS
330
4D5
330
4D5
102
}
330
56
100
AcDbEntity
  8
0
  6
Continuous
 62
     1
100
AcDbCircle
 10
16.54079875188298
 20
807.4725820589242
 30
0.0
 40
2.0
100
AcDbArc
 50
-90.0
 51
0.0
  0
ARC
  5
4C5
102
{ACAD_REACTORS
330
4D5
330
4D5
102
}
330
56
100
AcDbEntity
  8
0
  6
Continuous
 62
     1
100
AcDbCircle
 10
19.04079875188298
 20
722.4725820589251
 30
0.0
 40
2.0
100
AcDbArc
 50
-90.0
 51
0.0
  0
ARC
  5
4C6
102
{ACAD_REACTORS
330
4D5
330
4D5
102
}
330
56
100
AcDbEntity
  8
0
  6
Continuous
 62
     1
100
AcDbCircle
 10
-16.70920124811703
 20
801.7225820589242
 30
0.0
 40
3.250000000000009
100
AcDbArc
 50
0.0
 51
90.0
  0
ARC
  5
4C7
102
{ACAD_REACTORS
330
4D5
330
4D5
102
}
330
56
100
AcDbEntity
  8
0
  6
Continuous
 62
     1
100
AcDbCircle
 10
-16.70920124811703
 20
801.7225820589242
 30
0.0
 40
1.25
100
AcDbArc
 50
0.0
 51
90.0
  0
ARC
  5
4C8
102
{ACAD_REACTORS
330
4D5
330
4D5
102
}
330
56
100
AcDbEntity
  8
0
  6
Continuous
 62
     1
100
AcDbCircle
 10
-16.70920124811703
 20
801.7225820589242
 30
0.0
 40
1.25
100
AcDbArc
 50
-90.0
 51
0.0
  0
ARC
  5
4C9
102
{ACAD_REACTORS
330
4D5
330
4D5
102
}
330
56
100
AcDbEntity
  8
0
  6
Continuous
 62
     1
100
AcDbCircle
 10
-20.70920124811703
 20
805.2225820589242
 30
0.0
 40
2.25
100
AcDbArc
 50
180.0
 51
-90.0
  0
ARC
  5
4CA
102
{ACAD_REACTORS
330
4D5
330
4D5
102
}
330
56
100
AcDbEntity
  8
0
  6
Continuous
 62
     1
100
AcDbCircle
 10
-20.70920124811703
 20
805.2225820589242
 30
0.0
 40
0.25
100
AcDbArc
 50
180.0
 51
-90.0
  0
ARC
  5
4CB
102
{ACAD_REACTORS
330
4D5
330
4D5
102
}
330
56
100
AcDbEntity
  8
0
  6
Continuous
 62
     1
100
AcDbCircle
 10
-20.70920124811703
 20
805.2225820589242
 30
0.0
 40
0.25
100
AcDbArc
 50
90.0
 51
180.0
  0
ARC
  5
4CC
102
{ACAD_REACTORS
330
4D5
330
4D5
102
}
330
56
100
AcDbEntity
  8
0
  6
Continuous
 62
     1
100
AcDbCircle
 10
-20.70920124811703
 20
805.2225820589242
 30
0.0
 40
2.25
100
AcDbArc
 50
90.0
 51
180.0
  0
ARC
  5
4CD
102
{ACAD_REACTORS
330
4D5
330
4D5
102
}
330
56
100
AcDbEntity
  8
0
  6
Continuous
 62
     1
100
AcDbCircle
 10
-16.70920124811703
 20
801.7225820589242
 30
0.0
 40
3.25
100
AcDbArc
 50
-90.0
 51
0.0
  0
ARC
  5
4CE
102
{ACAD_REACTORS
330
4D5
330
4D5
102
}
330
56
100
AcDbEntity
  8
0
  6
Continuous
 62
     1
100
AcDbCircle
 10
-20.95920124811703
 20
798.4725820589242
 30
0.0
 40
2.0
100
AcDbArc
 50
90.0
 51
180.0
  0
ARC
  5
4CF
102
{ACAD_REACTORS
330
4D5
330
4D5
102
}
330
56
100
AcDbEntity
  8
0
  6
Continuous
 62
     1
100
AcDbCircle
 10
-26.95920124811703
 20
722.4725820589251
 30
0.0
 40
2.0
100
AcDbArc
 50
180.0
 51
-90.0
  0
ARC
  5
4D0
102
{ACAD_REACTORS
330
4D5
330
4D5
102
}
330
56
100
AcDbEntity
  8
0
  6
Continuous
 62
     1
100
AcDbCircle
 10
-23.95920124811703
 20
793.1933412789817
 30
0.0
 40
1.000000000001606
100
AcDbArc
 50
-71.5650511772263
 51
0.0
  0
ARC
  5
4D1
102
{ACAD_REACTORS
330
4D5
330
4D5
102
}
330
56
100
AcDbEntity
  8
0
  6
Continuous
 62
     1
100
AcDbCircle
 10
-25.95920124811703
 20
788.3103043987553
 30
0.0
 40
2.999999999999927
100
AcDbArc
 50
108.4349488229329
 51
179.9999999999826
  0
ARC
  5
4D2
102
{ACAD_REACTORS
330
4D5
330
4D5
102
}
330
56
100
AcDbEntity
  8
0
  6
Continuous
 62
     1
100
AcDbCircle
 10
-23.95920124811703
 20
793.1933412789817
 30
0.0
 40
3.000000000001367
100
AcDbArc
 50
-71.56505117709446
 51
0.0
  0
ARC
  5
4D3
102
{ACAD_REACTORS
330
4D5
330
4D5
102
}
330
56
100
AcDbEntity
  8
0
  6
Continuous
 62
     1
100
AcDbCircle
 10
-25.95920124811703
 20
788.3103043987553
 30
0.0
 40
1.000000000001174
100
AcDbArc
 50
108.4349488230289
 51
179.9999999999479
  0
ARC
  5
4D4
102
{ACAD_REACTORS
330
4D5
330
4D5
102
}
330
56
100
AcDbEntity
  8
0
  6
Continuous
 62
     1
100
AcDbCircle
 10
18.79079875188298
 20
831.2225820589242
 30
0.0
 40
2.250000000000909
100
AcDbArc
 50
90.0
 51
180.0
  0
HATCH
  5
4D5
330
56
100
AcDbEntity
  8
1
  6
Continuous
 62
     3
100
AcDbHatch
 10
0.0
 20
0.0
 30
0.0
210
0.0
220
0.0
230
1.0
  2
_USER
 70
     0
 71
     1
 91
        2
 92
        1
 93
       20
 72
     2
 10
-20.70920124811703
 20
805.2225820589242
 40
2.25
 50
90.0
 51
180.0
 73
     1
 72
     2
 10
-20.70920124811703
 20
805.2225820589242
 40
2.25
 50
180.0
 51
270.0
 73
     1
 72
     1
 10
-20.70920124811703
 20
802.9725820589242
 11
-16.70920124811703
 21
802.9725820589242
 72
     2
 10
-16.70920124811703
 20
801.7225820589242
 40
1.25
 50
270.0
 51
360.0
 73
     0
 72
     2
 10
-16.70920124811703
 20
801.7225820589242
 40
1.25
 50
0.0
 51
90.0
 73
     0
 72
     1
 10
-16.70920124811703
 20
800.4725820589242
 11
-20.95920124811703
 21
800.4725820589242
 72
     2
 10
-20.95920124811703
 20
798.4725820589242
 40
2.0
 50
90.0
 51
180.0
 73
     1
 72
     1
 10
-22.95920124811703
 20
798.4725820589242
 11
-22.95920124811703
 21
793.1933412789817
 72
     2
 10
-23.95920124811703
 20
793.1933412789817
 40
1.000000000001606
 50
0.0
 51
71.5650511772263
 73
     0
 72
     1
 10
-23.64297348210214
 20
792.2446579809289
 11
-26.90788454616806
 21
791.1563542929066
 72
     2
 10
-25.95920124811703
 20
788.3103043987553
 40
2.999999999999927
 50
108.4349488229329
 51
179.9999999999826
 73
     1
 72
     1
 10
-28.95920124811703
 20
788.3103043987562
 11
-28.95920124811703
 21
722.4725820589251
 72
     2
 10
-26.95920124811703
 20
722.4725820589251
 40
2.0
 50
180.0
 51
270.0
 73
     1
 72
     1
 10
-26.95920124811703
 20
720.4725820589251
 11
19.04079875188298
 21
720.4725820589251
 72
     2
 10
19.04079875188298
 20
722.4725820589251
 40
2.0
 50
270.0
 51
360.0
 73
     1
 72
     1
 10
21.04079875188298
 20
722.4725820589251
 11
21.04079875188298
 21
831.2225820589242
 72
     2
 10
18.79079875188298
 20
831.2225820589242
 40
2.25
 50
0.0
 51
90.0
 73
     1
 72
     2
 10
18.79079875188298
 20
831.2225820589242
 40
2.250000000000909
 50
90.0
 51
180.0
 73
     1
 72
     1
 10
16.54079875188298
 20
831.2225820589242
 11
16.54079875188298
 21
807.4725820589242
 72
     1
 10
16.54079875188298
 20
807.4725820589242
 11
-20.70920124811703
 21
807.4725820589242
 97
       20
330
4CC
330
4C9
330
49F
330
4C7
330
4C8
330
4A2
330
4CE
330
4AA
330
4D0
330
4A7
330
4D1
330
4A4
330
4CF
330
4A3
330
4C5
330
49D
330
4C3
330
4D4
330
49C
330
4A0
 92
       16
 93
       17
 72
     1
 10
-26.27542901413601
 20
789.2589876968063
 11
-23.0105179500669
 21
790.3472913848286
 72
     2
 10
-23.95920124811703
 20
793.1933412789817
 40
3.000000000001367
 50
288.4349488229055
 51
360.0
 73
     1
 72
     1
 10
-20.95920124811703
 20
793.1933412789817
 11
-20.95920124811703
 21
798.4725820589242
 72
     1
 10
-20.95920124811703
 20
798.4725820589242
 11
-16.70920124811703
 21
798.4725820589242
 72
     2
 10
-16.70920124811703
 20
801.7225820589242
 40
3.25
 50
270.0
 51
360.0
 73
     1
 72
     2
 10
-16.70920124811703
 20
801.7225820589242
 40
3.250000000000009
 50
0.0
 51
90.0
 73
     1
 72
     1
 10
-16.70920124811703
 20
804.9725820589242
 11
-20.70920124811703
 21
804.9725820589242
 72
     2
 10
-20.70920124811703
 20
805.2225820589242
 40
0.25
 50
90.0
 51
180.0
 73
     0
 72
     2
 10
-20.70920124811703
 20
805.2225820589242
 40
0.25
 50
180.0
 51
270.0
 73
     0
 72
     1
 10
-20.70920124811703
 20
805.4725820589242
 11
16.54079875188298
 21
805.4725820589242
 72
     2
 10
16.54079875188298
 20
807.4725820589242
 40
2.0
 50
270.0
 51
360.0
 73
     1
 72
     1
 10
18.54079875188298
 20
807.4725820589242
 11
18.54079875188298
 21
831.2225820589242
 72
     2
 10
18.79079875188298
 20
831.2225820589242
 40
0.25
 50
180.0
 51
360.0
 73
     0
 72
     1
 10
19.04079875188298
 20
831.2225820589242
 11
19.04079875188298
 21
722.4725820589251
 72
     1
 10
19.04079875188298
 20
722.4725820589251
 11
-26.95920124811703
 21
722.4725820589251
 72
     1
 10
-26.95920124811703
 20
722.4725820589251
 11
-26.95920124811703
 21
788.3103043987562
 72
     2
 10
-25.95920124811703
 20
788.3103043987553
 40
1.000000000001174
 50
180.0000000000521
 51
251.5650511769711
 73
     0
 97
       17
330
4A5
330
4AB
330
49B
330
4C2
330
49A
330
4C4
330
4A1
330
4CB
330
4CA
330
49E
330
4C6
330
4CD
330
4A8
330
4A9
330
4D2
330
4A6
330
4D3
 75
     1
 76
     0
 52
-45.0
 41
2.8
 77
     0
 78
     1
 53
-45.0
 43
0.0
 44
0.0
 45
1.979898987322333
 46
1.979898987322333
 79
     0
 98
        1
 10
0.0
 20
0.0
  0
HATCH
  5
4D6
330
56
100
AcDbEntity
  8
0
  6
Continuous
 62
     3
100
AcDbHatch
 10
0.0
 20
0.0
 30
0.0
210
0.0
220
0.0
230
1.0
  2
_USER
 70
     0
 71
     1
 91
        2
 92
        1
 93
       20
 72
     1
 10
-28.95920124811703
 20
880.4725820589242
 11
-28.95920124811703
 21
803.7225820589242
 72
     2
 10
-26.70920124811703
 20
803.7225820589242
 40
2.25
 50
180.0
 51
360.0
 73
     1
 72
     1
 10
-24.45920124811703
 20
803.7225820589242
 11
-24.45920124811703
 21
822.4725820589242
 72
     1
 10
-24.45920124811703
 20
822.4725820589242
 11
12.79079875188298
 21
822.4725820589242
 72
     2
 10
12.79079875188298
 20
824.7225820589242
 40
2.25
 50
270.0
 51
360.0
 73
     1
 72
     2
 10
12.79079875188298
 20
824.7225820589242
 40
2.25
 50
0.0
 51
90.0
 73
     1
 72
     1
 10
12.79079875188298
 20
826.9725820589242
 11
8.790798751882981
 21
826.9725820589242
 72
     2
 10
8.790798751882981
 20
828.2225820589242
 40
1.250000000000001
 50
90.0
 51
180.0
 73
     0
 72
     2
 10
8.790798751882981
 20
828.2225820589242
 40
1.25
 50
180.0
 51
270.0
 73
     0
 72
     1
 10
8.790798751882981
 20
829.4725820589242
 11
13.04079875188298
 21
829.4725820589242
 72
     2
 10
13.04079875188298
 20
831.4725820589242
 40
2.0
 50
270.0
 51
360.0
 73
     1
 72
     1
 10
15.04079875188298
 20
831.4725820589242
 11
15.04079875188298
 21
841.7518228388685
 72
     2
 10
16.04079875188298
 20
841.7518228388685
 40
1.000000000000315
 50
180.0
 51
251.5650511769539
 73
     0
 72
     1
 10
15.72457098586399
 20
842.7005061369186
 11
18.9894820499331
 21
843.7888098249427
 72
     2
 10
18.04079875188298
 20
846.6348597190931
 40
2.999999999998776
 50
288.4349488229218
 51
360.0
 73
     1
 72
     1
 10
21.04079875188298
 20
846.6348597190931
 11
21.04079875188298
 21
878.4725820589242
 72
     1
 10
21.04079875188298
 20
878.4725820589242
 11
21.04079875188298
 21
880.4725820589242
 72
     2
 10
19.04079875188298
 20
880.4725820589242
 40
2.0
 50
0.0
 51
90.0
 73
     1
 72
     1
 10
19.04079875188298
 20
882.4725820589242
 11
-26.95920124811703
 21
882.4725820589242
 72
     2
 10
-26.95920124811703
 20
880.4725820589242
 40
2.0
 50
90.0
 51
180.0
 73
     1
 97
       20
330
493
330
4BE
330
499
330
495
330
4C1
330
497
330
4BF
330
487
330
4B4
330
48B
330
4B7
330
4B6
330
48C
330
4B1
330
4B3
330
48E
330
492
330
4BD
330
494
330
4BA
 92
       16
 93
       17
 72
     1
 10
19.04079875188298
 20
880.4725820589242
 11
-26.95920124811703
 21
880.4725820589242
 72
     1
 10
-26.95920124811703
 20
880.4725820589242
 11
-26.95920124811703
 21
803.7225820589242
 72
     2
 10
-26.70920124811703
 20
803.7225820589242
 40
0.25
 50
180.0
 51
360.0
 73
     1
 72
     1
 10
-26.45920124811703
 20
803.7225820589242
 11
-26.45920124811703
 21
822.4725820589242
 72
     2
 10
-24.45920124811703
 20
822.4725820589242
 40
2.0
 50
180.0
 51
270.0
 73
     0
 72
     1
 10
-24.45920124811703
 20
824.4725820589242
 11
12.79079875188298
 21
824.4725820589242
 72
     2
 10
12.79079875188298
 20
824.7225820589242
 40
0.25
 50
270.0
 51
360.0
 73
     1
 72
     2
 10
12.79079875188298
 20
824.7225820589242
 40
0.25
 50
0.0
 51
90.0
 73
     1
 72
     1
 10
12.79079875188298
 20
824.9725820589242
 11
8.790798751882981
 21
824.9725820589242
 72
     2
 10
8.790798751882981
 20
828.2225820589242
 40
3.250000000000001
 50
90.0
 51
180.0
 73
     0
 72
     2
 10
8.790798751882981
 20
828.2225820589242
 40
3.25
 50
180.0
 51
270.0
 73
     0
 72
     1
 10
8.790798751882981
 20
831.4725820589242
 11
13.04079875188298
 21
831.4725820589242
 72
     1
 10
13.04079875188298
 20
831.4725820589242
 11
13.04079875188298
 21
841.7518228388685
 72
     2
 10
16.04079875188298
 20
841.7518228388685
 40
3.000000000000794
 50
180.0
 51
251.5650511770724
 73
     0
 72
     1
 10
15.09211545383194
 20
844.5978727330207
 11
18.35702651789787
 21
845.6861764210421
 72
     2
 10
18.04079875188298
 20
846.6348597190931
 40
0.9999999999998805
 50
288.4349488228066
 51
360.0
 73
     1
 72
     1
 10
19.04079875188298
 20
846.6348597190931
 11
19.04079875188298
 21
880.4725820589242
 97
       17
330
4C0
330
496
330
4B0
330
48F
330
489
330
4B8
330
4B5
330
48A
330
4B9
330
4B2
330
48D
330
4BB
330
491
330
4BC
330
490
330
488
330
498
 75
     1
 76
     0
 52
45.0
 41
2.5
 77
     0
 78
     1
 53
45.0
 43
0.0
 44
0.0
 45
-1.767766952966369
 46
1.767766952966369
 79
     0
 98
        1
 10
0.0
 20
0.0
  0
ENDBLK
  5
58
330
56
100
AcDbEntity
  8
0
100
AcDbBlockEnd
  0
BLOCK
  5
2B1
330
2AA
100
AcDbEntity
  8
0
100
AcDbBlockBegin
  2
*D12
 70
     1
 71
     0
 10
0.0
 20
0.0
 30
0.0
  3
*D12
  1

  0
LINE
  5
2AB
330
2AA
100
AcDbEntity
  8
1
  6
Continuous
 62
     3
100
AcDbLine
 10
-3.55914793909558
 20
618.2500320005404
 30
0.0
 11
-3.55914793909558
 21
646.2500320005404
 31
0.0
  0
LINE
  5
2AC
330
2AA
100
AcDbEntity
  8
1
  6
Continuous
 62
     3
100
AcDbLine
 10
-11.59720365159494
 20
618.2500320005404
 30
0.0
 11
-1.55914793909558
 21
618.2500320005404
 31
0.0
  0
LINE
  5
2AD
330
2AA
100
AcDbEntity
  8
1
  6
Continuous
 62
     3
100
AcDbLine
 10
-38.97104193204693
 20
646.2500320005404
 30
0.0
 11
-1.55914793909558
 21
646.2500320005404
 31
0.0
  0
SOLID
  5
2AE
330
2AA
100
AcDbEntity
  8
1
 62
     3
100
AcDbTrace
 10
-4.08575792944516
 20
622.2500320005404
 30
0.0
 11
-3.03253794874599
 21
622.2500320005404
 31
0.0
 12
-3.55914793909558
 22
618.2500320005404
 32
0.0
 13
-3.55914793909558
 23
618.2500320005404
 33
0.0
  0
SOLID
  5
2AF
330
2AA
100
AcDbEntity
  8
1
 62
     3
100
AcDbTrace
 10
-3.03253794874599
 20
642.2500320005404
 30
0.0
 11
-4.08575792944516
 21
642.2500320005404
 31
0.0
 12
-3.55914793909558
 22
646.2500320005404
 32
0.0
 13
-3.55914793909558
 23
646.2500320005404
 33
0.0
  0
MTEXT
  5
2B0
330
2AA
100
AcDbEntity
  8
1
 62
     1
100
AcDbMText
 10
-5.55914793909557
 20
630.7504225088425
 30
0.0
 40
4.0
 41
0.0
 71
     7
 72
     1
  1
X
  7
CONVERTER_12
 11
0.0
 21
1.0
 31
0.0
 73
     1
 44
0.60024009603842
  0
ENDBLK
  5
2B2
330
2AA
100
AcDbEntity
  8
0
100
AcDbBlockEnd
  0
BLOCK
  5
42F
330
428
100
AcDbEntity
  8
0
100
AcDbBlockBegin
  2
*D13
 70
     1
 71
     0
 10
0.0
 20
0.0
 30
0.0
  3
*D13
  1

  0
LINE
  5
429
330
428
100
AcDbEntity
  8
1
  6
Continuous
 62
     3
100
AcDbLine
 10
608.0156303759795
 20
1341.0087092768
 30
0.0
 11
758.0156303759793
 21
1341.0087092768
 31
0.0
  0
LINE
  5
42A
330
428
100
AcDbEntity
  8
1
  6
Continuous
 62
     3
100
AcDbLine
 10
608.0156303759795
 20
1361.541298237672
 30
0.0
 11
608.0156303759795
 21
1337.0087092768
 31
0.0
  0
LINE
  5
42B
330
428
100
AcDbEntity
  8
1
  6
Continuous
 62
     3
100
AcDbLine
 10
758.0156303759793
 20
1375.341594237672
 30
0.0
 11
758.0156303759793
 21
1337.0087092768
 31
0.0
  0
SOLID
  5
42C
330
428
100
AcDbEntity
  8
1
 62
     3
100
AcDbTrace
 10
615.0156303759795
 20
1341.930276759912
 30
0.0
 11
615.0156303759795
 21
1340.087141793688
 31
0.0
 12
608.0156303759795
 22
1341.0087092768
 32
0.0
 13
608.0156303759795
 23
1341.0087092768
 33
0.0
  0
SOLID
  5
42D
330
428
100
AcDbEntity
  8
1
 62
     3
100
AcDbTrace
 10
751.0156303759793
 20
1340.087141793688
 30
0.0
 11
751.0156303759793
 21
1341.930276759912
 31
0.0
 12
758.0156303759793
 22
1341.0087092768
 32
0.0
 13
758.0156303759793
 23
1341.0087092768
 33
0.0
  0
MTEXT
  5
42E
330
428
100
AcDbEntity
  8
1
 62
     4
100
AcDbMText
 10
670.214245076008
 20
1345.0087092768
 30
0.0
 40
7.0
 41
0.0
 71
     7
 72
     1
  1
\C4;150\C3;\H4.2;±1
  7
CONVERTER_12
 11
0.9999999999970621
 21
2.424068405545307E-6
 31
0.0
 73
     1
 44
0.60024009603842
  0
ENDBLK
  5
430
330
428
100
AcDbEntity
  8
0
100
AcDbBlockEnd
  0
BLOCK
  5
43A
330
433
100
AcDbEntity
  8
0
100
AcDbBlockBegin
  2
*D14
 70
     1
 71
     0
 10
0.0
 20
0.0
 30
0.0
  3
*D14
  1

  0
LINE
  5
434
330
433
100
AcDbEntity
  8
1
  6
Continuous
 62
     3
100
AcDbLine
 10
608.0156303759795
 20
1341.0087092768
 30
0.0
 11
568.0156303759795
 21
1341.0087092768
 31
0.0
  0
LINE
  5
435
330
433
100
AcDbEntity
  8
1
  6
Continuous
 62
     3
100
AcDbLine
 10
608.0156303759795
 20
1361.541298237672
 30
0.0
 11
608.0156303759795
 21
1337.0087092768
 31
0.0
  0
LINE
  5
436
330
433
100
AcDbEntity
  8
1
  6
Continuous
 62
     3
100
AcDbLine
 10
568.0156303759795
 20
1361.541298237672
 30
0.0
 11
568.0156303759795
 21
1337.0087092768
 31
0.0
  0
SOLID
  5
437
330
433
100
AcDbEntity
  8
1
 62
     3
100
AcDbTrace
 10
601.0156303759795
 20
1340.087141793688
 30
0.0
 11
601.0156303759795
 21
1341.930276759912
 31
0.0
 12
608.0156303759795
 22
1341.0087092768
 32
0.0
 13
608.0156303759795
 23
1341.0087092768
 33
0.0
  0
SOLID
  5
438
330
433
100
AcDbEntity
  8
1
 62
     3
100
AcDbTrace
 10
575.0156303759795
 20
1341.930276759912
 30
0.0
 11
575.0156303759795
 21
1340.087141793688
 31
0.0
 12
568.0156303759795
 22
1341.0087092768
 32
0.0
 13
568.0156303759795
 23
1341.0087092768
 33
0.0
  0
MTEXT
  5
439
330
433
100
AcDbEntity
  8
1
 62
     4
100
AcDbMText
 10
575.419421128231
 20
1345.0087092768
 30
0.0
 40
7.0
 41
0.0
 71
     7
 72
     1
  1
\C4;40\C3;\H4.2;±0.2
  7
CONVERTER_12
 11
0.9999999999970621
 21
2.424068405545307E-6
 31
0.0
 73
     1
 44
0.60024009603842
  0
ENDBLK
  5
43B
330
433
100
AcDbEntity
  8
0
100
AcDbBlockEnd
  0
BLOCK
  5
445
330
43E
100
AcDbEntity
  8
0
100
AcDbBlockBegin
  2
*D15
 70
     1
 71
     0
 10
0.0
 20
0.0
 30
0.0
  3
*D15
  1

  0
LINE
  5
43F
330
43E
100
AcDbEntity
  8
1
  6
Continuous
 62
     3
100
AcDbLine
 10
346.8087952736232
 20
1594.4685450719
 30
0.0
 11
196.8087952736235
 21
1594.4685450719
 31
0.0
  0
LINE
  5
440
330
43E
100
AcDbEntity
  8
1
  6
Continuous
 62
     3
100
AcDbLine
 10
346.8087952736232
 20
1617.345358117848
 30
0.0
 11
346.8087952736232
 21
1590.4685450719
 31
0.0
  0
LINE
  5
441
330
43E
100
AcDbEntity
  8
1
  6
Continuous
 62
     3
100
AcDbLine
 10
196.8087952736235
 20
1631.145654117848
 30
0.0
 11
196.8087952736235
 21
1590.4685450719
 31
0.0
  0
SOLID
  5
442
330
43E
100
AcDbEntity
  8
1
 62
     3
100
AcDbTrace
 10
339.8087952736232
 20
1593.546977588788
 30
0.0
 11
339.8087952736232
 21
1595.390112555012
 31
0.0
 12
346.8087952736232
 22
1594.4685450719
 32
0.0
 13
346.8087952736232
 23
1594.4685450719
 33
0.0
  0
SOLID
  5
443
330
43E
100
AcDbEntity
  8
1
 62
     3
100
AcDbTrace
 10
203.8087952736235
 20
1595.390112555012
 30
0.0
 11
203.8087952736235
 21
1593.546977588788
 31
0.0
 12
196.8087952736235
 22
1594.4685450719
 32
0.0
 13
196.8087952736235
 23
1594.4685450719
 33
0.0
  0
MTEXT
  5
444
330
43E
100
AcDbEntity
  8
1
 62
     4
100
AcDbMText
 10
263.790754733907
 20
1598.4685450719
 30
0.0
 40
7.0
 41
0.0
 71
     7
 72
     1
  1
\C4;150\C3;\H4.2;±1
  7
CONVERTER_12
 11
0.9999999999970621
 21
2.424068405545307E-6
 31
0.0
 73
     1
 44
0.60024009603842
  0
ENDBLK
  5
446
330
43E
100
AcDbEntity
  8
0
100
AcDbBlockEnd
  0
BLOCK
  5
450
330
449
100
AcDbEntity
  8
0
100
AcDbBlockBegin
  2
*D16
 70
     1
 71
     0
 10
0.0
 20
0.0
 30
0.0
  3
*D16
  1

  0
LINE
  5
44A
330
449
100
AcDbEntity
  8
1
  6
Continuous
 62
     3
100
AcDbLine
 10
346.8087952736232
 20
1594.4685450719
 30
0.0
 11
386.8087952736232
 21
1594.4685450719
 31
0.0
  0
LINE
  5
44B
330
449
100
AcDbEntity
  8
1
  6
Continuous
 62
     3
100
AcDbLine
 10
346.8087952736232
 20
1617.345358117848
 30
0.0
 11
346.8087952736232
 21
1590.4685450719
 31
0.0
  0
LINE
  5
44C
330
449
100
AcDbEntity
  8
1
  6
Continuous
 62
     3
100
AcDbLine
 10
386.8087952736232
 20
1617.345358117848
 30
0.0
 11
386.8087952736232
 21
1590.4685450719
 31
0.0
  0
SOLID
  5
44D
330
449
100
AcDbEntity
  8
1
 62
     3
100
AcDbTrace
 10
353.8087952736232
 20
1595.390112555012
 30
0.0
 11
353.8087952736232
 21
1593.546977588788
 31
0.0
 12
346.8087952736232
 22
1594.4685450719
 32
0.0
 13
346.8087952736232
 23
1594.4685450719
 33
0.0
  0
SOLID
  5
44E
330
449
100
AcDbEntity
  8
1
 62
     3
100
AcDbTrace
 10
379.8087952736232
 20
1593.546977588788
 30
0.0
 11
379.8087952736232
 21
1595.390112555012
 31
0.0
 12
386.8087952736232
 22
1594.4685450719
 32
0.0
 13
386.8087952736232
 23
1594.4685450719
 33
0.0
  0
MTEXT
  5
44F
330
449
100
AcDbEntity
  8
1
 62
     4
100
AcDbMText
 10
354.367527871611
 20
1598.4685450719
 30
0.0
 40
7.0
 41
0.0
 71
     7
 72
     1
  1
\C4;40\C3;\H4.2;±0.2
  7
CONVERTER_12
 11
0.9999999999970621
 21
2.424068405545307E-6
 31
0.0
 73
     1
 44
0.60024009603842
  0
ENDBLK
  5
451
330
449
100
AcDbEntity
  8
0
100
AcDbBlockEnd
  0
BLOCK
  5
45B
330
454
100
AcDbEntity
  8
0
100
AcDbBlockBegin
  2
*D17
 70
     1
 71
     0
 10
0.0
 20
0.0
 30
0.0
  3
*D17
  1

  0
LINE
  5
455
330
454
100
AcDbEntity
  8
1
  6
Continuous
 62
     3
100
AcDbLine
 10
758.0156303759793
 20
1525.668052039264
 30
0.0
 11
618.0156303759793
 21
1525.668052039264
 31
0.0
  0
LINE
  5
456
330
454
100
AcDbEntity
  8
1
  6
Continuous
 62
     3
100
AcDbLine
 10
618.0156303759793
 20
1459.541298237672
 30
0.0
 11
618.0156303759793
 21
1529.668052039264
 31
0.0
  0
LINE
  5
457
330
454
100
AcDbEntity
  8
1
  6
Continuous
 62
     3
100
AcDbLine
 10
758.0156303759793
 20
1375.341594237672
 30
0.0
 11
758.0156303759793
 21
1529.668052039264
 31
0.0
  0
SOLID
  5
458
330
454
100
AcDbEntity
  8
1
 62
     3
100
AcDbTrace
 10
751.0156303759793
 20
1524.746484556152
 30
0.0
 11
751.0156303759793
 21
1526.589619522376
 31
0.0
 12
758.0156303759793
 22
1525.668052039264
 32
0.0
 13
758.0156303759793
 23
1525.668052039264
 33
0.0
  0
SOLID
  5
459
330
454
100
AcDbEntity
  8
1
 62
     3
100
AcDbTrace
 10
625.0156303759793
 20
1526.589619522376
 30
0.0
 11
625.0156303759793
 21
1524.746484556152
 31
0.0
 12
618.0156303759793
 22
1525.668052039264
 32
0.0
 13
618.0156303759793
 23
1525.668052039264
 33
0.0
  0
MTEXT
  5
45A
330
454
100
AcDbEntity
  8
1
 62
     4
100
AcDbMText
 10
678.5506263330137
 20
1529.668052039264
 30
0.0
 40
7.0
 41
0.0
 71
     7
 72
     1
  1
\C4;140\C3;\H4.2;±1
  7
CONVERTER_12
 11
0.9999999999970621
 21
2.424068405545307E-6
 31
0.0
 73
     1
 44
0.60024009603842
  0
ENDBLK
  5
45C
330
454
100
AcDbEntity
  8
0
100
AcDbBlockEnd
  0
BLOCK
  5
466
330
45F
100
AcDbEntity
  8
0
100
AcDbBlockBegin
  2
*D18
 70
     1
 71
     0
 10
0.0
 20
0.0
 30
0.0
  3
*D18
  1

  0
LINE
  5
460
330
45F
100
AcDbEntity
  8
1
  6
Continuous
 62
     3
100
AcDbLine
 10
618.0156303759793
 20
1525.668052039264
 30
0.0
 11
189.5162303759794
 21
1525.668052039264
 31
0.0
  0
LINE
  5
461
330
45F
100
AcDbEntity
  8
1
  6
Continuous
 62
     3
100
AcDbLine
 10
189.5162303759794
 20
1459.541298237672
 30
0.0
 11
189.5162303759794
 21
1529.668052039264
 31
0.0
  0
LINE
  5
462
330
45F
100
AcDbEntity
  8
1
  6
Continuous
 62
     3
100
AcDbLine
 10
618.0156303759793
 20
1459.541298237672
 30
0.0
 11
618.0156303759793
 21
1529.668052039264
 31
0.0
  0
SOLID
  5
463
330
45F
100
AcDbEntity
  8
1
 62
     3
100
AcDbTrace
 10
611.0156303759793
 20
1524.746484556152
 30
0.0
 11
611.0156303759793
 21
1526.589619522376
 31
0.0
 12
618.0156303759793
 22
1525.668052039264
 32
0.0
 13
618.0156303759793
 23
1525.668052039264
 33
0.0
  0
SOLID
  5
464
330
45F
100
AcDbEntity
  8
1
 62
     3
100
AcDbTrace
 10
196.5162303759794
 20
1526.589619522376
 30
0.0
 11
196.5162303759794
 21
1524.746484556152
 31
0.0
 12
189.5162303759794
 22
1525.668052039264
 32
0.0
 13
189.5162303759794
 23
1525.668052039264
 33
0.0
  0
MTEXT
  5
465
330
45F
100
AcDbEntity
  8
1
 62
     4
100
AcDbMText
 10
359.3657905244509
 20
1529.668052039264
 30
0.0
 40
7.0
 41
0.0
 71
     7
 72
     1
  1
\C4;428.5\C3;\H4.2;±0.2
  7
CONVERTER_12
 11
0.9999999999970621
 21
2.424068405545307E-6
 31
0.0
 73
     1
 44
0.60024009603842
  0
ENDBLK
  5
467
330
45F
100
AcDbEntity
  8
0
100
AcDbBlockEnd
  0
BLOCK
  5
471
330
46A
100
AcDbEntity
  8
0
100
AcDbBlockBegin
  2
*D19
 70
     1
 71
     0
 10
0.0
 20
0.0
 30
0.0
  3
*D19
  1

  0
LINE
  5
46B
330
46A
100
AcDbEntity
  8
1
  6
Continuous
 62
     3
100
AcDbLine
 10
196.8087952736235
 20
1781.47211191944
 30
0.0
 11
336.8087952736235
 21
1781.47211191944
 31
0.0
  0
LINE
  5
46C
330
46A
100
AcDbEntity
  8
1
  6
Continuous
 62
     3
100
AcDbLine
 10
336.8087952736235
 20
1715.345358117848
 30
0.0
 11
336.8087952736235
 21
1785.47211191944
 31
0.0
  0
LINE
  5
46D
330
46A
100
AcDbEntity
  8
1
  6
Continuous
 62
     3
100
AcDbLine
 10
196.8087952736235
 20
1631.145654117848
 30
0.0
 11
196.8087952736235
 21
1785.47211191944
 31
0.0
  0
SOLID
  5
46E
330
46A
100
AcDbEntity
  8
1
 62
     3
100
AcDbTrace
 10
203.8087952736235
 20
1782.393679402552
 30
0.0
 11
203.8087952736235
 21
1780.550544436328
 31
0.0
 12
196.8087952736235
 22
1781.47211191944
 32
0.0
 13
196.8087952736235
 23
1781.47211191944
 33
0.0
  0
SOLID
  5
46F
330
46A
100
AcDbEntity
  8
1
 62
     3
100
AcDbTrace
 10
329.8087952736235
 20
1780.550544436328
 30
0.0
 11
329.8087952736235
 21
1782.393679402552
 31
0.0
 12
336.8087952736235
 22
1781.47211191944
 32
0.0
 13
336.8087952736235
 23
1781.47211191944
 33
0.0
  0
MTEXT
  5
470
330
46A
100
AcDbEntity
  8
1
 62
     4
100
AcDbMText
 10
253.873799316589
 20
1785.47211191944
 30
0.0
 40
7.0
 41
0.0
 71
     7
 72
     1
  1
\C4;140\C3;\H4.2;±1
  7
CONVERTER_12
 11
0.9999999999970621
 21
2.424068405545307E-6
 31
0.0
 73
     1
 44
0.60024009603842
  0
ENDBLK
  5
472
330
46A
100
AcDbEntity
  8
0
100
AcDbBlockEnd
  0
BLOCK
  5
47C
330
475
100
AcDbEntity
  8
0
100
AcDbBlockBegin
  2
*D20
 70
     1
 71
     0
 10
0.0
 20
0.0
 30
0.0
  3
*D20
  1

  0
LINE
  5
476
330
475
100
AcDbEntity
  8
1
  6
Continuous
 62
     3
100
AcDbLine
 10
336.8087952736235
 20
1781.47211191944
 30
0.0
 11
765.3081952736234
 21
1781.47211191944
 31
0.0
  0
LINE
  5
477
330
475
100
AcDbEntity
  8
1
  6
Continuous
 62
     3
100
AcDbLine
 10
765.3081952736234
 20
1715.345358117848
 30
0.0
 11
765.3081952736234
 21
1785.47211191944
 31
0.0
  0
LINE
  5
478
330
475
100
AcDbEntity
  8
1
  6
Continuous
 62
     3
100
AcDbLine
 10
336.8087952736235
 20
1715.345358117848
 30
0.0
 11
336.8087952736235
 21
1785.47211191944
 31
0.0
  0
SOLID
  5
479
330
475
100
AcDbEntity
  8
1
 62
     3
100
AcDbTrace
 10
343.8087952736235
 20
1782.393679402552
 30
0.0
 11
343.8087952736235
 21
1780.550544436328
 31
0.0
 12
336.8087952736235
 22
1781.47211191944
 32
0.0
 13
336.8087952736235
 23
1781.47211191944
 33
0.0
  0
SOLID
  5
47A
330
475
100
AcDbEntity
  8
1
 62
     3
100
AcDbTrace
 10
758.3081952736234
 20
1780.550544436328
 30
0.0
 11
758.3081952736234
 21
1782.393679402552
 31
0.0
 12
765.3081952736234
 22
1781.47211191944
 32
0.0
 13
765.3081952736234
 23
1781.47211191944
 33
0.0
  0
MTEXT
  5
47B
330
475
100
AcDbEntity
  8
1
 62
     4
100
AcDbMText
 10
555.978635125152
 20
1785.47211191944
 30
0.0
 40
7.0
 41
0.0
 71
     7
 72
     1
  1
\C4;428.5\C3;\H4.2;±0.2
  7
CONVERTER_12
 11
0.9999999999970621
 21
2.424068405545307E-6
 31
0.0
 73
     1
 44
0.60024009603842
  0
ENDBLK
  5
47D
330
475
100
AcDbEntity
  8
0
100
AcDbBlockEnd
  0
BLOCK
  5
55D
330
556
100
AcDbEntity
  8
0
100
AcDbBlockBegin
  2
*D21
 70
     1
 71
     0
 10
0.0
 20
0.0
 30
0.0
  3
*D21
  1

  0
LINE
  5
557
330
556
100
AcDbEntity
  8
1
  6
Continuous
 62
     3
100
AcDbLine
 10
31.8342379646697
 20
729.4725820589242
 30
0.0
 11
31.8342379646697
 21
751.4725820589242
 31
0.0
  0
LINE
  5
558
330
556
100
AcDbEntity
  8
1
  6
Continuous
 62
     3
100
AcDbLine
 10
-11.75744575559888
 20
751.4725820589242
 30
0.0
 11
33.8342379646697
 21
751.4725820589242
 31
0.0
  0
LINE
  5
559
330
556
100
AcDbEntity
  8
1
  6
Continuous
 62
     3
100
AcDbLine
 10
-11.75744575559888
 20
729.4725820589242
 30
0.0
 11
33.8342379646697
 21
729.4725820589242
 31
0.0
  0
SOLID
  5
55A
330
556
100
AcDbEntity
  8
1
 62
     3
100
AcDbTrace
 10
31.37345422311381
 20
732.9725820589242
 30
0.0
 11
32.29502170622558
 21
732.9725820589242
 31
0.0
 12
31.8342379646697
 22
729.4725820589242
 32
0.0
 13
31.8342379646697
 23
729.4725820589242
 33
0.0
  0
SOLID
  5
55B
330
556
100
AcDbEntity
  8
1
 62
     3
100
AcDbTrace
 10
32.29502170622558
 20
747.9725820589242
 30
0.0
 11
31.37345422311381
 21
747.9725820589242
 31
0.0
 12
31.8342379646697
 22
751.4725820589242
 32
0.0
 13
31.8342379646697
 23
751.4725820589242
 33
0.0
  0
MTEXT
  5
55C
330
556
100
AcDbEntity
  8
1
 62
     4
100
AcDbMText
 10
29.8342379646697
 20
738.1437557803544
 30
0.0
 40
3.5
 41
0.0
 71
     7
 72
     1
  1
22
  7
CONVERTER_12
 11
0.0
 21
1.0
 31
0.0
 73
     1
 44
0.60024009603842
  0
ENDBLK
  5
55E
330
556
100
AcDbEntity
  8
0
100
AcDbBlockEnd
  0
BLOCK
  5
568
330
561
100
AcDbEntity
  8
0
100
AcDbBlockBegin
  2
*D22
 70
     1
 71
     0
 10
0.0
 20
0.0
 30
0.0
  3
*D22
  1

  0
LINE
  5
562
330
561
100
AcDbEntity
  8
1
  6
Continuous
 62
     3
100
AcDbLine
 10
41.62164461807075
 20
729.4725820589242
 30
0.0
 11
41.62164461807075
 21
773.4725820589243
 31
0.0
  0
LINE
  5
563
330
561
100
AcDbEntity
  8
1
  6
Continuous
 62
     3
100
AcDbLine
 10
-11.75744575559887
 20
773.4725820589243
 30
0.0
 11
43.62164461807075
 21
773.4725820589243
 31
0.0
  0
LINE
  5
564
330
561
100
AcDbEntity
  8
1
  6
Continuous
 62
     3
100
AcDbLine
 10
-11.75744575559887
 20
729.4725820589242
 30
0.0
 11
43.62164461807075
 21
729.4725820589242
 31
0.0
  0
SOLID
  5
565
330
561
100
AcDbEntity
  8
1
 62
     3
100
AcDbTrace
 10
41.16086087651487
 20
732.9725820589242
 30
0.0
 11
42.08242835962664
 21
732.9725820589242
 31
0.0
 12
41.62164461807075
 22
729.4725820589242
 32
0.0
 13
41.62164461807075
 23
729.4725820589242
 33
0.0
  0
SOLID
  5
566
330
561
100
AcDbEntity
  8
1
 62
     3
100
AcDbTrace
 10
42.08242835962664
 20
769.9725820589243
 30
0.0
 11
41.16086087651487
 21
769.9725820589243
 31
0.0
 12
41.62164461807075
 22
773.4725820589243
 32
0.0
 13
41.62164461807075
 23
773.4725820589243
 33
0.0
  0
MTEXT
  5
567
330
561
100
AcDbEntity
  8
1
 62
     4
100
AcDbMText
 10
39.62164461807075
 20
746.3691504419994
 30
0.0
 40
3.5
 41
0.0
 71
     7
 72
     1
  1
\C4;44\C3;\H2.1;±0.1
  7
CONVERTER_12
 11
0.0
 21
1.0
 31
0.0
 73
     1
 44
0.60024009603842
  0
ENDBLK
  5
569
330
561
100
AcDbEntity
  8
0
100
AcDbBlockEnd
  0
BLOCK
  5
573
330
56C
100
AcDbEntity
  8
0
100
AcDbBlockBegin
  2
*D23
 70
     1
 71
     0
 10
0.0
 20
0.0
 30
0.0
  3
*D23
  1

  0
LINE
  5
56D
330
56C
100
AcDbEntity
  8
1
  6
Continuous
 62
     3
100
AcDbLine
 10
31.7503111894469
 20
811.4725820589242
 30
0.0
 11
31.7503111894469
 21
801.4725820589242
 31
0.0
  0
LINE
  5
56E
330
56C
100
AcDbEntity
  8
1
  6
Continuous
 62
     3
100
AcDbLine
 10
-19.90915224811481
 20
811.4725820589242
 30
0.0
 11
33.7503111894469
 21
811.4725820589242
 31
0.0
  0
LINE
  5
56F
330
56C
100
AcDbEntity
  8
1
  6
Continuous
 62
     3
100
AcDbLine
 10
-23.75920124811703
 20
801.4725820589242
 30
0.0
 11
33.7503111894469
 21
801.4725820589242
 31
0.0
  0
SOLID
  5
570
330
56C
100
AcDbEntity
  8
1
 62
     3
100
AcDbTrace
 10
32.21109493100278
 20
807.9725820589242
 30
0.0
 11
31.28952744789101
 21
807.9725820589242
 31
0.0
 12
31.7503111894469
 22
811.4725820589242
 32
0.0
 13
31.7503111894469
 23
811.4725820589242
 33
0.0
  0
SOLID
  5
571
330
56C
100
AcDbEntity
  8
1
 62
     3
100
AcDbTrace
 10
31.28952744789101
 20
804.9725820589242
 30
0.0
 11
32.21109493100278
 21
804.9725820589242
 31
0.0
 12
31.7503111894469
 22
801.4725820589242
 32
0.0
 13
31.7503111894469
 23
801.4725820589242
 33
0.0
  0
MTEXT
  5
572
330
56C
100
AcDbEntity
  8
1
 62
     4
100
AcDbMText
 10
29.7503111894469
 20
804.1425231299683
 30
0.0
 40
3.5
 41
0.0
 71
     7
 72
     1
  1
10
  7
CONVERTER_12
 11
0.0
 21
1.0
 31
0.0
 73
     1
 44
0.60024009603842
  0
ENDBLK
  5
574
330
56C
100
AcDbEntity
  8
0
100
AcDbBlockEnd
  0
BLOCK
  5
57E
330
577
100
AcDbEntity
  8
0
100
AcDbBlockBegin
  2
*D24
 70
     1
 71
     0
 10
0.0
 20
0.0
 30
0.0
  3
*D24
  1

  0
LINE
  5
578
330
577
100
AcDbEntity
  8
1
  6
Continuous
 62
     3
100
AcDbLine
 10
41.5197186187731
 20
811.4725820589242
 30
0.0
 11
41.5197186187731
 21
773.4725820589242
 31
0.0
  0
LINE
  5
579
330
577
100
AcDbEntity
  8
1
  6
Continuous
 62
     3
100
AcDbLine
 10
-19.90915224811481
 20
811.4725820589242
 30
0.0
 11
43.5197186187731
 21
811.4725820589242
 31
0.0
  0
LINE
  5
57A
330
577
100
AcDbEntity
  8
1
  6
Continuous
 62
     3
100
AcDbLine
 10
-11.75744575559888
 20
773.4725820589242
 30
0.0
 11
43.5197186187731
 21
773.4725820589242
 31
0.0
  0
SOLID
  5
57B
330
577
100
AcDbEntity
  8
1
 62
     3
100
AcDbTrace
 10
41.98050236032898
 20
807.9725820589242
 30
0.0
 11
41.05893487721721
 21
807.9725820589242
 31
0.0
 12
41.5197186187731
 22
811.4725820589242
 32
0.0
 13
41.5197186187731
 23
811.4725820589242
 33
0.0
  0
SOLID
  5
57C
330
577
100
AcDbEntity
  8
1
 62
     3
100
AcDbTrace
 10
41.05893487721721
 20
776.9725820589242
 30
0.0
 11
41.98050236032898
 21
776.9725820589242
 31
0.0
 12
41.5197186187731
 22
773.4725820589242
 32
0.0
 13
41.5197186187731
 23
773.4725820589242
 33
0.0
  0
MTEXT
  5
57D
330
577
100
AcDbEntity
  8
1
 62
     4
100
AcDbMText
 10
39.5197186187731
 20
788.1851257102674
 30
0.0
 40
3.5
 41
0.0
 71
     7
 72
     1
  1
\C4;38\C3;\H2.1;{\Fgdt;`}1
  7
CONVERTER_12
 11
0.0
 21
1.0
 31
0.0
 73
     1
 44
0.60024009603842
  0
ENDBLK
  5
57F
330
577
100
AcDbEntity
  8
0
100
AcDbBlockEnd
  0
ENDSEC
  0
SECTION
  2
ENTITIES
  0
INSERT
  5
59
330
1F
100
AcDbEntity
  8
0
100
AcDbBlockReference
  2
rahmen
 10
-139.452240405383
 20
503.043569128378
 30
0.0
  0
INSERT
  5
5A
330
1F
100
AcDbEntity
  8
0
100
AcDbBlockReference
  2
TOP__4
 10
197.993179110369
 20
487.806504576427
 30
0.0
  0
INSERT
  5
5B
330
1F
100
AcDbEntity
  8
1
100
AcDbBlockReference
  2
Blindlager
 10
127.9001116274339
 20
1150.643773455264
 30
0.0
 41
0.5
 42
0.5
 43
0.5
  0
INSERT
  5
5C
330
1F
100
AcDbEntity
  8
1
100
AcDbBlockReference
  2
Schiene
 10
-73.9592012481169
 20
330.2726310589244
 30
0.0
  0
INSERT
  5
5D
330
1F
100
AcDbEntity
  8
1
100
AcDbBlockReference
  2
Profil-Stahltuer
 10
42.08755252871197
 20
-423.6397934017957
 30
0.0
  0
LINE
  5
4D7
330
1F
100
AcDbEntity
  8
0
  6
Continuous
 62
     1
100
AcDbLine
 10
-26.45920124811703
 20
808.9725820589242
 30
0.0
 11
-26.95920124811703
 21
808.9725820589242
 31
0.0
  0
LINE
  5
4D8
330
1F
100
AcDbEntity
  8
0
  6
Continuous
 62
     3
100
AcDbLine
 10
-26.45920124811703
 20
809.6727770589237
 30
0.0
 11
-26.95920124811703
 21
809.6727770589237
 31
0.0
  0
LINE
  5
4D9
330
1F
100
AcDbEntity
  8
0
  6
Continuous
 62
     3
100
AcDbLine
 10
-26.45920124811703
 20
813.2726300589242
 30
0.0
 11
-26.95920124811703
 21
813.2726300589243
 31
0.0
  0
LINE
  5
4DA
330
1F
100
AcDbEntity
  8
0
  6
Continuous
 62
     1
100
AcDbLine
 10
-26.45920124811703
 20
813.9725820589242
 30
0.0
 11
-26.95920124811703
 21
813.9725820589242
 31
0.0
  0
LINE
  5
4DB
330
1F
100
AcDbEntity
  8
1
  6
Continuous
 62
     1
100
AcDbLine
 10
444.5477595946171
 20
579.0430811283779
 30
0.0
 11
444.547759594617
 21
546.0435691283781
 31
0.0
  0
LINE
  5
4DC
330
1F
100
AcDbEntity
  8
0
  6
Continuous
 62
     1
100
AcDbLine
 10
317.5477512382006
 20
555.0435691283781
 30
0.0
 11
444.1977225946172
 21
555.0435691283781
 31
0.0
  0
LINE
  5
4DD
330
1F
100
AcDbEntity
  8
0
  6
Continuous
 62
     1
100
AcDbLine
 10
317.5477512382006
 20
567.043325128378
 30
0.0
 11
444.1977225946172
 21
567.043325128378
 31
0.0
  0
LINE
  5
4DE
330
1F
100
AcDbEntity
  8
0
  6
Continuous
 62
     1
100
AcDbLine
 10
329.9478355095434
 20
579.0435223833867
 30
0.0
 11
350.9478275300789
 21
579.0434415251164
 31
0.0
  0
LINE
  5
4DF
330
1F
100
AcDbEntity
  8
0
  6
Continuous
 62
     1
100
AcDbLine
 10
350.9478275300789
 20
579.0434415251164
 30
0.0
 11
444.5477595946171
 21
579.0430811283779
 31
0.0
  0
LINE
  5
4E0
330
1F
100
AcDbEntity
  8
1
  6
Continuous
 62
     1
100
AcDbLine
 10
317.5477512382006
 20
546.0435691283781
 30
0.0
 11
317.5478031531887
 21
579.0435701284131
 31
0.0
  0
LINE
  5
4E1
330
1F
100
AcDbEntity
  8
0
  6
Continuous
 62
     1
100
AcDbLine
 10
317.5478122382006
 20
579.0435701283781
 30
0.0
 11
329.9478355095434
 21
579.0435223833867
 31
0.0
  0
LINE
  5
4E2
330
1F
100
AcDbEntity
  8
0
  6
Continuous
 62
     1
100
AcDbLine
 10
344.9477835946171
 20
546.0435691283781
 30
0.0
 11
344.9478275300789
 21
579.0434415251164
 31
0.0
  0
LINE
  5
4E3
330
1F
100
AcDbEntity
  8
0
  6
Continuous
 62
     1
100
AcDbLine
 10
329.9477835946171
 20
546.0435691283781
 30
0.0
 11
329.9478355095434
 21
579.0435223833867
 31
0.0
  0
LINE
  5
4E4
330
1F
100
AcDbEntity
  8
1
  6
Continuous
 62
     1
100
AcDbLine
 10
317.5477512382006
 20
546.0435691283781
 30
0.0
 11
444.547759594617
 21
546.0435691283781
 31
0.0
  0
LINE
  5
4E5
330
1F
100
AcDbEntity
  8
1
  6
DASH_CENTER
 62
     3
100
AcDbLine
 10
-65.3281177760199
 20
751.4725820589242
 30
0.0
 11
-11.75744575559888
 21
751.4725820589242
 31
0.0
  0
LINE
  5
4E6
330
1F
100
AcDbEntity
  8
0
  6
Continuous
 62
     1
100
AcDbLine
 10
-33.45920124811704
 20
781.4725820589247
 30
0.0
 11
-28.95920124811703
 21
781.4725820589247
 31
0.0
  0
LINE
  5
4E7
330
1F
100
AcDbEntity
  8
0
  6
Continuous
 62
     1
100
AcDbLine
 10
-54.45920124811708
 20
781.4725820589247
 30
0.0
 11
-33.45920124811704
 21
781.4725820589247
 31
0.0
  0
LINE
  5
4E8
330
1F
100
AcDbEntity
  8
1
  6
Continuous
 62
     1
100
AcDbLine
 10
-54.95920124811701
 20
797.9725820589242
 30
0.0
 11
-54.95920124811701
 21
792.972582058924
 31
0.0
  0
LINE
  5
4E9
330
1F
100
AcDbEntity
  8
1
  6
Continuous
 62
     1
100
AcDbLine
 10
-33.45920124811703
 20
797.972582058924
 30
0.0
 11
-33.45920124811703
 21
792.972582058924
 31
0.0
  0
LINE
  5
4EA
330
1F
100
AcDbEntity
  8
1
  6
Continuous
 62
     1
100
AcDbLine
 10
-47.95920124811713
 20
797.9725820589242
 30
0.0
 11
-47.95920124811713
 21
792.972582058924
 31
0.0
  0
LINE
  5
4EB
330
1F
100
AcDbEntity
  8
1
  6
Continuous
 62
     1
100
AcDbLine
 10
-33.45920124811703
 20
797.972582058924
 30
0.0
 11
-54.95920124811701
 21
797.9725820589242
 31
0.0
  0
LINE
  5
4EC
330
1F
100
AcDbEntity
  8
1
  6
Continuous
 62
     1
100
AcDbLine
 10
-54.95920124811701
 20
792.972582058924
 30
0.0
 11
-33.45920124811703
 21
792.972582058924
 31
0.0
  0
LINE
  5
4ED
330
1F
100
AcDbEntity
  8
0
  6
DASH_CENTER
 62
     3
100
AcDbLine
 10
-44.45920124811703
 20
791.972582058924
 30
0.0
 11
-44.45920124811703
 21
805.9034900589243
 31
0.0
  0
LINE
  5
4EE
330
1F
100
AcDbEntity
  8
1
  6
Continuous
 62
     1
100
AcDbLine
 10
-34.38185097892725
 20
792.4725820589242
 30
0.0
 11
-32.95920124811704
 21
790.0084804437864
 31
0.0
  0
LINE
  5
4EF
330
1F
100
AcDbEntity
  8
1
  6
Continuous
 62
     1
100
AcDbLine
 10
-54.95920124811681
 20
790.0084804437864
 30
0.0
 11
-53.53655151730685
 21
792.4725820589242
 31
0.0
  0
LINE
  5
4F0
330
1F
100
AcDbEntity
  8
1
  6
Continuous
 62
     1
100
AcDbLine
 10
-54.45920124811708
 20
781.4725820589247
 30
0.0
 11
-54.45920124811681
 21
782.4725820589242
 31
0.0
  0
LINE
  5
4F1
330
1F
100
AcDbEntity
  8
1
  6
Continuous
 62
     4
100
AcDbLine
 10
-54.95920124811681
 20
782.9725820589242
 30
0.0
 11
-32.95920124811704
 21
782.9725820589242
 31
0.0
  0
LINE
  5
4F2
330
1F
100
AcDbEntity
  8
1
  6
Continuous
 62
     4
100
AcDbLine
 10
-33.45920124811704
 20
782.4725820589242
 30
0.0
 11
-54.45920124811681
 21
782.4725820589242
 31
0.0
  0
LINE
  5
4F3
330
1F
100
AcDbEntity
  8
1
  6
Continuous
 62
     1
100
AcDbLine
 10
-54.45920124811681
 20
782.4725820589242
 30
0.0
 11
-54.95920124811681
 21
782.9725820589242
 31
0.0
  0
LINE
  5
4F4
330
1F
100
AcDbEntity
  8
1
  6
Continuous
 62
     1
100
AcDbLine
 10
-54.95920124811681
 20
782.9725820589242
 30
0.0
 11
-54.95920124811681
 21
790.0084804437864
 31
0.0
  0
LINE
  5
4F5
330
1F
100
AcDbEntity
  8
1
  6
Continuous
 62
     1
100
AcDbLine
 10
-32.95920124811704
 20
790.0084804437864
 30
0.0
 11
-32.95920124811704
 21
782.9725820589242
 31
0.0
  0
LINE
  5
4F6
330
1F
100
AcDbEntity
  8
1
  6
Continuous
 62
     1
100
AcDbLine
 10
-32.95920124811704
 20
782.9725820589242
 30
0.0
 11
-33.45920124811704
 21
782.4725820589242
 31
0.0
  0
LINE
  5
4F7
330
1F
100
AcDbEntity
  8
1
  6
Continuous
 62
     1
100
AcDbLine
 10
-33.45920124811704
 20
782.4725820589242
 30
0.0
 11
-33.45920124811704
 21
781.4725820589247
 31
0.0
  0
LINE
  5
4F8
330
1F
100
AcDbEntity
  8
1
  6
Continuous
 62
     1
100
AcDbLine
 10
-54.95920124811681
 20
790.0084804437864
 30
0.0
 11
-32.95920124811704
 21
790.0084804437864
 31
0.0
  0
LINE
  5
4F9
330
1F
100
AcDbEntity
  8
1
  6
Continuous
 62
     4
100
AcDbLine
 10
-61.3177660314866
 20
781.5771408027513
 30
0.0
 11
-59.93747030216024
 21
781.2216103862245
 31
0.0
  0
LINE
  5
4FA
330
1F
100
AcDbEntity
  8
1
  6
Continuous
 62
     4
100
AcDbLine
 10
-60.06160141103671
 20
780.7396892017218
 30
0.0
 11
-61.48877610314941
 21
781.1072944923571
 31
0.0
  0
LINE
  5
4FB
330
1F
100
AcDbEntity
  8
1
  6
DASH_CENTER
 62
     3
100
AcDbLine
 10
-65.3281177760199
 20
773.4725820589242
 30
0.0
 11
-11.75744575559888
 21
773.4725820589242
 31
0.0
  0
LINE
  5
4FC
330
1F
100
AcDbEntity
  8
1
  6
DOT_CENTER
 62
     3
100
AcDbLine
 10
-43.95920124811703
 20
713.9443269171041
 30
0.0
 11
-43.95920124811703
 21
799.5404764432142
 31
0.0
  0
LINE
  5
4FD
330
1F
100
AcDbEntity
  8
0
  6
Continuous
 62
     1
100
AcDbLine
 10
-28.95920124811703
 20
770.5725820589241
 30
0.0
 11
-28.95920124811703
 21
754.3725820589243
 31
0.0
  0
LINE
  5
4FE
330
1F
100
AcDbEntity
  8
0
  6
Continuous
 62
     1
100
AcDbLine
 10
-28.95920124811703
 20
776.3725820589243
 30
0.0
 11
-28.95920124811703
 21
770.5725820589241
 31
0.0
  0
LINE
  5
4FF
330
1F
100
AcDbEntity
  8
0
  6
Continuous
 62
     1
100
AcDbLine
 10
-59.46055965336056
 20
780.4862296053279
 30
0.0
 11
-59.10469662298458
 21
781.4725820589247
 31
0.0
  0
LINE
  5
500
330
1F
100
AcDbEntity
  8
0
  6
Continuous
 62
     1
100
AcDbLine
 10
-59.10469662298458
 20
781.4725820589247
 30
0.0
 11
-54.45920124811708
 21
781.4725820589247
 31
0.0
  0
LINE
  5
501
330
1F
100
AcDbEntity
  8
0
  6
Continuous
 62
     1
100
AcDbLine
 10
-28.95920124811703
 20
781.4725820589247
 30
0.0
 11
-28.95920124811703
 21
776.3725820589243
 31
0.0
  0
LINE
  5
502
330
1F
100
AcDbEntity
  8
0
  6
Continuous
 62
     1
100
AcDbLine
 10
-60.35021977718809
 20
780.8100394090152
 30
0.0
 11
-59.46055965336056
 21
780.4862296053279
 31
0.0
  0
LINE
  5
503
330
1F
100
AcDbEntity
  8
0
  6
Continuous
 62
     1
100
AcDbLine
 10
-28.95920124811703
 20
726.5725820589241
 30
0.0
 11
-28.95920124811703
 21
721.472582058924
 31
0.0
  0
LINE
  5
504
330
1F
100
AcDbEntity
  8
0
  6
Continuous
 62
     1
100
AcDbLine
 10
-28.95920124811703
 20
726.5725820589241
 30
0.0
 11
-28.95920124811703
 21
732.3725820589243
 31
0.0
  0
LINE
  5
505
330
1F
100
AcDbEntity
  8
0
  6
Continuous
 62
     1
100
AcDbLine
 10
-59.10469662298367
 20
721.4725820589233
 30
0.0
 11
-28.95920124811703
 21
721.472582058924
 31
0.0
  0
LINE
  5
506
330
1F
100
AcDbEntity
  8
0
  6
Continuous
 62
     1
100
AcDbLine
 10
-59.46055965335965
 20
722.4589345125221
 30
0.0
 11
-60.35021977718854
 21
722.1351247088346
 31
0.0
  0
LINE
  5
507
330
1F
100
AcDbEntity
  8
0
  6
Continuous
 62
     1
100
AcDbLine
 10
-59.10469662298367
 20
721.4725820589233
 30
0.0
 11
-59.46055965335965
 21
722.4589345125221
 31
0.0
  0
LINE
  5
508
330
1F
100
AcDbEntity
  8
0
  6
Continuous
 62
     1
100
AcDbLine
 10
-28.95920124811703
 20
748.5725820589241
 30
0.0
 11
-28.95920124811703
 21
732.3725820589243
 31
0.0
  0
LINE
  5
509
330
1F
100
AcDbEntity
  8
0
  6
Continuous
 62
     1
100
AcDbLine
 10
-28.95920124811703
 20
754.3725820589243
 30
0.0
 11
-28.95920124811703
 21
748.5725820589241
 31
0.0
  0
LINE
  5
50A
330
1F
100
AcDbEntity
  8
1
  6
DASH_CENTER
 62
     3
100
AcDbLine
 10
-65.3281177760199
 20
729.4725820589242
 30
0.0
 11
-11.75744575559888
 21
729.4725820589242
 31
0.0
  0
LINE
  5
50B
330
1F
100
AcDbEntity
  8
1
  6
Continuous
 62
     4
100
AcDbLine
 10
-60.03786376120019
 20
722.2218233547
 30
0.0
 11
-59.8944354518528
 21
721.7428365907099
 31
0.0
  0
LINE
  5
50C
330
1F
100
AcDbEntity
  8
1
  6
Continuous
 62
     4
100
AcDbLine
 10
-59.8944354518528
 20
721.7428365907099
 30
0.0
 11
-61.35179588320099
 21
721.3064430230961
 31
0.0
  0
LINE
  5
50D
330
1F
100
AcDbEntity
  8
1
  6
Continuous
 62
     4
100
AcDbLine
 10
-61.49280290257998
 20
721.7861548207464
 30
0.0
 11
-60.03786376120019
 21
722.2218233547
 31
0.0
  0
LINE
  5
50E
330
1F
100
AcDbEntity
  8
1
  6
Continuous
 62
     4
100
AcDbLine
 10
-60.06160141103671
 20
780.7396892017218
 30
0.0
 11
-59.93747030216024
 21
781.2216103862245
 31
0.0
  0
LINE
  5
50F
330
1F
100
AcDbEntity
  8
1
  6
Continuous
 62
     1
100
AcDbLine
 10
-52.45920124811703
 20
801.2726310589244
 30
0.0
 11
-59.74875838613544
 21
801.2726310589244
 31
0.0
  0
LINE
  5
510
330
1F
100
AcDbEntity
  8
1
  6
Continuous
 62
     1
100
AcDbLine
 10
-36.45920124811703
 20
801.2726310589244
 30
0.0
 11
-52.45920124811703
 21
801.2726310589244
 31
0.0
  0
LINE
  5
511
330
1F
100
AcDbEntity
  8
1
  6
Continuous
 62
     1
100
AcDbLine
 10
-52.45920124811703
 20
801.2726310589244
 30
0.0
 11
-52.45920124811703
 21
798.0726310589243
 31
0.0
  0
LINE
  5
512
330
1F
100
AcDbEntity
  8
1
  6
Continuous
 62
     1
100
AcDbLine
 10
-36.45920124811703
 20
801.2726310589244
 30
0.0
 11
-36.45920124811703
 21
798.0726310589243
 31
0.0
  0
LINE
  5
513
330
1F
100
AcDbEntity
  8
1
  6
Continuous
 62
     1
100
AcDbLine
 10
-28.95920124811703
 20
801.2726310589244
 30
0.0
 11
-34.95920124811703
 21
801.2726310589244
 31
0.0
  0
LINE
  5
514
330
1F
100
AcDbEntity
  8
1
  6
Continuous
 62
     1
100
AcDbLine
 10
-34.95920124811703
 20
801.2726310589244
 30
0.0
 11
-36.45920124811703
 21
801.2726310589244
 31
0.0
  0
LINE
  5
515
330
1F
100
AcDbEntity
  8
1
  6
Continuous
 62
     1
100
AcDbLine
 10
-52.45920124811703
 20
798.0726310589243
 30
0.0
 11
-36.45920124811703
 21
798.0726310589243
 31
0.0
  0
LINE
  5
516
330
1F
100
AcDbEntity
  8
1
  6
LONG_DASHED
 62
     3
100
AcDbLine
 10
-57.10920124811705
 20
803.2726310589244
 30
0.0
 11
-57.10920124811705
 21
819.6726310589245
 31
0.0
  0
LINE
  5
517
330
1F
100
AcDbEntity
  8
1
  6
LONG_DASHED
 62
     3
100
AcDbLine
 10
-31.80920124811702
 20
819.6726310589245
 30
0.0
 11
-31.80920124811702
 21
803.2726310589244
 31
0.0
  0
LINE
  5
518
330
1F
100
AcDbEntity
  8
1
  6
Continuous
 62
     3
100
AcDbLine
 10
-53.95920124811704
 20
801.2726310589244
 30
0.0
 11
-53.95920124811704
 21
803.2726310589244
 31
0.0
  0
LINE
  5
519
330
1F
100
AcDbEntity
  8
1
  6
LONG_DASHED
 62
     3
100
AcDbLine
 10
-44.45920124811703
 20
827.7726310589244
 30
0.0
 11
-57.10920124811705
 21
827.7726310589244
 31
0.0
  0
LINE
  5
51A
330
1F
100
AcDbEntity
  8
1
  6
LONG_DASHED
 62
     3
100
AcDbLine
 10
-53.95920124811704
 20
822.0726310589243
 30
0.0
 11
-57.10920124811705
 21
822.0726310589243
 31
0.0
  0
LINE
  5
51B
330
1F
100
AcDbEntity
  8
1
  6
LONG_DASHED
 62
     3
100
AcDbLine
 10
-53.95920124811704
 20
819.6726310589245
 30
0.0
 11
-57.10920124811705
 21
819.6726310589245
 31
0.0
  0
LINE
  5
51C
330
1F
100
AcDbEntity
  8
1
  6
LONG_DASHED
 62
     3
100
AcDbLine
 10
-53.95920124811704
 20
803.2726310589244
 30
0.0
 11
-57.10920124811705
 21
803.2726310589244
 31
0.0
  0
LINE
  5
51D
330
1F
100
AcDbEntity
  8
1
  6
LONG_DASHED
 62
     3
100
AcDbLine
 10
-57.10920124811705
 20
822.0726310589243
 30
0.0
 11
-57.10920124811705
 21
827.7726310589244
 31
0.0
  0
LINE
  5
51E
330
1F
100
AcDbEntity
  8
1
  6
LONG_DASHED
 62
     3
100
AcDbLine
 10
-53.95920124811704
 20
822.0726310589243
 30
0.0
 11
-53.95920124811704
 21
819.6726310589245
 31
0.0
  0
LINE
  5
51F
330
1F
100
AcDbEntity
  8
1
  6
LONG_DASHED
 62
     3
100
AcDbLine
 10
-34.95920124811703
 20
803.2726310589244
 30
0.0
 11
-34.95920124811703
 21
801.2726310589244
 31
0.0
  0
LINE
  5
520
330
1F
100
AcDbEntity
  8
1
  6
LONG_DASHED
 62
     3
100
AcDbLine
 10
-34.95920124811703
 20
819.6726310589245
 30
0.0
 11
-34.95920124811703
 21
822.0726310589243
 31
0.0
  0
LINE
  5
521
330
1F
100
AcDbEntity
  8
1
  6
LONG_DASHED
 62
     3
100
AcDbLine
 10
-31.80920124811702
 20
827.7726310589244
 30
0.0
 11
-31.80920124811702
 21
822.0726310589243
 31
0.0
  0
LINE
  5
522
330
1F
100
AcDbEntity
  8
1
  6
LONG_DASHED
 62
     3
100
AcDbLine
 10
-31.80920124811702
 20
803.2726310589244
 30
0.0
 11
-34.95920124811703
 21
803.2726310589244
 31
0.0
  0
LINE
  5
523
330
1F
100
AcDbEntity
  8
1
  6
LONG_DASHED
 62
     3
100
AcDbLine
 10
-31.80920124811702
 20
819.6726310589245
 30
0.0
 11
-34.95920124811703
 21
819.6726310589245
 31
0.0
  0
LINE
  5
524
330
1F
100
AcDbEntity
  8
1
  6
LONG_DASHED
 62
     3
100
AcDbLine
 10
-31.80920124811702
 20
822.0726310589243
 30
0.0
 11
-34.95920124811703
 21
822.0726310589243
 31
0.0
  0
LINE
  5
525
330
1F
100
AcDbEntity
  8
1
  6
LONG_DASHED
 62
     3
100
AcDbLine
 10
-31.80920124811702
 20
827.7726310589244
 30
0.0
 11
-44.45920124811703
 21
827.7726310589244
 31
0.0
  0
LINE
  5
526
330
1F
100
AcDbEntity
  8
1
  6
Continuous
 62
     1
100
AcDbLine
 10
-28.95920124811703
 20
831.2726310589244
 30
0.0
 11
-59.74875838613544
 21
831.2726310589244
 31
0.0
  0
LINE
  5
527
330
1F
100
AcDbEntity
  8
0
  6
Continuous
 62
     1
100
AcDbLine
 10
-19.95920124811703
 20
808.9725820589242
 30
0.0
 11
-24.45920124811703
 21
808.9725820589242
 31
0.0
  0
LINE
  5
528
330
1F
100
AcDbEntity
  8
0
  6
Continuous
 62
     3
100
AcDbLine
 10
-19.95920124811703
 20
809.6727770589237
 30
0.0
 11
-24.45920124811703
 21
809.6727770589237
 31
0.0
  0
LINE
  5
529
330
1F
100
AcDbEntity
  8
0
  6
Continuous
 62
     1
100
AcDbLine
 10
-19.95920124811703
 20
808.9725820589242
 30
0.0
 11
-19.95920124811703
 21
813.9725820589242
 31
0.0
  0
LINE
  5
52A
330
1F
100
AcDbEntity
  8
0
  6
Continuous
 62
     1
100
AcDbLine
 10
-19.95920124811703
 20
813.9725820589242
 30
0.0
 11
-24.45920124811703
 21
813.9725820589242
 31
0.0
  0
LINE
  5
52B
330
1F
100
AcDbEntity
  8
0
  6
Continuous
 62
     3
100
AcDbLine
 10
-19.95920124811703
 20
813.2726300589234
 30
0.0
 11
-24.45920124811703
 21
813.2726300589239
 31
0.0
  0
LINE
  5
52C
330
1F
100
AcDbEntity
  8
0
  6
DASH_CENTER
 62
     3
100
AcDbLine
 10
-36.25937224811598
 20
811.4725820589242
 30
0.0
 11
-19.90915224811481
 21
811.4725820589242
 31
0.0
  0
LINE
  5
52D
330
1F
100
AcDbEntity
  8
0
  6
Continuous
 62
     1
100
AcDbLine
 10
-16.95920124811703
 20
770.9725820589233
 30
0.0
 11
-26.95920124811703
 21
770.9725820589242
 31
0.0
  0
LINE
  5
52E
330
1F
100
AcDbEntity
  8
0
  6
Continuous
 62
     1
100
AcDbLine
 10
-16.95920124811703
 20
775.9725820589233
 30
0.0
 11
-16.95920124811703
 21
770.9725820589233
 31
0.0
  0
LINE
  5
52F
330
1F
100
AcDbEntity
  8
0
  6
Continuous
 62
     3
100
AcDbLine
 10
-16.95920124811703
 20
771.6727770589246
 30
0.0
 11
-26.95920124811703
 21
771.6727770589237
 31
0.0
  0
LINE
  5
530
330
1F
100
AcDbEntity
  8
0
  6
Continuous
 62
     3
100
AcDbLine
 10
-16.95920124811703
 20
775.2726300589243
 30
0.0
 11
-26.95920124811703
 21
775.2726300589243
 31
0.0
  0
LINE
  5
531
330
1F
100
AcDbEntity
  8
0
  6
Continuous
 62
     1
100
AcDbLine
 10
-16.95920124811703
 20
775.9725820589233
 30
0.0
 11
-26.95920124811703
 21
775.9725820589242
 31
0.0
  0
LINE
  5
532
330
1F
100
AcDbEntity
  8
0
  6
Continuous
 62
     1
100
AcDbLine
 10
-16.95920124811703
 20
731.9725820589242
 30
0.0
 11
-26.95920124811693
 21
731.9725820589242
 31
0.0
  0
LINE
  5
533
330
1F
100
AcDbEntity
  8
0
  6
Continuous
 62
     3
100
AcDbLine
 10
-16.95920124811703
 20
731.2726300589243
 30
0.0
 11
-26.95920124811693
 21
731.2726300589243
 31
0.0
  0
LINE
  5
534
330
1F
100
AcDbEntity
  8
0
  6
Continuous
 62
     1
100
AcDbLine
 10
-16.95920124811703
 20
731.9725820589242
 30
0.0
 11
-16.95920124811703
 21
726.9725820589242
 31
0.0
  0
LINE
  5
535
330
1F
100
AcDbEntity
  8
0
  6
Continuous
 62
     1
100
AcDbLine
 10
-16.95920124811703
 20
726.9725820589242
 30
0.0
 11
-26.95920124811693
 21
726.9725820589242
 31
0.0
  0
LINE
  5
536
330
1F
100
AcDbEntity
  8
0
  6
Continuous
 62
     3
100
AcDbLine
 10
-16.95920124811703
 20
727.6727770589237
 30
0.0
 11
-26.95920124811693
 21
727.6727770589237
 31
0.0
  0
LINE
  5
537
330
1F
100
AcDbEntity
  8
1
  6
Continuous
 62
     7
100
AcDbLine
 10
-28.95920124811703
 20
801.4725820589242
 30
0.0
 11
-23.75920124811703
 21
801.4725820589242
 31
0.0
  0
ARC
  5
538
330
1F
100
AcDbEntity
  8
1
  6
Continuous
 62
     4
100
AcDbCircle
 10
90.65089380824259
 20
751.4053450952038
 30
0.0
 40
155.0000028430619
100
AcDbArc
 50
168.9615595375573
 51
-168.9835075382659
  0
ARC
  5
539
330
1F
100
AcDbEntity
  8
0
  6
Continuous
 62
     1
100
AcDbCircle
 10
116.0407987518826
 20
751.4725820589247
 30
0.0
 40
179.9999999999996
100
AcDbArc
 50
178.3445582742851
 51
-178.3445582742848
  0
ARC
  5
53A
330
1F
100
AcDbEntity
  8
0
  6
Continuous
 62
     1
100
AcDbCircle
 10
116.0407987518823
 20
751.4725820589267
 30
0.0
 40
179.9999999999994
100
AcDbArc
 50
-178.3445582742842
 51
-174.6445993869464
  0
ARC
  5
53B
330
1F
100
AcDbEntity
  8
0
  6
Continuous
 62
     1
100
AcDbCircle
 10
116.0407987518747
 20
751.4725820588744
 30
0.0
 40
179.9999999999994
100
AcDbArc
 50
170.8716436587587
 51
171.3086774459524
  0
ARC
  5
53C
330
1F
100
AcDbEntity
  8
0
  6
Continuous
 62
     1
100
AcDbCircle
 10
-60.69223992051359
 20
779.870346788229
 30
0.0
 40
1.000000000000235
100
AcDbArc
 50
70.00000000001484
 51
170.8716436587869
  0
ARC
  5
53D
330
1F
100
AcDbEntity
  8
0
  6
Continuous
 62
     1
100
AcDbCircle
 10
116.0407987518823
 20
751.4725820589267
 30
0.0
 40
179.9999999999993
100
AcDbArc
 50
-174.6445993869464
 51
-171.3086774459676
  0
ARC
  5
53E
330
1F
100
AcDbEntity
  8
0
  6
Continuous
 62
     1
100
AcDbCircle
 10
116.0407987518945
 20
751.4725820588483
 30
0.0
 40
179.9999999999995
100
AcDbArc
 50
-171.3086774459929
 51
-170.8716436587992
  0
ARC
  5
53F
330
1F
100
AcDbEntity
  8
0
  6
Continuous
 62
     1
100
AcDbCircle
 10
-60.69223992051359
 20
723.0748173296222
 30
0.0
 40
1.000000000001203
100
AcDbArc
 50
-170.8716436586233
 51
-70.00000000006605
  0
ARC
  5
540
330
1F
100
AcDbEntity
  8
0
  6
Continuous
 62
     1
100
AcDbCircle
 10
116.0407987518823
 20
751.472582058921
 30
0.0
 40
179.9999999999994
100
AcDbArc
 50
174.6445993869462
 51
178.344558274284
  0
ARC
  5
541
330
1F
100
AcDbEntity
  8
0
  6
Continuous
 62
     1
100
AcDbCircle
 10
116.0407987518831
 20
751.4725820589297
 30
0.0
 40
179.9999999999993
100
AcDbArc
 50
171.3086774459702
 51
174.644599386949
  0
ARC
  5
542
330
1F
100
AcDbEntity
  8
1
  6
Continuous
 62
     4
100
AcDbCircle
 10
90.64356337379907
 20
751.4298254860605
 30
0.0
 40
155.5000028339205
100
AcDbArc
 50
168.961594823731
 51
-168.974015276193
  0
ARC
  5
543
330
1F
100
AcDbEntity
  8
1
  6
Continuous
 62
     1
100
AcDbCircle
 10
-9.95920124811703
 20
816.2726310589244
 30
0.0
 40
52.0
100
AcDbArc
 50
163.2341270273281
 51
-163.2341270273281
  0
ARC
  5
544
330
1F
100
AcDbEntity
  8
1
  6
Continuous
 62
     1
100
AcDbCircle
 10
-35.24787638271224
 20
791.9725820589242
 30
0.0
 40
1.000000000000482
100
AcDbArc
 50
29.99999999998406
 51
90.0
  0
ARC
  5
545
330
1F
100
AcDbEntity
  8
1
  6
Continuous
 62
     1
100
AcDbCircle
 10
-35.24787638271224
 20
791.9725820589242
 30
0.0
 40
1.000000000000482
100
AcDbArc
 50
29.99999999998406
 51
90.0
  0
ARC
  5
546
330
1F
100
AcDbEntity
  8
1
  6
Continuous
 62
     4
100
AcDbCircle
 10
-61.48877610314941
 20
781.1072944923571
 30
0.0
 40
0.5000000000010997
100
AcDbArc
 50
70.00000000004843
 51
168.9725335378544
  0
ARC
  5
547
330
1F
100
AcDbEntity
  8
1
  6
Continuous
 62
     1
100
AcDbCircle
 10
-52.67052611352185
 20
791.9725820589242
 30
0.0
 40
1.000000000000322
100
AcDbArc
 50
104.8024734232959
 51
150.000000000016
  0
ARC
  5
548
330
1F
100
AcDbEntity
  8
1
  6
Continuous
 62
     4
100
AcDbCircle
 10
-61.49522419254797
 20
721.7854297870865
 30
0.0
 40
0.4999999999999923
100
AcDbArc
 50
-168.974015276181
 51
-73.33014037873652
  0
SOLID
  5
549
330
1F
100
AcDbEntity
  8
1
 62
     3
100
AcDbTrace
 10
-22.19335852030353
 20
753.3617618964266
 30
0.0
 11
-21.6027879155875
 21
754.0692313210482
 31
0.0
 12
-19.2111913220974
 22
751.4725820589242
 32
0.0
 13
-19.2111913220974
 23
751.4725820589242
 33
0.0
  0
LEADER
  5
54A
330
1F
100
AcDbEntity
  8
1
  6
Continuous
 62
     3
100
AcDbLeader
  3
Standard
 71
     0
 76
     3
 10
-19.2111913220974
 20
751.4725820589242
 30
0.0
 10
-25.6231598446569
 20
756.8250679699784
 30
0.0
 10
-24.0687432331273
 20
757.0193700464193
 30
0.0
  0
TEXT
  5
54B
330
1F
100
AcDbEntity
  8
0
 62
     4
100
AcDbText
 10
349.9477835946171
 20
559.293325128378
 30
0.0
 40
3.5
  1
Drehlager
 41
0.9
  7
CONVERTER_12
100
AcDbText
  0
TEXT
  5
54C
330
1F
100
AcDbEntity
  8
0
 62
     4
100
AcDbText
 10
349.9477835946171
 20
571.2930811283779
 30
0.0
 40
3.5
  1
T-STOP Gleitschiene BG (Bandgegenseite)
 41
0.72
  7
CONVERTER_13
100
AcDbText
  0
TEXT
  5
54E
330
1F
100
AcDbEntity
  8
0
 62
     3
100
AcDbText
 10
322.7097164682569
 20
559.2435934595251
 30
0.0
 40
3.5
  1
1
 41
1.045
  7
CONVERTER_19
100
AcDbText
  0
TEXT
  5
54F
330
1F
100
AcDbEntity
  8
0
 62
     3
100
AcDbText
 10
336.6215189472302
 20
559.4212028774434
 30
0.0
 40
3.5
  1
1
 41
1.045
  7
CONVERTER_19
100
AcDbText
  0
TEXT
  5
550
330
1F
100
AcDbEntity
  8
0
 62
     3
100
AcDbText
 10
336.6215189472302
 20
571.4209588774434
 30
0.0
 40
3.5
  1
1
 41
1.045
  7
CONVERTER_19
100
AcDbText
  0
TEXT
  5
551
330
1F
100
AcDbEntity
  8
0
 62
     3
100
AcDbText
 10
322.7097164682569
 20
571.2433494595251
 30
0.0
 40
3.5
  1
2
 41
1.045
  7
CONVERTER_19
100
AcDbText
  0
TEXT
  5
552
330
1F
100
AcDbEntity
  8
0
 62
     4
100
AcDbText
 10
318.9477835946171
 20
548.7935691283781
 30
0.0
 40
3.0
  1
Pos.
 41
0.9
  7
CONVERTER_12
100
AcDbText
  0
TEXT
  5
553
330
1F
100
AcDbEntity
  8
0
 62
     4
100
AcDbText
 10
331.5477835946172
 20
548.7935691283781
 30
0.0
 40
3.0
  1
Anzahl
 41
0.72
  7
CONVERTER_13
100
AcDbText
  0
TEXT
  5
554
330
1F
100
AcDbEntity
  8
0
 62
     4
100
AcDbText
 10
349.9477835946171
 20
548.7935691283781
 30
0.0
 40
3.0
  1
Bezeichnung
 41
0.9
  7
CONVERTER_12
100
AcDbText
  0
TEXT
  5
555
330
1F
100
AcDbEntity
  8
1
 62
     4
100
AcDbText
 10
-23.1479414875086
 20
755.8304795558163
 30
0.0
 40
3.5
  1
wahlweise
 41
0.9
  7
CONVERTER_12
100
AcDbText
  0
DIMENSION
  5
560
330
1F
100
AcDbEntity
  8
1
100
AcDbDimension
  2
*D21
 10
31.8342379646697
 20
729.4725820589242
 30
0.0
 11
28.0842379646697
 21
740.7687557803544
 31
0.0
 70
    33
  1
<>
 71
     5
 42
-1.0
 53
90.0
  3
ME10_DIM_19
100
AcDbAlignedDimension
 13
-11.75744575559888
 23
751.4725820589242
 33
0.0
 14
-11.75744575559888
 24
729.4725820589242
 34
0.0
  0
DIMENSION
  5
56B
330
1F
100
AcDbEntity
  8
1
100
AcDbDimension
  2
*D22
 10
41.62164461807075
 20
729.4725820589242
 30
0.0
 11
37.87164461807075
 21
752.2054004419994
 31
0.0
 70
    32
  1
<>
 71
     5
 42
-1.0
 53
90.0
  3
ME10_DIM_20
100
AcDbAlignedDimension
 13
-11.75744575559888
 23
773.4725820589242
 33
0.0
 14
-11.75744575559888
 24
729.4725820589242
 34
0.0
 50
90.0
100
AcDbRotatedDimension
  0
DIMENSION
  5
576
330
1F
100
AcDbEntity
  8
1
100
AcDbDimension
  2
*D23
 10
31.7503111894469
 20
811.4725820589242
 30
0.0
 11
28.0003111894469
 21
806.2425231299683
 31
0.0
 70
    32
  1
<>
 71
     5
 42
-1.0
 53
90.0
  3
ME10_DIM_21
100
AcDbAlignedDimension
 13
-23.75920124811703
 23
801.4725820589242
 33
0.0
 14
-19.90915224811481
 24
811.4725820589242
 34
0.0
 50
90.0
100
AcDbRotatedDimension
  0
DIMENSION
  5
581
330
1F
100
AcDbEntity
  8
1
100
AcDbDimension
  2
*D24
 10
41.5197186187731
 20
811.4725820589242
 30
0.0
 11
37.7697186187731
 21
792.7351257102673
 31
0.0
 70
    32
  1
<>
 71
     5
 42
-1.0
 53
90.0
  3
ME10_DIM_22
100
AcDbAlignedDimension
 13
-11.75744575559888
 23
773.4725820589242
 33
0.0
 14
-19.90915224811481
 24
811.4725820589242
 34
0.0
 50
90.0
100
AcDbRotatedDimension
  0
ENDSEC
  0
SECTION
  2
OBJECTS
  0
DICTIONARY
  5
C
330
0
100
AcDbDictionary
281
     1
  3
ACAD_GROUP
350
D
  3
ACAD_LAYOUT
350
1A
  3
ACAD_MLINESTYLE
350
17
  3
ACAD_PLOTSETTINGS
350
19
  3
ACAD_PLOTSTYLENAME
350
E
  0
DICTIONARY
  5
D
102
{ACAD_REACTORS
330
C
102
}
330
C
100
AcDbDictionary
281
     1
  0
DICTIONARY
  5
1A
102
{ACAD_REACTORS
330
C
102
}
330
C
100
AcDbDictionary
281
     1
  3
Layout1
350
1E
  3
Layout2
350
26
  3
Model
350
22
  0
DICTIONARY
  5
17
102
{ACAD_REACTORS
330
C
102
}
330
C
100
AcDbDictionary
281
     1
  3
Standard
350
18
  0
DICTIONARY
  5
19
102
{ACAD_REACTORS
330
C
102
}
330
C
100
AcDbDictionary
281
     1
  0
ACDBDICTIONARYWDFLT
  5
E
102
{ACAD_REACTORS
330
C
102
}
330
C
100
AcDbDictionary
281
     1
  3
Normal
350
F
100
AcDbDictionaryWithDefault
340
F
  0
LAYOUT
  5
1E
102
{ACAD_REACTORS
330
1A
102
}
330
1A
100
AcDbPlotSettings
  1

  2

  4

  6

 40
0.0
 41
0.0
 42
0.0
 43
0.0
 44
0.0
 45
0.0
 46
0.0
 47
0.0
 48
0.0
 49
0.0
140
0.0
141
0.0
142
1.0
143
1.0
 70
   688
 72
     0
 73
     0
 74
     5
  7

 75
    16
147
1.0
148
0.0
149
0.0
100
AcDbLayout
  1
Layout1
 70
     1
 71
     1
 10
0.0
 20
0.0
 11
0.0
 21
0.0
 12
0.0
 22
0.0
 32
0.0
 14
0.0
 24
0.0
 34
0.0
 15
0.0
 25
0.0
 35
0.0
146
0.0
 13
0.0
 23
0.0
 33
0.0
 16
1.0
 26
0.0
 36
0.0
 17
0.0
 27
1.0
 37
0.0
 76
     0
330
1B
  0
LAYOUT
  5
26
102
{ACAD_REACTORS
330
1A
102
}
330
1A
100
AcDbPlotSettings
  1

  2

  4

  6

 40
0.0
 41
0.0
 42
0.0
 43
0.0
 44
0.0
 45
0.0
 46
0.0
 47
0.0
 48
0.0
 49
0.0
140
0.0
141
0.0
142
1.0
143
1.0
 70
   688
 72
     0
 73
     0
 74
     5
  7

 75
    16
147
1.0
148
0.0
149
0.0
100
AcDbLayout
  1
Layout2
 70
     1
 71
     2
 10
0.0
 20
0.0
 11
0.0
 21
0.0
 12
0.0
 22
0.0
 32
0.0
 14
0.0
 24
0.0
 34
0.0
 15
0.0
 25
0.0
 35
0.0
146
0.0
 13
0.0
 23
0.0
 33
0.0
 16
1.0
 26
0.0
 36
0.0
 17
0.0
 27
1.0
 37
0.0
 76
     0
330
23
  0
LAYOUT
  5
22
102
{ACAD_REACTORS
330
1A
102
}
330
1A
100
AcDbPlotSettings
  1

  2

  4

  6

 40
0.0
 41
0.0
 42
0.0
 43
0.0
 44
0.0
 45
0.0
 46
0.0
 47
0.0
 48
0.0
 49
0.0
140
0.0
141
0.0
142
1.0
143
1.0
 70
  1712
 72
     0
 73
     0
 74
     0
  7

 75
     0
147
1.0
148
0.0
149
0.0
100
AcDbLayout
  1
Model
 70
     1
 71
     0
 10
0.0
 20
0.0
 11
0.0
 21
0.0
 12
0.0
 22
0.0
 32
0.0
 14
-139.452240405383
 24
503.043569128378
 34
0.0
 15
444.5477595946171
 25
913.0435691283781
 35
0.0
146
0.0
 13
0.0
 23
0.0
 33
0.0
 16
1.0
 26
0.0
 36
0.0
 17
0.0
 27
1.0
 37
0.0
 76
     0
330
1F
  0
MLINESTYLE
  5
18
102
{ACAD_REACTORS
330
17
102
}
330
17
100
AcDbMlineStyle
  2
Standard
 70
     0
  3

 62
   256
 51
90.0
 52
90.0
 71
     2
 49
0.5
 62
   256
  6
BYLAYER
 49
-0.5
 62
   256
  6
BYLAYER
  0
ACDBPLACEHOLDER
  5
F
102
{ACAD_REACTORS
330
E
102
}
330
E
  0
ENDSEC
  0
EOF
