  0
SECTION
  2
HEADER
  9
$ACADVER
  1
AC1015
  9
$ACADMAINTVER
 70
     6
  9
$DWGCODEPAGE
  3
ANSI_1252
  9
$INSBASE
 10
0.0
 20
0.0
 30
0.0
  9
$EXTMIN
 10
0.0
 20
0.0
 30
0.0
  9
$EXTMAX
 10
197.5066684218749
 20
287.0
 30
0.0
  9
$LIMMIN
 10
0.0
 20
0.0
  9
$LIMMAX
 10
12.0
 20
9.0
  9
$ORTHOMODE
 70
     0
  9
$REGENMODE
 70
     1
  9
$FILLMODE
 70
     1
  9
$QTEXTMODE
 70
     0
  9
$MIRRTEXT
 70
     1
  9
$LTSCALE
 40
1.0
  9
$ATTMODE
 70
     1
  9
$TEXTSIZE
 40
0.2
  9
$TRACEWID
 40
0.05
  9
$TEXTSTYLE
  7
Standard
  9
$CLAYER
  8
0
  9
$CELTYPE
  6
ByLayer
  9
$CECOLOR
 62
   256
  9
$CELTSCALE
 40
1.0
  9
$DISPSILH
 70
     0
  9
$DIMSCALE
 40
1.0
  9
$DIMASZ
 40
0.18
  9
$DIMEXO
 40
0.0625
  9
$DIMDLI
 40
0.38
  9
$DIMRND
 40
0.0
  9
$DIMDLE
 40
0.0
  9
$DIMEXE
 40
0.18
  9
$DIMTP
 40
0.0
  9
$DIMTM
 40
0.0
  9
$DIMTXT
 40
0.18
  9
$DIMCEN
 40
0.09
  9
$DIMTSZ
 40
0.0
  9
$DIMTOL
 70
     0
  9
$DIMLIM
 70
     0
  9
$DIMTIH
 70
     1
  9
$DIMTOH
 70
     1
  9
$DIMSE1
 70
     0
  9
$DIMSE2
 70
     0
  9
$DIMTAD
 70
     0
  9
$DIMZIN
 70
     0
  9
$DIMBLK
  1

  9
$DIMASO
 70
     1
  9
$DIMSHO
 70
     1
  9
$DIMPOST
  1

  9
$DIMAPOST
  1

  9
$DIMALT
 70
     0
  9
$DIMALTD
 70
     2
  9
$DIMALTF
 40
25.4
  9
$DIMLFAC
 40
1.0
  9
$DIMTOFL
 70
     0
  9
$DIMTVP
 40
0.0
  9
$DIMTIX
 70
     0
  9
$DIMSOXD
 70
     0
  9
$DIMSAH
 70
     0
  9
$DIMBLK1
  1

  9
$DIMBLK2
  1

  9
$DIMSTYLE
  2
Standard
  9
$DIMCLRD
 70
     0
  9
$DIMCLRE
 70
     0
  9
$DIMCLRT
 70
     0
  9
$DIMTFAC
 40
1.0
  9
$DIMGAP
 40
0.09
  9
$DIMJUST
 70
     0
  9
$DIMSD1
 70
     0
  9
$DIMSD2
 70
     0
  9
$DIMTOLJ
 70
     1
  9
$DIMTZIN
 70
     0
  9
$DIMALTZ
 70
     0
  9
$DIMALTTZ
 70
     0
  9
$DIMUPT
 70
     0
  9
$DIMDEC
 70
     4
  9
$DIMTDEC
 70
     4
  9
$DIMALTU
 70
     2
  9
$DIMALTTD
 70
     2
  9
$DIMTXSTY
  7
Standard
  9
$DIMAUNIT
 70
     0
  9
$DIMADEC
 70
     0
  9
$DIMALTRND
 40
0.0
  9
$DIMAZIN
 70
     0
  9
$DIMDSEP
 70
    46
  9
$DIMATFIT
 70
     3
  9
$DIMFRAC
 70
     0
  9
$DIMLDRBLK
  1

  9
$DIMLUNIT
 70
     2
  9
$DIMLWD
 70
    -2
  9
$DIMLWE
 70
    -2
  9
$DIMTMOVE
 70
     0
  9
$LUNITS
 70
     2
  9
$LUPREC
 70
     4
  9
$SKETCHINC
 40
0.1
  9
$FILLETRAD
 40
0.5
  9
$AUNITS
 70
     0
  9
$AUPREC
 70
     0
  9
$MENU
  1
.
  9
$ELEVATION
 40
0.0
  9
$PELEVATION
 40
0.0
  9
$THICKNESS
 40
0.0
  9
$LIMCHECK
 70
     0
  9
$CHAMFERA
 40
0.5
  9
$CHAMFERB
 40
0.5
  9
$CHAMFERC
 40
1.0
  9
$CHAMFERD
 40
0.0
  9
$SKPOLY
 70
     0
  9
$TDCREATE
 40
2456666.356527743
  9
$TDUCREATE
 40
2456666.314861076
  9
$TDUPDATE
 40
2456666.356527755
  9
$TDUUPDATE
 40
2456666.314861088
  9
$TDINDWG
 40
0.0000000116
  9
$TDUSRTIMER
 40
0.0000000116
  9
$USRTIMER
 70
     1
  9
$ANGBASE
 50
0.0
  9
$ANGDIR
 70
     0
  9
$PDMODE
 70
     0
  9
$PDSIZE
 40
0.0
  9
$PLINEWID
 40
0.0
  9
$SPLFRAME
 70
     0
  9
$SPLINETYPE
 70
     6
  9
$SPLINESEGS
 70
     8
  9
$HANDSEED
  5
402
  9
$SURFTAB1
 70
     6
  9
$SURFTAB2
 70
     6
  9
$SURFTYPE
 70
     6
  9
$SURFU
 70
     6
  9
$SURFV
 70
     6
  9
$UCSBASE
  2

  9
$UCSNAME
  2

  9
$UCSORG
 10
0.0
 20
0.0
 30
0.0
  9
$UCSXDIR
 10
1.0
 20
0.0
 30
0.0
  9
$UCSYDIR
 10
0.0
 20
1.0
 30
0.0
  9
$UCSORTHOREF
  2

  9
$UCSORTHOVIEW
 70
     0
  9
$UCSORGTOP
 10
0.0
 20
0.0
 30
0.0
  9
$UCSORGBOTTOM
 10
0.0
 20
0.0
 30
0.0
  9
$UCSORGLEFT
 10
0.0
 20
0.0
 30
0.0
  9
$UCSORGRIGHT
 10
0.0
 20
0.0
 30
0.0
  9
$UCSORGFRONT
 10
0.0
 20
0.0
 30
0.0
  9
$UCSORGBACK
 10
0.0
 20
0.0
 30
0.0
  9
$PUCSBASE
  2

  9
$PUCSNAME
  2

  9
$PUCSORG
 10
0.0
 20
0.0
 30
0.0
  9
$PUCSXDIR
 10
1.0
 20
0.0
 30
0.0
  9
$PUCSYDIR
 10
0.0
 20
1.0
 30
0.0
  9
$PUCSORTHOREF
  2

  9
$PUCSORTHOVIEW
 70
     0
  9
$PUCSORGTOP
 10
0.0
 20
0.0
 30
0.0
  9
$PUCSORGBOTTOM
 10
0.0
 20
0.0
 30
0.0
  9
$PUCSORGLEFT
 10
0.0
 20
0.0
 30
0.0
  9
$PUCSORGRIGHT
 10
0.0
 20
0.0
 30
0.0
  9
$PUCSORGFRONT
 10
0.0
 20
0.0
 30
0.0
  9
$PUCSORGBACK
 10
0.0
 20
0.0
 30
0.0
  9
$USERI1
 70
     0
  9
$USERI2
 70
     0
  9
$USERI3
 70
     0
  9
$USERI4
 70
     0
  9
$USERI5
 70
     0
  9
$USERR1
 40
17.0
  9
$USERR2
 40
0.0
  9
$USERR3
 40
0.0
  9
$USERR4
 40
0.0
  9
$USERR5
 40
0.0
  9
$WORLDVIEW
 70
     1
  9
$SHADEDGE
 70
     3
  9
$SHADEDIF
 70
    70
  9
$TILEMODE
 70
     1
  9
$MAXACTVP
 70
    64
  9
$PINSBASE
 10
0.0
 20
0.0
 30
0.0
  9
$PLIMCHECK
 70
     0
  9
$PEXTMIN
 10
1.00000000000000E+20
 20
1.00000000000000E+20
 30
1.00000000000000E+20
  9
$PEXTMAX
 10
-1.00000000000000E+20
 20
-1.00000000000000E+20
 30
-1.00000000000000E+20
  9
$PLIMMIN
 10
0.0
 20
0.0
  9
$PLIMMAX
 10
12.0
 20
9.0
  9
$UNITMODE
 70
     0
  9
$VISRETAIN
 70
     1
  9
$PLINEGEN
 70
     0
  9
$PSLTSCALE
 70
     1
  9
$TREEDEPTH
 70
  3020
  9
$CMLSTYLE
  2
Standard
  9
$CMLJUST
 70
     0
  9
$CMLSCALE
 40
1.0
  9
$PROXYGRAPHICS
 70
     1
  9
$MEASUREMENT
 70
     1
  9
$CELWEIGHT
370
    -1
  9
$ENDCAPS
280
     0
  9
$JOINSTYLE
280
     0
  9
$LWDISPLAY
290
     0
  9
$INSUNITS
 70
     1
  9
$HYPERLINKBASE
  1

  9
$STYLESHEET
  1

  9
$XEDIT
290
     1
  9
$CEPSNTYPE
380
     0
  9
$PSTYLEMODE
290
     1
  9
$FINGERPRINTGUID
  2
{500DC62B-9953-4B7E-AAD8-22FA83C0602C}
  9
$VERSIONGUID
  2
{FAEB1C32-E019-11D5-929B-00C0DF256EC4}
  9
$EXTNAMES
290
     1
  9
$PSVPSCALE
 40
0.0
  9
$OLESTARTUP
290
     0
  0
ENDSEC
  0
SECTION
  2
CLASSES
  0
CLASS
  1
ACDBDICTIONARYWDFLT
  2
AcDbDictionaryWithDefault
  3
ObjectDBX Classes
 90
        0
280
     0
281
     0
  0
CLASS
  1
VISUALSTYLE
  2
AcDbVisualStyle
  3
ObjectDBX Classes
 90
     4095
280
     0
281
     0
  0
CLASS
  1
MATERIAL
  2
AcDbMaterial
  3
ObjectDBX Classes
 90
     1153
280
     0
281
     0
  0
CLASS
  1
SCALE
  2
AcDbScale
  3
ObjectDBX Classes
 90
     1153
280
     0
281
     0
  0
CLASS
  1

  2
exOdDbSpline
  3

 90
        0
280
     0
281
     1
  0
CLASS
  1

  2
exOdDbPolyline
  3

 90
        0
280
     0
281
     1
  0
CLASS
  1

  2
exOdDbCircle
  3

 90
        0
280
     0
281
     1
  0
CLASS
  1
DICTIONARYVAR
  2
AcDbDictionaryVar
  3
ObjectDBX Classes
 90
        0
280
     0
281
     0
  0
CLASS
  1
ACDBPLACEHOLDER
  2
AcDbPlaceHolder
  3
ObjectDBX Classes
 90
        0
280
     0
281
     0
  0
CLASS
  1
LAYOUT
  2
AcDbLayout
  3
ObjectDBX Classes
 90
        0
280
     0
281
     0
  0
ENDSEC
  0
SECTION
  2
TABLES
  0
TABLE
  2
VPORT
  5
8
330
0
100
AcDbSymbolTable
 70
     1
  0
VPORT
  5
29
330
8
100
AcDbSymbolTableRecord
100
AcDbViewportTableRecord
  2
*Active
 70
     0
 10
0.0
 20
0.0
 11
1.0
 21
1.0
 12
98.75333421093745
 22
143.5
 13
0.0
 23
0.0
 14
0.5
 24
0.5
 15
0.5
 25
0.5
 16
0.0
 26
0.0
 36
1.0
 17
0.0
 27
0.0
 37
0.0
 40
315.7
 41
1.60267857142857
 42
50.0
 43
0.0
 44
0.0
 50
0.0
 51
0.0
 71
     0
 72
   100
 73
     1
 74
     3
 75
     0
 76
     0
 77
     0
 78
     0
281
     0
 65
     1
110
0.0
120
0.0
130
0.0
111
1.0
121
0.0
131
0.0
112
0.0
122
1.0
132
0.0
 79
     0
146
0.0
  0
ENDTAB
  0
TABLE
  2
LTYPE
  5
5
330
0
100
AcDbSymbolTable
 70
     8
  0
LTYPE
  5
14
330
5
100
AcDbSymbolTableRecord
100
AcDbLinetypeTableRecord
  2
ByBlock
 70
     0
  3

 72
    65
 73
     0
 40
0.0
  0
LTYPE
  5
15
330
5
100
AcDbSymbolTableRecord
100
AcDbLinetypeTableRecord
  2
ByLayer
 70
     0
  3

 72
    65
 73
     0
 40
0.0
  0
LTYPE
  5
16
330
5
100
AcDbSymbolTableRecord
100
AcDbLinetypeTableRecord
  2
Continuous
 70
     0
  3
Solid line
 72
    65
 73
     0
 40
0.0
  0
LTYPE
  5
3F
330
5
100
AcDbSymbolTableRecord
100
AcDbLinetypeTableRecord
  2
DASHED
 70
     0
  3
Dashed
 72
    65
 73
     2
 40
15.0
 49
7.0
 74
     0
 49
-8.0
 74
     0
  0
LTYPE
  5
40
330
5
100
AcDbSymbolTableRecord
100
AcDbLinetypeTableRecord
  2
DOTTED
 70
     0
  3
Dotted
 72
    65
 73
     2
 40
1.0
 49
0.0
 74
     0
 49
-1.0
 74
     0
  0
LTYPE
  5
41
330
5
100
AcDbSymbolTableRecord
100
AcDbLinetypeTableRecord
  2
DOT_CENTER
 70
     0
  3
Dot_Center
 72
    65
 73
     4
 40
14.0
 49
12.0
 74
     0
 49
-1.0
 74
     0
 49
0.0
 74
     0
 49
-1.0
 74
     0
  0
LTYPE
  5
42
330
5
100
AcDbSymbolTableRecord
100
AcDbLinetypeTableRecord
  2
LONG_DASHED
 70
     0
  3
Long_Dashed
 72
    65
 73
     2
 40
15.0
 49
10.0
 74
     0
 49
-5.0
 74
     0
  0
LTYPE
  5
43
330
5
100
AcDbSymbolTableRecord
100
AcDbLinetypeTableRecord
  2
DASH_CENTER
 70
     0
  3
Dash_Center
 72
    65
 73
     4
 40
14.0
 49
11.0
 74
     0
 49
-1.0
 74
     0
 49
1.0
 74
     0
 49
-1.0
 74
     0
  0
LTYPE
  5
44
330
5
100
AcDbSymbolTableRecord
100
AcDbLinetypeTableRecord
  2
PHANTOM
 70
     0
  3
Phantom
 72
    65
 73
     6
 40
13.0
 49
10.0
 74
     0
 49
-1.0
 74
     0
 49
0.0
 74
     0
 49
-1.0
 74
     0
 49
0.0
 74
     0
 49
-1.0
 74
     0
  0
LTYPE
  5
45
330
5
100
AcDbSymbolTableRecord
100
AcDbLinetypeTableRecord
  2
CENTER_DASH_DASH
 70
     0
  3
Center_Dash_Dash
 72
    65
 73
     6
 40
14.0
 49
9.0
 74
     0
 49
-1.0
 74
     0
 49
1.0
 74
     0
 49
-1.0
 74
     0
 49
1.0
 74
     0
 49
-1.0
 74
     0
  0
ENDTAB
  0
TABLE
  2
LAYER
  5
2
330
0
100
AcDbSymbolTable
 70
     2
  0
LAYER
  5
10
330
2
100
AcDbSymbolTableRecord
100
AcDbLayerTableRecord
  2
0
 70
     0
 62
     7
  6
Continuous
370
    -3
390
F
  0
LAYER
  5
46
330
2
100
AcDbSymbolTableRecord
100
AcDbLayerTableRecord
  2
1
 70
     0
 62
     7
  6
Continuous
370
    -3
390
F
  0
ENDTAB
  0
TABLE
  2
STYLE
  5
3
330
0
100
AcDbSymbolTable
 70
     9
  0
STYLE
  5
11
330
3
100
AcDbSymbolTableRecord
100
AcDbTextStyleTableRecord
  2
Standard
 70
     0
 40
0.0
 41
1.0
 50
0.0
 71
     0
 42
0.2
  3
txt
  4

  0
STYLE
  5
86
330
3
100
AcDbSymbolTableRecord
100
AcDbTextStyleTableRecord
  2
CONVERTER_11
 70
     0
 40
0.0
 41
0.63
 50
0.0
 71
     0
 42
0.2
  3
txt.shx
  4

  0
STYLE
  5
88
330
3
100
AcDbSymbolTableRecord
100
AcDbTextStyleTableRecord
  2
CONVERTER_12
 70
     0
 40
0.0
 41
0.9
 50
0.0
 71
     0
 42
0.2
  3
txt.shx
  4

  0
STYLE
  5
2CF
330
3
100
AcDbSymbolTableRecord
100
AcDbTextStyleTableRecord
  2
CONVERTER_13
 70
     0
 40
0.0
 41
0.7
 50
0.0
 71
     0
 42
0.2
  3
txt.shx
  4

  0
STYLE
  5
371
330
3
100
AcDbSymbolTableRecord
100
AcDbTextStyleTableRecord
  2
CONVERTER_14
 70
     0
 40
0.0
 41
0.99
 50
0.0
 71
     0
 42
0.2
  3
txt.shx
  4

  0
STYLE
  5
37F
330
3
100
AcDbSymbolTableRecord
100
AcDbTextStyleTableRecord
  2
CONVERTER_15
 70
     0
 40
0.0
 41
0.72
 50
0.0
 71
     0
 42
0.2
  3
txt.shx
  4

  0
STYLE
  5
38C
330
3
100
AcDbSymbolTableRecord
100
AcDbTextStyleTableRecord
  2
CONVERTER_16
 70
     0
 40
0.0
 41
0.66696267749507
 50
0.0
 71
     0
 42
0.2
  3
txt.shx
  4

  0
STYLE
  5
38F
330
3
100
AcDbSymbolTableRecord
100
AcDbTextStyleTableRecord
  2
CONVERTER_17
 70
     0
 40
0.0
 41
0.54
 50
0.0
 71
     0
 42
0.2
  3
txt.shx
  4

  0
STYLE
  5
3CB
330
3
100
AcDbSymbolTableRecord
100
AcDbTextStyleTableRecord
  2
CONVERTER_18
 70
     0
 40
0.0
 41
0.765
 50
0.0
 71
     0
 42
0.2
  3
txt.shx
  4

  0
ENDTAB
  0
TABLE
  2
VIEW
  5
6
330
0
100
AcDbSymbolTable
 70
     0
  0
ENDTAB
  0
TABLE
  2
UCS
  5
7
330
0
100
AcDbSymbolTable
 70
     0
  0
ENDTAB
  0
TABLE
  2
APPID
  5
9
330
0
100
AcDbSymbolTable
 70
     1
  0
APPID
  5
12
330
9
100
AcDbSymbolTableRecord
100
AcDbRegAppTableRecord
  2
ACAD
 70
     0
  0
ENDTAB
  0
TABLE
  2
DIMSTYLE
  5
A
330
0
100
AcDbSymbolTable
 70
    12
100
AcDbDimStyleTable
  0
DIMSTYLE
105
27
330
A
100
AcDbSymbolTableRecord
100
AcDbDimStyleTableRecord
  2
Standard
 70
     0
340
11
  0
DIMSTYLE
105
C1
102
{ACAD_REACTORS
330
C2
102
}
330
A
100
AcDbSymbolTableRecord
100
AcDbDimStyleTableRecord
  2
ME10_DIM_10
 70
     0
 41
3.5
 42
0.0
 44
2.0
 73
     0
 74
     0
 77
     1
 78
     8
140
3.5
147
2.0
172
     1
173
     1
174
     1
175
     1
176
     3
177
     3
178
     4
271
     2
340
88
  0
DIMSTYLE
105
CE
102
{ACAD_REACTORS
330
CF
102
}
330
A
100
AcDbSymbolTableRecord
100
AcDbDimStyleTableRecord
  2
ME10_DIM_11
 70
     0
  3
{\Fgdt;n}<>
 41
3.5
 42
0.0
 44
2.0
 73
     0
 74
     0
 77
     1
 78
     8
140
3.5
147
2.0
172
     1
173
     1
174
     1
175
     1
176
     3
177
     3
178
     4
271
     2
340
88
  0
DIMSTYLE
105
DA
102
{ACAD_REACTORS
330
DB
102
}
330
A
100
AcDbSymbolTableRecord
100
AcDbDimStyleTableRecord
  2
ME10_DIM_12
 70
     0
  3
{\Fgdt;n}<>
 41
3.5
 42
0.0
 44
2.0
 73
     0
 74
     0
 77
     1
 78
     8
140
3.5
147
2.0
172
     1
173
     1
174
     1
175
     1
176
     3
177
     3
178
     4
271
     2
340
88
  0
DIMSTYLE
105
E7
102
{ACAD_REACTORS
330
E8
102
}
330
A
100
AcDbSymbolTableRecord
100
AcDbDimStyleTableRecord
  2
ME10_DIM_13
 70
     0
 41
3.5
 42
0.0
 44
2.0
 73
     0
 74
     0
 77
     1
 78
     8
140
3.5
147
2.0
172
     1
173
     1
174
     1
175
     1
176
     3
177
     3
178
     4
271
     2
340
88
  0
DIMSTYLE
105
F5
102
{ACAD_REACTORS
330
F6
102
}
330
A
100
AcDbSymbolTableRecord
100
AcDbDimStyleTableRecord
  2
ME10_DIM_14
 70
     0
 41
3.5
 42
0.0
 44
2.0
 73
     0
 74
     0
 77
     1
 78
     8
140
3.5
147
2.0
172
     1
173
     1
174
     1
175
     1
176
     3
177
     3
178
     4
271
     2
340
88
  0
DIMSTYLE
105
101
102
{ACAD_REACTORS
330
102
102
}
330
A
100
AcDbSymbolTableRecord
100
AcDbDimStyleTableRecord
  2
ME10_DIM_15
 70
     0
 41
3.5
 42
0.0
 44
2.0
 73
     0
 74
     0
 77
     1
 78
     8
140
3.5
147
2.0
172
     1
173
     1
174
     1
175
     1
176
     3
177
     3
178
     4
271
     2
340
88
  0
DIMSTYLE
105
110
102
{ACAD_REACTORS
330
111
102
}
330
A
100
AcDbSymbolTableRecord
100
AcDbDimStyleTableRecord
  2
ME10_DIM_16
 70
     0
 41
3.5
 42
0.0
 44
2.0
 73
     0
 74
     0
 77
     1
 78
     8
140
3.5
147
2.0
172
     1
173
     1
174
     1
175
     1
176
     3
177
     3
178
     4
271
     2
340
88
  0
DIMSTYLE
105
13E
102
{ACAD_REACTORS
330
13F
102
}
330
A
100
AcDbSymbolTableRecord
100
AcDbDimStyleTableRecord
  2
ME10_DIM_17
 70
     0
 41
3.5
 42
0.0
 44
2.0
 73
     0
 74
     0
 77
     1
 78
     8
140
3.5
147
2.0
172
     1
173
     1
174
     1
175
     1
176
     3
177
     3
178
     4
271
     2
340
88
  0
DIMSTYLE
105
149
102
{ACAD_REACTORS
330
14A
102
}
330
A
100
AcDbSymbolTableRecord
100
AcDbDimStyleTableRecord
  2
ME10_DIM_18
 70
     0
 41
3.5
 42
0.0
 44
2.0
 73
     0
 74
     0
 77
     1
 78
     8
140
3.5
147
2.0
172
     1
173
     1
174
     1
175
     1
176
     3
177
     3
178
     4
271
     2
340
88
  0
DIMSTYLE
105
154
102
{ACAD_REACTORS
330
155
102
}
330
A
100
AcDbSymbolTableRecord
100
AcDbDimStyleTableRecord
  2
ME10_DIM_19
 70
     0
 41
3.5
 42
0.0
 44
2.0
 73
     0
 74
     0
 77
     1
 78
     8
140
3.5
147
2.0
172
     1
173
     1
174
     1
175
     1
176
     3
177
     3
178
     4
271
     2
340
88
  0
DIMSTYLE
105
15F
102
{ACAD_REACTORS
330
160
102
}
330
A
100
AcDbSymbolTableRecord
100
AcDbDimStyleTableRecord
  2
ME10_DIM_20
 70
     0
 41
3.5
 42
0.0
 44
2.0
 73
     0
 74
     0
 77
     1
 78
     8
140
3.5
147
2.0
172
     1
173
     1
174
     1
175
     1
176
     3
177
     3
178
     4
271
     2
340
88
  0
ENDTAB
  0
TABLE
  2
BLOCK_RECORD
  5
1
330
0
100
AcDbSymbolTable
 70
    18
  0
BLOCK_RECORD
  5
1F
330
1
100
AcDbSymbolTableRecord
100
AcDbBlockTableRecord
  2
*Model_Space
340
22
  0
BLOCK_RECORD
  5
1B
330
1
100
AcDbSymbolTableRecord
100
AcDbBlockTableRecord
  2
*Paper_Space
340
1E
  0
BLOCK_RECORD
  5
23
330
1
100
AcDbSymbolTableRecord
100
AcDbBlockTableRecord
  2
*Paper_Space0
340
26
  0
BLOCK_RECORD
  5
47
330
1
100
AcDbSymbolTableRecord
100
AcDbBlockTableRecord
  2
Mat_-Nr_Tabelle
340
0
102
{BLKREFS
331
7C
102
}
  0
BLOCK_RECORD
  5
4A
330
1
100
AcDbSymbolTableRecord
100
AcDbBlockTableRecord
  2
Untersicht
340
0
102
{BLKREFS
331
7D
102
}
  0
BLOCK_RECORD
  5
4D
330
1
100
AcDbSymbolTableRecord
100
AcDbBlockTableRecord
  2
Vorderansicht
340
0
102
{BLKREFS
331
7E
102
}
  0
BLOCK_RECORD
  5
50
330
1
100
AcDbSymbolTableRecord
100
AcDbBlockTableRecord
  2
ISO_Ansicht
340
0
102
{BLKREFS
331
7F
102
}
  0
BLOCK_RECORD
  5
53
330
1
100
AcDbSymbolTableRecord
100
AcDbBlockTableRecord
  2
a4kl
340
0
102
{BLKREFS
331
79
102
}
  0
BLOCK_RECORD
  5
56
330
1
100
AcDbSymbolTableRecord
100
AcDbBlockTableRecord
  2
Rahmen
340
0
102
{BLKREFS
331
80
102
}
  0
BLOCK_RECORD
  5
B6
330
1
100
AcDbSymbolTableRecord
100
AcDbBlockTableRecord
  2
*D7
340
0
  0
BLOCK_RECORD
  5
C3
330
1
100
AcDbSymbolTableRecord
100
AcDbBlockTableRecord
  2
*D8
340
0
  0
BLOCK_RECORD
  5
D0
330
1
100
AcDbSymbolTableRecord
100
AcDbBlockTableRecord
  2
*D9
340
0
  0
BLOCK_RECORD
  5
DC
330
1
100
AcDbSymbolTableRecord
100
AcDbBlockTableRecord
  2
*D10
340
0
  0
BLOCK_RECORD
  5
E9
330
1
100
AcDbSymbolTableRecord
100
AcDbBlockTableRecord
  2
*D11
340
0
  0
BLOCK_RECORD
  5
F7
330
1
100
AcDbSymbolTableRecord
100
AcDbBlockTableRecord
  2
*D12
340
0
  0
BLOCK_RECORD
  5
103
330
1
100
AcDbSymbolTableRecord
100
AcDbBlockTableRecord
  2
*D13
340
0
  0
BLOCK_RECORD
  5
135
330
1
100
AcDbSymbolTableRecord
100
AcDbBlockTableRecord
  2
*D14
340
0
  0
BLOCK_RECORD
  5
140
330
1
100
AcDbSymbolTableRecord
100
AcDbBlockTableRecord
  2
*D15
340
0
  0
BLOCK_RECORD
  5
14B
330
1
100
AcDbSymbolTableRecord
100
AcDbBlockTableRecord
  2
*D16
340
0
  0
BLOCK_RECORD
  5
156
330
1
100
AcDbSymbolTableRecord
100
AcDbBlockTableRecord
  2
*D17
340
0
  0
ENDTAB
  0
ENDSEC
  0
SECTION
  2
BLOCKS
  0
BLOCK
  5
20
330
1F
100
AcDbEntity
  8
0
100
AcDbBlockBegin
  2
*Model_Space
 70
     0
 10
0.0
 20
0.0
 30
0.0
  3
*Model_Space
  1

  0
ENDBLK
  5
21
330
1F
100
AcDbEntity
  8
0
100
AcDbBlockEnd
  0
BLOCK
  5
1C
330
1B
100
AcDbEntity
 67
     1
  8
0
100
AcDbBlockBegin
  2
*Paper_Space
 70
     0
 10
0.0
 20
0.0
 30
0.0
  3
*Paper_Space
  1

  0
ENDBLK
  5
1D
330
1B
100
AcDbEntity
 67
     1
  8
0
100
AcDbBlockEnd
  0
BLOCK
  5
24
330
23
100
AcDbEntity
  8
0
100
AcDbBlockBegin
  2
*Paper_Space0
 70
     0
 10
0.0
 20
0.0
 30
0.0
  3
*Paper_Space0
  1

  0
ENDBLK
  5
25
330
23
100
AcDbEntity
  8
0
100
AcDbBlockEnd
  0
BLOCK
  5
48
330
47
100
AcDbEntity
  8
0
100
AcDbBlockBegin
  2
Mat_-Nr_Tabelle
 70
     0
 10
154.0
 20
54.0
 30
0.0
  3
Mat_-Nr_Tabelle
  1

  0
LINE
  5
81
330
47
100
AcDbEntity
  8
1
  6
Continuous
 62
     1
100
AcDbLine
 10
116.0
 20
51.0
 30
0.0
 11
192.0
 21
51.0
 31
0.0
  0
LINE
  5
82
330
47
100
AcDbEntity
  8
1
  6
Continuous
 62
     1
100
AcDbLine
 10
116.0
 20
57.0
 30
0.0
 11
116.0
 21
51.0
 31
0.0
  0
LINE
  5
83
330
47
100
AcDbEntity
  8
1
  6
Continuous
 62
     1
100
AcDbLine
 10
161.8514960358699
 20
57.0
 30
0.0
 11
161.8514960358699
 21
51.0
 31
0.0
  0
LINE
  5
84
330
47
100
AcDbEntity
  8
1
  6
Continuous
 62
     1
100
AcDbLine
 10
192.0
 20
57.0
 30
0.0
 11
192.0
 21
51.0
 31
0.0
  0
LINE
  5
85
330
47
100
AcDbEntity
  8
1
  6
Continuous
 62
     1
100
AcDbLine
 10
116.0
 20
57.0
 30
0.0
 11
192.0
 21
57.0
 31
0.0
  0
TEXT
  5
87
330
47
100
AcDbEntity
  8
1
 62
     4
100
AcDbText
 10
118.3999999999999
 20
52.11560015770863
 30
0.0
 40
3.5
  1
GEZE Mat.-Nr.
 41
0.63
  7
CONVERTER_11
100
AcDbText
  0
TEXT
  5
89
330
47
100
AcDbEntity
  8
1
 62
     4
100
AcDbText
 10
169.0044843987789
 20
52.11560015770863
 30
0.0
 40
3.5
  1
115954
 41
0.9
  7
CONVERTER_12
100
AcDbText
  0
ENDBLK
  5
49
330
47
100
AcDbEntity
  8
0
100
AcDbBlockEnd
  0
BLOCK
  5
4B
330
4A
100
AcDbEntity
  8
0
100
AcDbBlockBegin
  2
Untersicht
 70
     0
 10
77.93008411447508
 20
213.5594475186025
 30
0.0
  3
Untersicht
  1

  0
LINE
  5
8A
330
4A
100
AcDbEntity
  8
0
  6
Continuous
 62
     1
100
AcDbLine
 10
114.7157796270751
 20
224.388578762571
 30
0.0
 11
88.60410326937505
 21
224.388578762571
 31
0.0
  0
LINE
  5
8B
330
4A
100
AcDbEntity
  8
0
  6
Continuous
 62
     1
100
AcDbLine
 10
91.00508453167502
 20
223.8885787388711
 30
0.0
 11
91.00508453167502
 21
224.388578762571
 31
0.0
  0
LINE
  5
8C
330
4A
100
AcDbEntity
  8
0
  6
Continuous
 62
     1
100
AcDbLine
 10
133.005083965475
 20
236.888578948871
 30
0.0
 11
133.005083965475
 21
241.888578837071
 31
0.0
  0
LINE
  5
8D
330
4A
100
AcDbEntity
  8
0
  6
Continuous
 62
     1
100
AcDbLine
 10
78.00508426347504
 20
241.888578837071
 30
0.0
 11
78.00508426347504
 21
236.888578948871
 31
0.0
  0
LINE
  5
8E
330
4A
100
AcDbEntity
  8
0
  6
Continuous
 62
     1
100
AcDbLine
 10
121.5050848743751
 20
228.888578568871
 30
0.0
 11
120.449239814975
 21
234.876569216471
 31
0.0
  0
LINE
  5
8F
330
4A
100
AcDbEntity
  8
0
  6
Continuous
 62
     1
100
AcDbLine
 10
90.56092841397502
 20
234.876569216471
 30
0.0
 11
89.5050833544751
 21
228.888578568871
 31
0.0
  0
LINE
  5
90
330
4A
100
AcDbEntity
  8
0
  6
Continuous
 62
     1
100
AcDbLine
 10
79.00508442737508
 20
228.888578568871
 30
0.0
 11
80.00508459127506
 21
228.888578568871
 31
0.0
  0
LINE
  5
91
330
4A
100
AcDbEntity
  8
0
  6
Continuous
 62
     1
100
AcDbLine
 10
88.60410326937505
 20
223.8885787388711
 30
0.0
 11
88.60410326937505
 21
224.388578762571
 31
0.0
  0
LINE
  5
92
330
4A
100
AcDbEntity
  8
0
  6
Continuous
 62
     1
100
AcDbLine
 10
88.60410326937505
 20
223.8885787388711
 30
0.0
 11
80.00508459127506
 21
223.8885787388711
 31
0.0
  0
LINE
  5
93
330
4A
100
AcDbEntity
  8
0
  6
Continuous
 62
     1
100
AcDbLine
 10
80.00508459127506
 20
228.888578568871
 30
0.0
 11
116.084409373175
 21
228.888578568871
 31
0.0
  0
LINE
  5
94
330
4A
100
AcDbEntity
  8
0
  6
Continuous
 62
     1
100
AcDbLine
 10
80.00508459127506
 20
223.8885787388711
 30
0.0
 11
78.00508426347504
 21
223.8885787388711
 31
0.0
  0
LINE
  5
95
330
4A
100
AcDbEntity
  8
0
  6
Continuous
 62
     1
100
AcDbLine
 10
78.00508426347504
 20
223.8885787388711
 30
0.0
 11
78.00508426347504
 21
227.888578870671
 31
0.0
  0
LINE
  5
96
330
4A
100
AcDbEntity
  8
0
  6
Continuous
 62
     1
100
AcDbLine
 10
91.00508453167502
 20
223.8885787388711
 30
0.0
 11
88.60410326937505
 21
223.8885787388711
 31
0.0
  0
LINE
  5
97
330
4A
100
AcDbEntity
  8
0
  6
Continuous
 62
     1
100
AcDbLine
 10
120.005083697275
 20
224.888578786371
 30
0.0
 11
120.005083697275
 21
223.8885787388711
 31
0.0
  0
LINE
  5
98
330
4A
100
AcDbEntity
  8
0
  6
Continuous
 62
     1
100
AcDbLine
 10
125.2550850234751
 20
226.788578876571
 30
0.0
 11
123.1550848654751
 21
228.888578568871
 31
0.0
  0
LINE
  5
99
330
4A
100
AcDbEntity
  8
0
  6
Continuous
 62
     1
100
AcDbLine
 10
125.2550850234751
 20
223.8885787388711
 30
0.0
 11
125.2550850234751
 21
226.788578876571
 31
0.0
  0
LINE
  5
9A
330
4A
100
AcDbEntity
  8
0
  6
Continuous
 62
     1
100
AcDbLine
 10
120.005083697275
 20
223.8885787388711
 30
0.0
 11
125.2550850234751
 21
223.8885787388711
 31
0.0
  0
LINE
  5
9B
330
4A
100
AcDbEntity
  8
0
  6
Continuous
 62
     1
100
AcDbLine
 10
114.842385480475
 20
225.888578775671
 30
0.0
 11
119.0050844646751
 21
225.888578775671
 31
0.0
  0
LINE
  5
9C
330
4A
100
AcDbEntity
  8
0
  6
Continuous
 62
     1
100
AcDbLine
 10
123.1550848654751
 20
228.888578568871
 30
0.0
 11
116.084409373175
 21
228.888578568871
 31
0.0
  0
LINE
  5
9D
330
4A
100
AcDbEntity
  8
0
  6
Continuous
 62
     1
100
AcDbLine
 10
129.7550848296751
 20
226.788578876571
 30
0.0
 11
125.2550850234751
 21
226.788578876571
 31
0.0
  0
LINE
  5
9E
330
4A
100
AcDbEntity
  8
0
  6
Continuous
 62
     1
100
AcDbLine
 10
131.8550849876751
 20
228.888578568871
 30
0.0
 11
129.7550848296751
 21
226.788578876571
 31
0.0
  0
LINE
  5
9F
330
4A
100
AcDbEntity
  8
0
  6
Continuous
 62
     1
100
AcDbLine
 10
131.8550849876751
 20
228.888578568871
 30
0.0
 11
123.1550848654751
 21
228.888578568871
 31
0.0
  0
LINE
  5
A0
330
4A
100
AcDbEntity
  8
0
  6
Continuous
 62
     1
100
AcDbLine
 10
129.7550848296751
 20
223.8885787388711
 30
0.0
 11
125.2550850234751
 21
223.8885787388711
 31
0.0
  0
LINE
  5
A1
330
4A
100
AcDbEntity
  8
0
  6
Continuous
 62
     1
100
AcDbLine
 10
129.7550848296751
 20
226.788578876571
 30
0.0
 11
129.7550848296751
 21
223.8885787388711
 31
0.0
  0
LINE
  5
A2
330
4A
100
AcDbEntity
  8
0
  6
Continuous
 62
     1
100
AcDbLine
 10
129.7550848296751
 20
223.8885787388711
 30
0.0
 11
133.005083965475
 21
223.8885787388711
 31
0.0
  0
LINE
  5
A3
330
4A
100
AcDbEntity
  8
0
  6
Continuous
 62
     1
100
AcDbLine
 10
133.005083965475
 20
227.888578870671
 30
0.0
 11
133.005083965475
 21
223.8885787388711
 31
0.0
  0
LINE
  5
A4
330
4A
100
AcDbEntity
  8
0
  6
Continuous
 62
     1
100
AcDbLine
 10
114.7157796270751
 20
224.388578762571
 30
0.0
 11
120.005083697275
 21
224.388578762571
 31
0.0
  0
LINE
  5
A5
330
4A
100
AcDbEntity
  8
0
  6
Continuous
 62
     1
100
AcDbLine
 10
105.505084114475
 20
236.888578948871
 30
0.0
 11
133.005083965475
 21
236.888578948871
 31
0.0
  0
LINE
  5
A6
330
4A
100
AcDbEntity
  8
0
  6
Continuous
 62
     1
100
AcDbLine
 10
78.00508426347504
 20
236.888578948871
 30
0.0
 11
105.505084114475
 21
236.888578948871
 31
0.0
  0
LINE
  5
A7
330
4A
100
AcDbEntity
  8
0
  6
Continuous
 62
     1
100
AcDbLine
 10
105.505084114475
 20
241.888578837071
 30
0.0
 11
133.005083965475
 21
241.888578837071
 31
0.0
  0
LINE
  5
A8
330
4A
100
AcDbEntity
  8
0
  6
Continuous
 62
     1
100
AcDbLine
 10
78.00508426347504
 20
241.888578837071
 30
0.0
 11
105.505084114475
 21
241.888578837071
 31
0.0
  0
LINE
  5
A9
330
4A
100
AcDbEntity
  8
1
  6
DOT_CENTER
 62
     3
100
AcDbLine
 10
127.5050849265751
 20
229.674753689933
 30
0.0
 11
127.5050849265751
 21
223.3885787388711
 31
0.0
  0
LINE
  5
AA
330
4A
100
AcDbEntity
  8
1
  6
DOT_CENTER
 62
     3
100
AcDbLine
 10
105.505084114475
 20
222.622381690933
 30
0.0
 11
105.505084114475
 21
243.171312666226
 31
0.0
  0
ARC
  5
AB
330
4A
100
AcDbEntity
  8
0
  6
Continuous
 62
     1
100
AcDbCircle
 10
92.530543821975
 20
234.529272431471
 30
0.0
 40
1.999999999999749
100
AcDbArc
 50
94.58535964119974
 51
169.9999999999952
  0
ARC
  5
AC
330
4A
100
AcDbEntity
  8
0
  6
Continuous
 62
     1
100
AcDbCircle
 10
118.4796244069751
 20
234.529272431471
 30
0.0
 40
1.999999999999517
100
AcDbArc
 50
10.00000000000677
 51
85.41464035880796
  0
ARC
  5
AD
330
4A
100
AcDbEntity
  8
0
  6
Continuous
 62
     1
100
AcDbCircle
 10
109.505084114475
 20
122.628555058071
 30
0.0
 40
114.2600237045369
100
AcDbArc
 50
85.41464035875993
 51
90.0
  0
ARC
  5
AE
330
4A
100
AcDbEntity
  8
0
  6
Continuous
 62
     1
100
AcDbCircle
 10
101.505084114475
 20
122.628555058071
 30
0.0
 40
114.2600237045511
100
AcDbArc
 50
90.0
 51
94.58535964124015
  0
ARC
  5
AF
330
4A
100
AcDbEntity
  8
0
  6
Continuous
 62
     1
100
AcDbCircle
 10
79.00508411447508
 20
227.888578762571
 30
0.0
 40
1.0
100
AcDbArc
 50
90.0
 51
180.0
  0
ARC
  5
B0
330
4A
100
AcDbEntity
  8
0
  6
Continuous
 62
     1
100
AcDbCircle
 10
119.005084114475
 20
224.888578762571
 30
0.0
 40
1.0
100
AcDbArc
 50
0.0
 51
90.0
  0
ARC
  5
B1
330
4A
100
AcDbEntity
  8
0
  6
Continuous
 62
     1
100
AcDbCircle
 10
132.005084114475
 20
227.888578762571
 30
0.0
 40
1.0
100
AcDbArc
 50
0.0
 51
90.0
  0
SPLINE
  5
B2
330
4A
100
AcDbEntity
  8
0
  6
Continuous
 62
     1
100
AcDbSpline
210
0.0
220
0.0
230
1.0
 70
     8
 71
     3
 72
     9
 73
     5
 74
     3
 42
0.0000000001
 43
0.0000000001
 44
0.00000001
 40
0.0
 40
0.0
 40
0.0
 40
0.0
 40
1.860208088366798
 40
3.614995436310513
 40
3.614995436310513
 40
3.614995436310513
 40
3.614995436310513
 10
115.5132962015341
 20
227.888578762693
 30
0.0
 10
115.2703453933168
 20
227.3120359048398
 30
0.0
 10
114.7982121580911
 20
226.1916237246055
 30
0.0
 10
114.7427178541937
 20
224.9777944933281
 30
0.0
 10
114.7157798665592
 20
224.3885787625929
 30
0.0
 11
115.5132962015341
 21
227.888578762693
 31
0.0
 11
114.8947671161674
 21
226.1342139481288
 31
0.0
 11
114.7157798665592
 21
224.3885787625929
 31
0.0
  0
SPLINE
  5
B3
330
4A
100
AcDbEntity
  8
0
  6
Continuous
 62
     1
100
AcDbSpline
210
0.0
220
0.0
230
1.0
 70
     8
 71
     3
 72
    15
 73
    11
 74
     9
 42
0.0000000001
 43
0.0000000001
 44
0.00000001
 40
0.0
 40
0.0
 40
0.0
 40
0.0
 40
0.0268036782096831
 40
0.1027903897893832
 40
0.2206641058110561
 40
0.3714251860613098
 40
0.5461834751126049
 40
0.7389567650714557
 40
0.9426706342801345
 40
1.152543874301748
 40
1.152543874301748
 40
1.152543874301748
 40
1.152543874301748
 10
116.0844090579931
 20
228.888578762599
 30
0.0
 10
116.079424830195
 20
228.8811636299708
 30
0.0
 10
116.0603106357116
 20
228.8527270711066
 30
0.0
 10
116.0199129818701
 20
228.7912567874001
 30
0.0
 10
115.957852215075
 20
228.6945859992287
 30
0.0
 10
115.8801869197355
 20
228.5688279466818
 30
0.0
 10
115.7924450740609
 20
228.4199860515731
 30
0.0
 10
115.6994987713262
 20
228.2537812974981
 30
0.0
 10
115.6048367594286
 20
228.0751637079706
 30
0.0
 10
115.5441111739726
 20
227.9513881892293
 30
0.0
 10
115.5132962015341
 20
227.888578762693
 30
0.0
 11
116.0844090579931
 21
228.888578762599
 31
0.0
 11
116.0694765043525
 21
228.866319921494
 31
0.0
 11
116.0276703955601
 21
228.802867343892
 31
0.0
 11
115.9640293015902
 21
228.7036502884677
 31
0.0
 11
115.8848002428655
 21
228.5753862655625
 31
0.0
 11
115.7960417740023
 21
228.4248459261275
 31
0.0
 11
115.7018968420556
 21
228.2566250204401
 31
0.0
 11
115.6067303389736
 21
228.0765065116767
 31
0.0
 11
115.5132962015341
 21
227.888578762693
 31
0.0
  0
DIMENSION
  5
C2
330
4A
100
AcDbEntity
  8
1
100
AcDbDimension
  2
*D7
 10
68.00508426347504
 20
236.888578948871
 30
0.0
 11
64.25508426347504
 21
239.388578892971
 31
0.0
 70
    32
  1
<>
 71
     5
 42
-1.0
 53
90.0
  3
ME10_DIM_10
100
AcDbAlignedDimension
 13
78.00508426347504
 23
241.888578837071
 33
0.0
 14
78.00508426347504
 24
236.888578948871
 34
0.0
 50
90.0
100
AcDbRotatedDimension
  0
DIMENSION
  5
CF
330
4A
100
AcDbEntity
  8
1
100
AcDbDimension
  2
*D8
 10
125.2550850234751
 20
215.8885787388711
 30
0.0
 11
116.005083697275
 21
219.6385787388711
 31
0.0
 70
    32
  1
<>
 71
     5
 42
-1.0
 53
0.00013888888889
  3
ME10_DIM_11
100
AcDbAlignedDimension
 13
129.7550848296751
 23
226.788578876571
 33
0.0
 14
125.2550850234751
 24
226.788578876571
 34
0.0
100
AcDbRotatedDimension
  0
DIMENSION
  5
DB
330
4A
100
AcDbEntity
  8
1
100
AcDbDimension
  2
*D9
 10
78.00508426347504
 20
258.888578837071
 30
0.0
 11
104.335921923657
 21
262.638578837071
 31
0.0
 70
    32
  1
<>
 71
     5
 42
-1.0
 53
0.00013888888889
  3
ME10_DIM_12
100
AcDbAlignedDimension
 13
133.005083965475
 23
241.888578837071
 33
0.0
 14
78.00508426347504
 24
241.888578837071
 34
0.0
100
AcDbRotatedDimension
  0
DIMENSION
  5
E8
330
4A
100
AcDbEntity
  8
1
100
AcDbDimension
  2
*D10
 10
144.063855142558
 20
228.888578568871
 30
0.0
 11
140.313855142558
 21
235.950102450831
 31
0.0
 70
    32
  1
<>
 71
     5
 42
-1.0
 53
90.0
  3
ME10_DIM_13
100
AcDbAlignedDimension
 13
125.2550850234751
 23
226.788578876571
 33
0.0
 14
123.1550848654751
 24
228.888578568871
 34
0.0
 50
90.0
100
AcDbRotatedDimension
  0
DIMENSION
  5
F6
330
4A
100
AcDbEntity
  8
1
100
AcDbDimension
  2
*D11
 10
152.063855142558
 20
223.888578738871
 30
0.0
 11
148.313855142558
 21
226.23411327305
 31
0.0
 70
    32
  1
<>
 71
     5
 42
-1.0
 53
90.0
  3
ME10_DIM_14
100
AcDbAlignedDimension
 13
132.005084114475
 23
228.888578762571
 33
0.0
 14
133.005083965475
 24
223.8885787388711
 34
0.0
 50
90.0
100
AcDbRotatedDimension
  0
DIMENSION
  5
102
330
4A
100
AcDbEntity
  8
1
100
AcDbDimension
  2
*D12
 10
160.063855142558
 20
223.888578738871
 30
0.0
 11
156.313855142558
 21
231.888578762571
 31
0.0
 70
    32
  1
<>
 71
     5
 42
-1.0
 53
90.0
  3
ME10_DIM_15
100
AcDbAlignedDimension
 13
133.005083965475
 23
241.888578837071
 33
0.0
 14
129.7550848296751
 24
223.8885787388711
 34
0.0
 50
90.0
100
AcDbRotatedDimension
  0
DIMENSION
  5
111
330
4A
100
AcDbEntity
  8
1
100
AcDbDimension
  2
*D13
 10
127.5050849265754
 20
250.244376786167
 30
0.0
 11
127.5025878778186
 21
253.9943766803261
 31
0.0
 70
    37
  1
<>
 71
     5
 42
-1.0
  3
ME10_DIM_16
100
AcDb3PointAngularDimension
 13
131.8550849876751
 23
228.888578568871
 33
0.0
 14
125.2550850234751
 24
226.788578876571
 34
0.0
 15
127.505084926575
 25
224.5385794724353
 35
0.0
  0
HATCH
  5
112
330
4A
100
AcDbEntity
  8
0
  6
Continuous
 62
     3
100
AcDbHatch
 10
0.0
 20
0.0
 30
0.0
210
0.0
220
0.0
230
1.0
  2
CUSTOM0
 70
     0
 71
     0
 91
        1
 92
        1
 93
       13
 72
     1
 10
129.755084114475
 20
226.788578762571
 11
129.755084114475
 21
223.888578762571
 72
     1
 10
129.755084114475
 20
223.888578762571
 11
133.0050841144591
 21
223.888578762599
 72
     1
 10
133.0050841144591
 20
223.888578762599
 11
133.005084114475
 21
227.888578762571
 72
     1
 10
133.005084114475
 20
227.888578762571
 11
132.9851506923001
 21
228.087248093394
 72
     1
 10
132.9851506923001
 20
228.087248093394
 11
132.9261451084622
 21
228.2779971049069
 72
     1
 10
132.9261451084622
 20
228.2779971049069
 11
132.830419729368
 21
228.453221235994
 72
     1
 10
132.830419729368
 20
228.453221235994
 11
132.7017908238061
 21
228.605934853498
 72
     1
 10
132.7017908238061
 20
228.605934853498
 11
132.5453864203271
 21
228.730049747406
 72
     1
 10
132.5453864203271
 20
228.730049747406
 11
132.3674418689351
 21
228.820617848566
 72
     1
 10
132.3674418689351
 20
228.820617848566
 11
132.1750512573591
 21
228.8740284925871
 72
     1
 10
132.1750512573591
 20
228.8740284925871
 11
132.005084114475
 21
228.888578762571
 72
     1
 10
132.005084114475
 20
228.888578762571
 11
131.855084114459
 21
228.888578762599
 72
     1
 10
131.855084114459
 20
228.888578762599
 11
129.755084114475
 21
226.788578762571
 97
        0
 75
     1
 76
     2
 52
0.0
 41
0.25
 77
     0
 78
     2
 53
134.9999999999997
 43
0.0
 44
0.0
 45
-0.0000000000000056
 46
-1.122532015133644
 79
     0
 53
44.99999999999998
 43
0.0
 44
0.0
 45
-1.122532015133644
 46
0.0000000000000004
 79
     0
 98
        1
 10
0.0
 20
0.0
  0
HATCH
  5
113
330
4A
100
AcDbEntity
  8
0
  6
Continuous
 62
     3
100
AcDbHatch
 10
0.0
 20
0.0
 30
0.0
210
0.0
220
0.0
230
1.0
  2
CUSTOM1
 70
     0
 71
     0
 91
        2
 92
        1
 93
       19
 72
     1
 10
123.1550841144591
 20
228.888578762599
 11
116.0844090579931
 21
228.888578762599
 72
     1
 10
116.0844090579931
 20
228.888578762599
 11
115.7437338874771
 21
228.332545309428
 72
     1
 10
115.7437338874771
 20
228.332545309428
 11
115.446093508732
 21
227.745685503362
 72
     1
 10
115.446093508732
 20
227.745685503362
 11
115.1945883227851
 21
227.1368424239711
 72
     1
 10
115.1945883227851
 20
227.1368424239711
 11
114.9923187305121
 21
226.514859150602
 72
     1
 10
114.9923187305121
 20
226.514859150602
 11
114.8423851327891
 21
225.8885787625979
 72
     1
 10
114.8423851327891
 20
225.8885787625979
 11
119.005084114475
 21
225.888578762571
 72
     1
 10
119.005084114475
 20
225.888578762571
 11
119.203753445254
 21
225.86864534044
 72
     1
 10
119.203753445254
 20
225.86864534044
 11
119.3945024567671
 21
225.809639756601
 72
     1
 10
119.3945024567671
 20
225.809639756601
 11
119.5697265878541
 21
225.713914377508
 72
     1
 10
119.5697265878541
 20
225.713914377508
 11
119.7224402053581
 21
225.585285471946
 72
     1
 10
119.7224402053581
 20
225.585285471946
 11
119.8465550992671
 21
225.428881068467
 72
     1
 10
119.8465550992671
 20
225.428881068467
 11
119.9371232004261
 21
225.2509365170749
 72
     1
 10
119.9371232004261
 20
225.2509365170749
 11
119.9905338444471
 21
225.0585459054991
 72
     1
 10
119.9905338444471
 20
225.0585459054991
 11
120.005084114475
 21
224.888578762571
 72
     1
 10
120.005084114475
 20
224.888578762571
 11
120.0050841144591
 21
223.888578762599
 72
     1
 10
120.0050841144591
 20
223.888578762599
 11
125.255084114475
 21
223.888578762571
 72
     1
 10
125.255084114475
 20
223.888578762571
 11
125.2550841144591
 21
226.788578762598
 72
     1
 10
125.2550841144591
 20
226.788578762598
 11
123.1550841144591
 21
228.888578762599
 97
        0
 92
       16
 93
        4
 72
     1
 10
110.711333697275
 20
217.5385787388711
 11
121.298833697275
 21
217.5385787388711
 72
     1
 10
121.298833697275
 20
217.5385787388711
 11
121.298833697275
 21
221.7385787388711
 72
     1
 10
121.298833697275
 20
221.7385787388711
 11
110.711333697275
 21
221.7385787388711
 72
     1
 10
110.711333697275
 20
221.7385787388711
 11
110.711333697275
 21
217.5385787388711
 97
        0
 75
     1
 76
     2
 52
0.0
 41
0.25
 77
     0
 78
     2
 53
134.9999999999997
 43
0.0
 44
0.0
 45
-0.0000000000000056
 46
-1.122532015133644
 79
     0
 53
44.99999999999998
 43
0.0
 44
0.0
 45
-1.122532015133644
 46
0.0000000000000004
 79
     0
 98
        1
 10
0.0
 20
0.0
  0
ENDBLK
  5
4C
330
4A
100
AcDbEntity
  8
0
100
AcDbBlockEnd
  0
BLOCK
  5
4E
330
4D
100
AcDbEntity
  8
0
100
AcDbBlockBegin
  2
Vorderansicht
 70
     0
 10
75.505084263475
 20
120.0441180731315
 30
0.0
  3
Vorderansicht
  1

  0
LWPOLYLINE
  5
114
330
4D
100
AcDbEntity
  8
0
  6
Continuous
 62
     1
100
AcDbPolyline
 90
        2
 70
     0
 43
0.15
 10
80.00508474027492
 20
191.6130871676
 10
132.005083950575
 20
191.6130871676
  0
LWPOLYLINE
  5
115
330
4D
100
AcDbEntity
  8
0
  6
Continuous
 62
     1
100
AcDbPolyline
 90
        2
 70
     0
 43
0.15
 10
133.005084114475
 20
190.6130870037
 10
133.005084114475
 20
138.6130877934
  0
LWPOLYLINE
  5
116
330
4D
100
AcDbEntity
  8
0
  6
Continuous
 62
     1
100
AcDbPolyline
 90
        2
 70
     0
 43
0.15
 10
78.00508441247496
 20
138.6130877934
 10
78.00508441247496
 20
189.6130868397
  0
LWPOLYLINE
  5
117
330
4D
100
AcDbEntity
  8
0
  6
Continuous
 62
     1
100
AcDbPolyline
 90
        2
 70
     0
 43
0.15
 10
123.274411650675
 20
143.1249712758
 10
123.195601271775
 20
142.7054123185
  0
LWPOLYLINE
  5
118
330
4D
100
AcDbEntity
  8
0
  6
Continuous
 62
     1
100
AcDbPolyline
 90
        2
 70
     0
 43
0.15
 10
123.195601271775
 20
142.7054123185
 10
123.1550850144749
 20
142.1130874358
  0
LWPOLYLINE
  5
119
330
4D
100
AcDbEntity
  8
0
  6
Continuous
 62
     1
100
AcDbPolyline
 90
        2
 70
     0
 43
0.15
 10
123.1550850144749
 20
186.1130871974
 10
123.195601271775
 20
185.5207623146
  0
LWPOLYLINE
  5
11A
330
4D
100
AcDbEntity
  8
0
  6
Continuous
 62
     1
100
AcDbPolyline
 90
        2
 70
     0
 43
0.15
 10
123.195601271775
 20
185.5207623146
 10
123.274411650675
 20
185.1012033574
  0
LWPOLYLINE
  5
11B
330
4D
100
AcDbEntity
  8
0
  6
Continuous
 62
     1
100
AcDbPolyline
 90
        2
 70
     0
 43
0.15
 10
131.0050842634751
 20
136.6130873166
 10
80.00508426347506
 20
136.6130873166
  0
LINE
  5
11C
330
4D
100
AcDbEntity
  8
1
  6
DOT_CENTER
 62
     3
100
AcDbLine
 10
132.3550842634751
 20
186.1130873166001
 30
0.0
 11
122.655084263475
 21
186.1130873166001
 31
0.0
  0
LINE
  5
11D
330
4D
100
AcDbEntity
  8
1
  6
DOT_CENTER
 62
     3
100
AcDbLine
 10
127.5050842634751
 20
190.9630873166001
 30
0.0
 11
127.5050842634751
 21
181.2630873166
 31
0.0
  0
LINE
  5
11E
330
4D
100
AcDbEntity
  8
1
  6
DOT_CENTER
 62
     3
100
AcDbLine
 10
88.35508426347513
 20
186.1130873166001
 30
0.0
 11
78.65508426347498
 21
186.1130873166001
 31
0.0
  0
LINE
  5
11F
330
4D
100
AcDbEntity
  8
1
  6
DOT_CENTER
 62
     3
100
AcDbLine
 10
83.50508426347506
 20
190.9630873166001
 30
0.0
 11
83.50508426347506
 21
181.2630873166
 31
0.0
  0
LINE
  5
120
330
4D
100
AcDbEntity
  8
1
  6
DOT_CENTER
 62
     3
100
AcDbLine
 10
88.35508426347491
 20
142.1130873166
 30
0.0
 11
78.6550842634752
 21
142.1130873166
 31
0.0
  0
LINE
  5
121
330
4D
100
AcDbEntity
  8
1
  6
DOT_CENTER
 62
     3
100
AcDbLine
 10
83.50508426347506
 20
146.9630873165999
 30
0.0
 11
83.50508426347506
 21
137.2630873166002
 31
0.0
  0
LINE
  5
122
330
4D
100
AcDbEntity
  8
1
  6
DOT_CENTER
 62
     3
100
AcDbLine
 10
132.3550842634749
 20
142.1130873166
 30
0.0
 11
122.6550842634753
 21
142.1130873166
 31
0.0
  0
LINE
  5
123
330
4D
100
AcDbEntity
  8
1
  6
DOT_CENTER
 62
     3
100
AcDbLine
 10
127.5050842634751
 20
146.9630873165998
 30
0.0
 11
127.5050842634751
 21
137.2630873166002
 31
0.0
  0
LINE
  5
124
330
4D
100
AcDbEntity
  8
1
  6
DOT_CENTER
 62
     3
100
AcDbLine
 10
133.5050842634751
 20
164.1130873166
 30
0.0
 11
77.50508426347506
 21
164.1130873166
 31
0.0
  0
LINE
  5
125
330
4D
100
AcDbEntity
  8
1
  6
DOT_CENTER
 62
     3
100
AcDbLine
 10
105.5050842634751
 20
192.1130873166
 30
0.0
 11
105.5050842634751
 21
136.1130873166
 31
0.0
  0
LWPOLYLINE
  5
126
330
4D
100
AcDbEntity
  8
0
  6
Continuous
 62
     1
100
AcDbPolyline
 90
        2
 70
     0
 43
0.15
 10
80.00508426347506
 20
191.6130873166001
 42
0.4142135623731
 10
78.005084263475
 20
189.6130873166001
 42
0.4142135623731
  0
LWPOLYLINE
  5
127
330
4D
100
AcDbEntity
  8
0
  6
Continuous
 62
     1
100
AcDbPolyline
 90
        2
 70
     0
 43
0.15
 10
133.0050842634751
 20
190.6130873166001
 42
0.4142135623731
 10
132.0050842634751
 20
191.6130873166001
 42
0.4142135623731
  0
LWPOLYLINE
  5
128
330
4D
100
AcDbEntity
  8
0
  6
Continuous
 62
     1
100
AcDbPolyline
 90
        2
 70
     0
 43
0.15
 10
79.15508426347498
 20
142.1130873166
 42
1.12485524732979
 10
87.73575681386012
 20
143.124971584398
 42
1.12485524732979
  0
LWPOLYLINE
  5
129
330
4D
100
AcDbEntity
  8
0
  6
Continuous
 62
     1
100
AcDbPolyline
 90
        2
 70
     0
 43
0.15
 10
84.51696853127339
 20
146.343759866985
 42
0.48477181034359
 10
79.15508426347498
 20
142.1130873166
 42
0.48477181034359
  0
LWPOLYLINE
  5
12A
330
4D
100
AcDbEntity
  8
0
  6
Continuous
 62
     1
100
AcDbPolyline
 90
        2
 70
     0
 43
0.15
 10
79.15508426347498
 20
186.1130873166001
 42
0.48477181034359
 10
84.51696853127339
 20
181.882414766215
 42
0.48477181034359
  0
LWPOLYLINE
  5
12B
330
4D
100
AcDbEntity
  8
0
  6
Continuous
 62
     1
100
AcDbPolyline
 90
        2
 70
     0
 43
0.15
 10
87.73575681386012
 20
185.101203048802
 42
1.1248552473298
 10
79.15508426347498
 20
186.1130873166001
 42
1.1248552473298
  0
LWPOLYLINE
  5
12C
330
4D
100
AcDbEntity
  8
0
  6
Continuous
 62
     1
100
AcDbPolyline
 90
        2
 70
     0
 43
0.15
 10
123.155084263475
 20
142.1130873166
 42
2.88177518263056
 10
126.4931999956771
 20
146.343759866985
 42
2.88177518263056
  0
LWPOLYLINE
  5
12D
330
4D
100
AcDbEntity
  8
0
  6
Continuous
 62
     1
100
AcDbPolyline
 90
        2
 70
     0
 43
0.15
 10
126.4931999956771
 20
181.882414766215
 42
2.88177518263055
 10
123.155084263475
 20
186.1130873166001
 42
2.88177518263055
  0
LWPOLYLINE
  5
12E
330
4D
100
AcDbEntity
  8
0
  6
Continuous
 62
     1
100
AcDbPolyline
 90
        2
 70
     0
 43
0.15
 10
131.0050842634751
 20
136.6130873166
 42
0.4142135623731
 10
133.0050842634751
 20
138.6130873166
 42
0.4142135623731
  0
LWPOLYLINE
  5
12F
330
4D
100
AcDbEntity
  8
0
  6
Continuous
 62
     1
100
AcDbPolyline
 90
        2
 70
     0
 43
0.15
 10
78.005084263475
 20
138.6130873166
 42
0.4142135623731
 10
80.00508426347506
 20
136.6130873166
 42
0.4142135623731
  0
LWPOLYLINE
  5
130
330
4D
100
AcDbEntity
  8
0
  6
Continuous
 62
     1
100
AcDbPolyline
 90
        2
 70
     1
 43
0.15
 10
81.25508426347506
 20
186.1130873166001
 42
1.0
 10
85.75508426347506
 20
186.1130873166001
 42
1.0
  0
LWPOLYLINE
  5
131
330
4D
100
AcDbEntity
  8
0
  6
Continuous
 62
     1
100
AcDbPolyline
 90
        2
 70
     1
 43
0.15
 10
125.2550842634751
 20
186.1130873166001
 42
1.0
 10
129.7550842634751
 20
186.1130873166001
 42
1.0
  0
LWPOLYLINE
  5
132
330
4D
100
AcDbEntity
  8
0
  6
Continuous
 62
     1
100
AcDbPolyline
 90
        2
 70
     1
 43
0.15
 10
81.25508426347506
 20
142.1130873166
 42
1.0
 10
85.75508426347506
 20
142.1130873166
 42
1.0
  0
LWPOLYLINE
  5
133
330
4D
100
AcDbEntity
  8
0
  6
Continuous
 62
     1
100
AcDbPolyline
 90
        2
 70
     1
 43
0.15
 10
125.2550842634751
 20
142.1130873166
 42
1.0
 10
129.7550842634751
 20
142.1130873166
 42
1.0
  0
LWPOLYLINE
  5
134
330
4D
100
AcDbEntity
  8
0
  6
Continuous
 62
     1
100
AcDbPolyline
 90
        2
 70
     1
 43
0.15
 10
78.00508426347508
 20
164.1130873166
 42
1.0
 10
133.0050842634751
 20
164.1130873166
 42
1.0
  0
DIMENSION
  5
13F
330
4D
100
AcDbEntity
  8
1
100
AcDbDimension
  2
*D14
 10
143.005084114475
 20
186.1130873166
 30
0.0
 11
139.255084114475
 21
164.61308739855
 31
0.0
 70
    32
  1
<>
 71
     5
 42
-1.0
 53
90.0
  3
ME10_DIM_17
100
AcDbAlignedDimension
 13
132.3550842634749
 23
142.1130873166
 33
0.0
 14
132.3550842634751
 24
186.1130873166001
 34
0.0
 50
90.0
100
AcDbRotatedDimension
  0
DIMENSION
  5
14A
330
4D
100
AcDbEntity
  8
1
100
AcDbDimension
  2
*D15
 10
151.005084114475
 20
191.6130871676
 30
0.0
 11
147.255084114475
 21
164.61308739855
 31
0.0
 70
    32
  1
<>
 71
     5
 42
-1.0
 53
90.0
  3
ME10_DIM_18
100
AcDbAlignedDimension
 13
131.0050842634751
 23
136.6130873166
 33
0.0
 14
132.005083950575
 24
191.6130871676
 34
0.0
 50
90.0
100
AcDbRotatedDimension
  0
DIMENSION
  5
155
330
4D
100
AcDbEntity
  8
1
100
AcDbDimension
  2
*D16
 10
83.5050842634751
 20
126.6130873166
 30
0.0
 11
105.5050842634751
 21
130.3630873166
 31
0.0
 70
    32
  1
<>
 71
     5
 42
-1.0
 53
0.00013888888889
  3
ME10_DIM_19
100
AcDbAlignedDimension
 13
127.5050842634751
 23
137.2630873166002
 33
0.0
 14
83.50508426347506
 24
137.2630873166002
 34
0.0
100
AcDbRotatedDimension
  0
DIMENSION
  5
160
330
4D
100
AcDbEntity
  8
1
100
AcDbDimension
  2
*D17
 10
78.005084412475
 20
118.6130873166
 30
0.0
 11
106.0202619762141
 21
122.3630873166
 31
0.0
 70
    32
  1
<>
 71
     5
 42
-1.0
 53
0.00013888888889
  3
ME10_DIM_20
100
AcDbAlignedDimension
 13
133.005084114475
 23
138.6130877934
 33
0.0
 14
78.00508441247496
 24
138.6130877934
 34
0.0
100
AcDbRotatedDimension
  0
ENDBLK
  5
4F
330
4D
100
AcDbEntity
  8
0
100
AcDbBlockEnd
  0
BLOCK
  5
51
330
50
100
AcDbEntity
  8
0
100
AcDbBlockBegin
  2
ISO_Ansicht
 70
     0
 10
30.31386642442333
 20
59.84240148163617
 30
0.0
  3
ISO_Ansicht
  1

  0
LWPOLYLINE
  5
161
330
50
100
AcDbEntity
  8
0
  6
Continuous
 62
     3
100
AcDbPolyline
 90
        2
 70
     0
 43
0.15
 10
98.66999737592334
 20
70.63126724737782
 10
72.28391200862325
 20
62.61367582987782
  0
LWPOLYLINE
  5
162
330
50
100
AcDbEntity
  8
0
  6
Continuous
 62
     3
100
AcDbPolyline
 90
        2
 70
     0
 43
0.15
 10
72.37719002082332
 20
62.56212672767782
 10
72.37529525272333
 20
62.6414435261778
  0
LWPOLYLINE
  5
163
330
50
100
AcDbEntity
  8
0
  6
Continuous
 62
     3
100
AcDbPolyline
 90
        2
 70
     0
 43
0.15
 10
106.5493340694234
 20
72.72735368067782
 10
106.4599724474233
 20
76.46811627697781
  0
LWPOLYLINE
  5
164
330
50
100
AcDbEntity
  8
0
  6
Continuous
 62
     3
100
AcDbPolyline
 90
        2
 70
     0
 43
0.15
 10
105.8482886807233
 20
77.36588000767779
 10
93.60557742222329
 20
82.52032378117781
  0
LWPOLYLINE
  5
165
330
50
100
AcDbEntity
  8
0
  6
Continuous
 62
     3
100
AcDbPolyline
 90
        2
 70
     0
 43
0.15
 10
30.38889266772333
 20
77.73733844297783
 10
30.47825428972328
 20
73.9965758465778
  0
LWPOLYLINE
  5
166
330
50
100
AcDbEntity
  8
0
  6
Continuous
 62
     3
100
AcDbPolyline
 90
        2
 70
     0
 43
0.15
 10
41.75046039202334
 20
82.12777113487778
 10
31.4729695723953
 20
79.0048856806157
  0
LWPOLYLINE
  5
167
330
50
100
AcDbEntity
  8
0
  6
Continuous
 62
     3
100
AcDbPolyline
 90
        2
 70
     0
 43
0.15
 10
95.51276782222328
 20
86.20102624957781
 10
95.40106580092333
 20
90.87697923637779
  0
LWPOLYLINE
  5
168
330
50
100
AcDbEntity
  8
0
  6
Continuous
 62
     3
100
AcDbPolyline
 90
        2
 70
     0
 43
0.15
 10
40.41675284422331
 20
89.56348008767782
 10
40.5284548656233
 20
84.88752710087783
  0
LWPOLYLINE
  5
169
330
50
100
AcDbEntity
  8
0
  6
Continuous
 62
     3
100
AcDbPolyline
 90
        2
 70
     0
 43
0.15
 10
62.77215904112683
 20
60.15802460079442
 10
62.68279741912681
 20
63.89878719709429
  0
LWPOLYLINE
  5
16A
330
50
100
AcDbEntity
  8
0
  6
Continuous
 62
     3
100
AcDbPolyline
 90
        2
 70
     0
 43
0.15
 10
65.49325688723059
 20
63.84721536599562
 10
65.58261850923361
 20
60.10645276967148
  0
LWPOLYLINE
  5
16B
330
50
100
AcDbEntity
  8
0
  6
Continuous
 62
     3
100
AcDbPolyline
 90
        2
 70
     0
 43
0.15
 10
64.84629499129619
 20
65.04538473694782
 10
105.4379159993233
 20
77.37942473137781
  0
LWPOLYLINE
  5
16C
330
50
100
AcDbEntity
  8
0
  6
Continuous
 62
     3
100
AcDbPolyline
 90
        2
 70
     0
 43
0.15
 10
106.0848778952303
 20
76.18125536049558
 10
65.49325688723059
 20
63.84721536599562
  0
LWPOLYLINE
  5
16D
330
50
100
AcDbEntity
  8
0
  6
Continuous
 62
     3
100
AcDbPolyline
 90
        2
 70
     0
 43
0.15
 10
31.58537467962333
 20
78.48309898117782
 10
63.44106525724243
 20
65.07117065250918
  0
LWPOLYLINE
  5
16E
330
50
100
AcDbEntity
  8
0
  6
Continuous
 62
     3
100
AcDbPolyline
 90
        2
 70
     0
 43
0.15
 10
57.40102799402331
 20
62.41938586287779
 10
57.38985779112329
 20
62.88698119417779
  0
LWPOLYLINE
  5
16F
330
50
100
AcDbEntity
  8
0
  6
Continuous
 62
     3
100
AcDbPolyline
 90
        2
 70
     0
 43
0.15
 10
72.29508221162331
 20
62.14608049847777
 10
72.28391200862325
 20
62.61367582987782
  0
LWPOLYLINE
  5
170
330
50
100
AcDbEntity
  8
0
  6
Continuous
 62
     3
100
AcDbPolyline
 90
        2
 70
     0
 43
0.15
 10
62.68279741912681
 20
63.89878719709429
 10
30.82710684162328
 20
77.31071552577782
  0
LWPOLYLINE
  5
171
330
50
100
AcDbEntity
  8
0
  6
Continuous
 62
     3
100
AcDbPolyline
 90
        2
 70
     0
 43
0.15
 10
106.1742395172233
 20
72.4404927641778
 10
98.6811675788233
 20
70.16367191607782
  0
LWPOLYLINE
  5
172
330
50
100
AcDbEntity
  8
0
  6
Continuous
 62
     3
100
AcDbPolyline
 90
        2
 70
     0
 43
0.15
 10
98.6811675788233
 20
70.16367191607782
 10
98.66999737592334
 20
70.63126724737782
  0
LWPOLYLINE
  5
173
330
50
100
AcDbEntity
  8
0
  6
Continuous
 62
     3
100
AcDbPolyline
 90
        2
 70
     0
 43
0.15
 10
72.29508221162331
 20
62.14608049847777
 10
65.58261850923361
 20
60.10645276967148
  0
LWPOLYLINE
  5
174
330
50
100
AcDbEntity
  8
0
  6
Continuous
 62
     3
100
AcDbPolyline
 90
        2
 70
     0
 43
0.15
 10
106.1742395172233
 20
72.4404927641778
 10
106.0848778952303
 20
76.18125536049558
  0
LWPOLYLINE
  5
175
330
50
100
AcDbEntity
  8
0
  6
Continuous
 62
     3
100
AcDbPolyline
 90
        2
 70
     0
 43
0.15
 10
63.4091442770233
 20
65.6867682959778
 10
63.1544305283233
 20
65.59711611147782
  0
LWPOLYLINE
  5
176
330
50
100
AcDbEntity
  8
0
  6
Continuous
 62
     3
100
AcDbPolyline
 90
        2
 70
     0
 43
0.15
 10
36.2875995106233
 20
71.3085916674778
 10
36.27642930772333
 20
71.7761869987778
  0
LWPOLYLINE
  5
177
330
50
100
AcDbEntity
  8
0
  6
Continuous
 62
     3
100
AcDbPolyline
 90
        2
 70
     0
 43
0.15
 10
36.2875995106233
 20
71.3085916674778
 10
30.91646846362335
 20
73.56995292947784
  0
LWPOLYLINE
  5
178
330
50
100
AcDbEntity
  8
0
  6
Continuous
 62
     3
100
AcDbPolyline
 90
        2
 70
     0
 43
0.15
 10
30.82710684162328
 20
77.31071552577782
 10
30.91646846362335
 20
73.56995292947784
  0
LWPOLYLINE
  5
179
330
50
100
AcDbEntity
  8
0
  6
Continuous
 62
     3
100
AcDbPolyline
 90
        2
 70
     0
 43
0.15
 10
62.77215904112683
 20
60.15802460079442
 10
57.40102799402331
 20
62.41938586287779
  0
LWPOLYLINE
  5
17A
330
50
100
AcDbEntity
  8
0
  6
Continuous
 62
     3
100
AcDbPolyline
 90
        2
 70
     0
 43
0.15
 10
57.38985779112329
 20
62.88698119417779
 10
36.27642930772333
 20
71.7761869987778
  0
LWPOLYLINE
  5
17B
330
50
100
AcDbEntity
  8
0
  6
Continuous
 62
     3
100
AcDbPolyline
 90
        2
 70
     0
 43
0.15
 10
97.75590085012334
 20
76.12326377787781
 10
97.50118855542337
 20
76.03361203517784
  0
LWPOLYLINE
  5
17C
330
50
100
AcDbEntity
  8
0
  6
Continuous
 62
     3
100
AcDbPolyline
 90
        2
 70
     0
 43
0.15
 10
35.92580185812335
 20
77.25784436027777
 10
35.67108927292333
 20
77.16819168597783
  0
LWPOLYLINE
  5
17D
330
50
100
AcDbEntity
  8
0
  6
Continuous
 62
     3
100
AcDbPolyline
 90
        2
 70
     0
 43
0.15
 10
41.8235893113233
 20
82.04682462207779
 10
31.74136141782333
 20
78.98327113537778
  0
LWPOLYLINE
  5
17E
330
50
100
AcDbEntity
  8
0
  6
Continuous
 62
     3
100
AcDbPolyline
 90
        2
 70
     0
 43
0.15
 10
105.4379159993233
 20
77.37942473137781
 10
93.48545913322334
 20
82.4116651861778
  0
LWPOLYLINE
  5
17F
330
50
100
AcDbEntity
  8
0
  6
Continuous
 62
     3
100
AcDbPolyline
 90
        2
 70
     0
 43
0.15
 10
34.56718198572332
 20
79.77400029517781
 10
34.03239822852333
 20
79.58317168527782
  0
LWPOLYLINE
  5
180
330
50
100
AcDbEntity
  8
0
  6
Continuous
 62
     3
100
AcDbPolyline
 90
        2
 70
     0
 43
0.15
 10
34.03239822852333
 20
79.58317168527782
 10
33.59116579542331
 20
79.3649237923778
  0
LWPOLYLINE
  5
181
330
50
100
AcDbEntity
  8
0
  6
Continuous
 62
     3
100
AcDbPolyline
 90
        2
 70
     0
 43
0.15
 10
33.59116579542331
 20
79.3649237923778
 10
33.25617763992329
 20
79.12553473797777
  0
LWPOLYLINE
  5
182
330
50
100
AcDbEntity
  8
0
  6
Continuous
 62
     3
100
AcDbPolyline
 90
        2
 70
     0
 43
0.15
 10
33.25617763992329
 20
79.12553473797777
 10
33.03706937662332
 20
78.8718910921778
  0
LWPOLYLINE
  5
183
330
50
100
AcDbEntity
  8
0
  6
Continuous
 62
     3
100
AcDbPolyline
 90
        2
 70
     0
 43
0.15
 10
33.03706937662332
 20
78.8718910921778
 10
32.94014683642331
 20
78.61128954937783
  0
LWPOLYLINE
  5
184
330
50
100
AcDbEntity
  8
0
  6
Continuous
 62
     3
100
AcDbPolyline
 90
        2
 70
     0
 43
0.15
 10
32.94014683642331
 20
78.61128954937783
 10
32.96819854662329
 20
78.35122814477779
  0
LWPOLYLINE
  5
185
330
50
100
AcDbEntity
  8
0
  6
Continuous
 62
     3
100
AcDbPolyline
 90
        2
 70
     0
 43
0.15
 10
32.96819854662329
 20
78.35122814477779
 10
33.12041436492331
 20
78.09918755837782
  0
LWPOLYLINE
  5
186
330
50
100
AcDbEntity
  8
0
  6
Continuous
 62
     3
100
AcDbPolyline
 90
        2
 70
     0
 43
0.15
 10
33.12041436492331
 20
78.09918755837782
 10
33.39241782422334
 20
77.86241829647781
  0
LWPOLYLINE
  5
187
330
50
100
AcDbEntity
  8
0
  6
Continuous
 62
     3
100
AcDbPolyline
 90
        2
 70
     0
 43
0.15
 10
33.39241782422334
 20
77.86241829647781
 10
33.77638281572331
 20
77.64773241627779
  0
LWPOLYLINE
  5
188
330
50
100
AcDbEntity
  8
0
  6
Continuous
 62
     3
100
AcDbPolyline
 90
        2
 70
     0
 43
0.15
 10
33.77638281572331
 20
77.64773241627779
 10
34.26126398222334
 20
77.46130534447781
  0
LWPOLYLINE
  5
189
330
50
100
AcDbEntity
  8
0
  6
Continuous
 62
     3
100
AcDbPolyline
 90
        2
 70
     0
 43
0.15
 10
34.26126398222334
 20
77.46130534447781
 10
34.8331120245233
 20
77.30850096737782
  0
LWPOLYLINE
  5
18A
330
50
100
AcDbEntity
  8
0
  6
Continuous
 62
     3
100
AcDbPolyline
 90
        2
 70
     0
 43
0.15
 10
34.8331120245233
 20
77.30850096737782
 10
35.47547625112333
 20
77.19371479687777
  0
LWPOLYLINE
  5
18B
330
50
100
AcDbEntity
  8
0
  6
Continuous
 62
     3
100
AcDbPolyline
 90
        2
 70
     0
 43
0.15
 10
35.47547625112333
 20
77.19371479687777
 10
36.1698751706233
 20
77.1202496182778
  0
LWPOLYLINE
  5
18C
330
50
100
AcDbEntity
  8
0
  6
Continuous
 62
     3
100
AcDbPolyline
 90
        2
 70
     0
 43
0.15
 10
36.1698751706233
 20
77.1202496182778
 10
36.89633600232332
 20
77.09021798357782
  0
LWPOLYLINE
  5
18D
330
50
100
AcDbEntity
  8
0
  6
Continuous
 62
     3
100
AcDbPolyline
 90
        2
 70
     0
 43
0.15
 10
36.89633600232332
 20
77.09021798357782
 10
37.63395569592331
 20
77.1044841311778
  0
LWPOLYLINE
  5
18E
330
50
100
AcDbEntity
  8
0
  6
Continuous
 62
     3
100
AcDbPolyline
 90
        2
 70
     0
 43
0.15
 10
37.63395569592331
 20
77.1044841311778
 10
38.36151690732334
 20
77.16263862757779
  0
LWPOLYLINE
  5
18F
330
50
100
AcDbEntity
  8
0
  6
Continuous
 62
     3
100
AcDbPolyline
 90
        2
 70
     0
 43
0.15
 10
38.36151690732334
 20
77.16263862757779
 10
39.05808680602331
 20
77.2630065877778
  0
LWPOLYLINE
  5
190
330
50
100
AcDbEntity
  8
0
  6
Continuous
 62
     3
100
AcDbPolyline
 90
        2
 70
     0
 43
0.15
 10
39.05808680602331
 20
77.2630065877778
 10
39.70362895602329
 20
77.40270203517781
  0
LWPOLYLINE
  5
191
330
50
100
AcDbEntity
  8
0
  6
Continuous
 62
     3
100
AcDbPolyline
 90
        2
 70
     0
 43
0.15
 10
39.70362895602329
 20
77.40270203517781
 10
40.27957127442335
 20
77.57770602397784
  0
LWPOLYLINE
  5
192
330
50
100
AcDbEntity
  8
0
  6
Continuous
 62
     3
100
AcDbPolyline
 90
        2
 70
     0
 43
0.15
 10
40.27957127442335
 20
77.57770602397784
 10
40.76934402382335
 20
77.78298372687777
  0
LWPOLYLINE
  5
193
330
50
100
AcDbEntity
  8
0
  6
Continuous
 62
     3
100
AcDbPolyline
 90
        2
 70
     0
 43
0.15
 10
40.76934402382335
 20
77.78298372687777
 10
41.15885672302329
 20
78.01262934757779
  0
LWPOLYLINE
  5
194
330
50
100
AcDbEntity
  8
0
  6
Continuous
 62
     3
100
AcDbPolyline
 90
        2
 70
     0
 43
0.15
 10
41.15885672302329
 20
78.01262934757779
 10
41.43690816032336
 20
78.26003709077781
  0
LWPOLYLINE
  5
195
330
50
100
AcDbEntity
  8
0
  6
Continuous
 62
     3
100
AcDbPolyline
 90
        2
 70
     0
 43
0.15
 10
41.43690816032336
 20
78.26003709077781
 10
41.59549373942332
 20
78.51808900797778
  0
LWPOLYLINE
  5
196
330
50
100
AcDbEntity
  8
0
  6
Continuous
 62
     3
100
AcDbPolyline
 90
        2
 70
     0
 43
0.15
 10
41.59549373942332
 20
78.51808900797778
 10
41.63005436492335
 20
78.77936218597779
  0
LWPOLYLINE
  5
197
330
50
100
AcDbEntity
  8
0
  6
Continuous
 62
     3
100
AcDbPolyline
 90
        2
 70
     0
 43
0.15
 10
41.63005436492335
 20
78.77936218597779
 10
41.53959590902332
 20
79.0363387801778
  0
LWPOLYLINE
  5
198
330
50
100
AcDbEntity
  8
0
  6
Continuous
 62
     3
100
AcDbPolyline
 90
        2
 70
     0
 43
0.15
 10
41.53959590902332
 20
79.0363387801778
 10
41.32671880912335
 20
79.28162753397783
  0
LWPOLYLINE
  5
199
330
50
100
AcDbEntity
  8
0
  6
Continuous
 62
     3
100
AcDbPolyline
 90
        2
 70
     0
 43
0.15
 10
41.32671880912335
 20
79.28162753397783
 10
40.99754849952331
 20
79.50817118987777
  0
LWPOLYLINE
  5
19A
330
50
100
AcDbEntity
  8
0
  6
Continuous
 62
     3
100
AcDbPolyline
 90
        2
 70
     0
 43
0.15
 10
40.99754849952331
 20
79.50817118987777
 10
40.56155358342335
 20
79.70945268117782
  0
LWPOLYLINE
  5
19B
330
50
100
AcDbEntity
  8
0
  6
Continuous
 62
     3
100
AcDbPolyline
 90
        2
 70
     0
 43
0.15
 10
40.56155358342335
 20
79.70945268117782
 10
40.03127879982333
 20
79.87968133637781
  0
LWPOLYLINE
  5
19C
330
50
100
AcDbEntity
  8
0
  6
Continuous
 62
     3
100
AcDbPolyline
 90
        2
 70
     0
 43
0.15
 10
40.03127879982333
 20
79.87968133637781
 10
39.42197737022332
 20
80.01396031697777
  0
LWPOLYLINE
  5
19D
330
50
100
AcDbEntity
  8
0
  6
Continuous
 62
     3
100
AcDbPolyline
 90
        2
 70
     0
 43
0.15
 10
39.42197737022332
 20
80.01396031697777
 10
38.75117937212332
 20
80.10842618267782
  0
LWPOLYLINE
  5
19E
330
50
100
AcDbEntity
  8
0
  6
Continuous
 62
     3
100
AcDbPolyline
 90
        2
 70
     0
 43
0.15
 10
38.75117937212332
 20
80.10842618267782
 10
38.0381807243233
 20
80.16036180387778
  0
LWPOLYLINE
  5
19F
330
50
100
AcDbEntity
  8
0
  6
Continuous
 62
     3
100
AcDbPolyline
 90
        2
 70
     0
 43
0.15
 10
38.0381807243233
 20
80.16036180387778
 10
37.30349466802329
 20
80.1682734210778
  0
LWPOLYLINE
  5
1A0
330
50
100
AcDbEntity
  8
0
  6
Continuous
 62
     3
100
AcDbPolyline
 90
        2
 70
     0
 43
0.15
 10
37.30349466802329
 20
80.1682734210778
 10
36.56825527042332
 20
80.13193204227781
  0
LWPOLYLINE
  5
1A1
330
50
100
AcDbEntity
  8
0
  6
Continuous
 62
     3
100
AcDbPolyline
 90
        2
 70
     0
 43
0.15
 10
36.56825527042332
 20
80.13193204227781
 10
35.85361541332333
 20
80.0523844893778
  0
LWPOLYLINE
  5
1A2
330
50
100
AcDbEntity
  8
0
  6
Continuous
 62
     3
100
AcDbPolyline
 90
        2
 70
     0
 43
0.15
 10
35.85361541332333
 20
80.0523844893778
 10
35.18013316102332
 20
79.93191874697777
  0
LWPOLYLINE
  5
1A3
330
50
100
AcDbEntity
  8
0
  6
Continuous
 62
     3
100
AcDbPolyline
 90
        2
 70
     0
 43
0.15
 10
35.18013316102332
 20
79.93191874697777
 10
34.56718198572332
 20
79.77400029517781
  0
LWPOLYLINE
  5
1A4
330
50
100
AcDbEntity
  8
0
  6
Continuous
 62
     3
100
AcDbPolyline
 90
        2
 70
     0
 43
0.15
 10
62.05052440462333
 20
68.2029242307778
 10
61.5157394840233
 20
68.0120961107778
  0
LWPOLYLINE
  5
1A5
330
50
100
AcDbEntity
  8
0
  6
Continuous
 62
     3
100
AcDbPolyline
 90
        2
 70
     0
 43
0.15
 10
61.5157394840233
 20
68.0120961107778
 10
61.07450705082329
 20
67.79384821787778
  0
LWPOLYLINE
  5
1A6
330
50
100
AcDbEntity
  8
0
  6
Continuous
 62
     3
100
AcDbPolyline
 90
        2
 70
     0
 43
0.15
 10
61.07450705082329
 20
67.79384821787778
 10
60.73951889532333
 20
67.5544591635778
  0
LWPOLYLINE
  5
1A7
330
50
100
AcDbEntity
  8
0
  6
Continuous
 62
     3
100
AcDbPolyline
 90
        2
 70
     0
 43
0.15
 10
60.73951889532333
 20
67.5544591635778
 10
60.5204106320233
 20
67.30081551767779
  0
LWPOLYLINE
  5
1A8
330
50
100
AcDbEntity
  8
0
  6
Continuous
 62
     3
100
AcDbPolyline
 90
        2
 70
     0
 43
0.15
 10
60.5204106320233
 20
67.30081551767779
 10
60.42348809182329
 20
67.04021397487782
  0
LWPOLYLINE
  5
1A9
330
50
100
AcDbEntity
  8
0
  6
Continuous
 62
     3
100
AcDbPolyline
 90
        2
 70
     0
 43
0.15
 10
60.42348809182329
 20
67.04021397487782
 10
60.45153980212331
 20
66.78015257027778
  0
LWPOLYLINE
  5
1AA
330
50
100
AcDbEntity
  8
0
  6
Continuous
 62
     3
100
AcDbPolyline
 90
        2
 70
     0
 43
0.15
 10
60.45153980212331
 20
66.78015257027778
 10
60.60375562042333
 20
66.5281119838778
  0
LWPOLYLINE
  5
1AB
330
50
100
AcDbEntity
  8
0
  6
Continuous
 62
     3
100
AcDbPolyline
 90
        2
 70
     0
 43
0.15
 10
60.60375562042333
 20
66.5281119838778
 10
60.87575907962332
 20
66.2913427219778
  0
LWPOLYLINE
  5
1AC
330
50
100
AcDbEntity
  8
0
  6
Continuous
 62
     3
100
AcDbPolyline
 90
        2
 70
     0
 43
0.15
 10
60.87575907962332
 20
66.2913427219778
 10
61.25972407122333
 20
66.07665684177778
  0
LWPOLYLINE
  5
1AD
330
50
100
AcDbEntity
  8
0
  6
Continuous
 62
     3
100
AcDbPolyline
 90
        2
 70
     0
 43
0.15
 10
61.25972407122333
 20
66.07665684177778
 10
61.74460523762332
 20
65.8902297699778
  0
LWPOLYLINE
  5
1AE
330
50
100
AcDbEntity
  8
0
  6
Continuous
 62
     3
100
AcDbPolyline
 90
        2
 70
     0
 43
0.15
 10
61.74460523762332
 20
65.8902297699778
 10
62.31645328002333
 20
65.73742539287781
  0
LWPOLYLINE
  5
1AF
330
50
100
AcDbEntity
  8
0
  6
Continuous
 62
     3
100
AcDbPolyline
 90
        2
 70
     0
 43
0.15
 10
62.31645328002333
 20
65.73742539287781
 10
62.95881750662329
 20
65.62263922237781
  0
LWPOLYLINE
  5
1B0
330
50
100
AcDbEntity
  8
0
  6
Continuous
 62
     3
100
AcDbPolyline
 90
        2
 70
     0
 43
0.15
 10
62.95881750662329
 20
65.62263922237781
 10
63.65321758952331
 20
65.54917355397782
  0
LWPOLYLINE
  5
1B1
330
50
100
AcDbEntity
  8
0
  6
Continuous
 62
     3
100
AcDbPolyline
 90
        2
 70
     0
 43
0.15
 10
63.65321758952331
 20
65.54917355397782
 10
64.37967725782335
 20
65.51914240917779
  0
LWPOLYLINE
  5
1B2
330
50
100
AcDbEntity
  8
0
  6
Continuous
 62
     3
100
AcDbPolyline
 90
        2
 70
     0
 43
0.15
 10
64.37967725782335
 20
65.51914240917779
 10
65.11729695132334
 20
65.53340855667778
  0
LWPOLYLINE
  5
1B3
330
50
100
AcDbEntity
  8
0
  6
Continuous
 62
     3
100
AcDbPolyline
 90
        2
 70
     0
 43
0.15
 10
65.11729695132334
 20
65.53340855667778
 10
65.8448593261233
 20
65.59156256327782
  0
LWPOLYLINE
  5
1B4
330
50
100
AcDbEntity
  8
0
  6
Continuous
 62
     3
100
AcDbPolyline
 90
        2
 70
     0
 43
0.15
 10
65.8448593261233
 20
65.59156256327782
 10
66.54142806142329
 20
65.69193101327778
  0
LWPOLYLINE
  5
1B5
330
50
100
AcDbEntity
  8
0
  6
Continuous
 62
     3
100
AcDbPolyline
 90
        2
 70
     0
 43
0.15
 10
66.54142806142329
 20
65.69193101327778
 10
67.18697021142333
 20
65.8316264606778
  0
LWPOLYLINE
  5
1B6
330
50
100
AcDbEntity
  8
0
  6
Continuous
 62
     3
100
AcDbPolyline
 90
        2
 70
     0
 43
0.15
 10
67.18697021142333
 20
65.8316264606778
 10
67.76291252982332
 20
66.00663044947783
  0
LWPOLYLINE
  5
1B7
330
50
100
AcDbEntity
  8
0
  6
Continuous
 62
     3
100
AcDbPolyline
 90
        2
 70
     0
 43
0.15
 10
67.76291252982332
 20
66.00663044947783
 10
68.25268527922333
 20
66.21190815237782
  0
LWPOLYLINE
  5
1B8
330
50
100
AcDbEntity
  8
0
  6
Continuous
 62
     3
100
AcDbPolyline
 90
        2
 70
     0
 43
0.15
 10
68.25268527922333
 20
66.21190815237782
 10
68.6421991419233
 20
66.44155328327781
  0
LWPOLYLINE
  5
1B9
330
50
100
AcDbEntity
  8
0
  6
Continuous
 62
     3
100
AcDbPolyline
 90
        2
 70
     0
 43
0.15
 10
68.6421991419233
 20
66.44155328327781
 10
68.92024941572333
 20
66.68896151637779
  0
LWPOLYLINE
  5
1BA
330
50
100
AcDbEntity
  8
0
  6
Continuous
 62
     3
100
AcDbPolyline
 90
        2
 70
     0
 43
0.15
 10
68.92024941572333
 20
66.68896151637779
 10
69.0788349948233
 20
66.94701343347782
  0
LWPOLYLINE
  5
1BB
330
50
100
AcDbEntity
  8
0
  6
Continuous
 62
     3
100
AcDbPolyline
 90
        2
 70
     0
 43
0.15
 10
69.0788349948233
 20
66.94701343347782
 10
69.1133967838233
 20
67.20828612167782
  0
LWPOLYLINE
  5
1BC
330
50
100
AcDbEntity
  8
0
  6
Continuous
 62
     3
100
AcDbPolyline
 90
        2
 70
     0
 43
0.15
 10
69.1133967838233
 20
67.20828612167782
 10
69.0229371644233
 20
67.46526320567779
  0
LWPOLYLINE
  5
1BD
330
50
100
AcDbEntity
  8
0
  6
Continuous
 62
     3
100
AcDbPolyline
 90
        2
 70
     0
 43
0.15
 10
69.0229371644233
 20
67.46526320567779
 10
68.81006006452333
 20
67.71055195947781
  0
LWPOLYLINE
  5
1BE
330
50
100
AcDbEntity
  8
0
  6
Continuous
 62
     3
100
AcDbPolyline
 90
        2
 70
     0
 43
0.15
 10
68.81006006452333
 20
67.71055195947781
 10
68.48088975492328
 20
67.93709561537781
  0
LWPOLYLINE
  5
1BF
330
50
100
AcDbEntity
  8
0
  6
Continuous
 62
     3
100
AcDbPolyline
 90
        2
 70
     0
 43
0.15
 10
68.48088975492328
 20
67.93709561537781
 10
68.04489483882332
 20
68.13837710667781
  0
LWPOLYLINE
  5
1C0
330
50
100
AcDbEntity
  8
0
  6
Continuous
 62
     3
100
AcDbPolyline
 90
        2
 70
     0
 43
0.15
 10
68.04489483882332
 20
68.13837710667781
 10
67.5146200552233
 20
68.3086057618778
  0
LWPOLYLINE
  5
1C1
330
50
100
AcDbEntity
  8
0
  6
Continuous
 62
     3
100
AcDbPolyline
 90
        2
 70
     0
 43
0.15
 10
67.5146200552233
 20
68.3086057618778
 10
66.90531862572334
 20
68.44288474247782
  0
LWPOLYLINE
  5
1C2
330
50
100
AcDbEntity
  8
0
  6
Continuous
 62
     3
100
AcDbPolyline
 90
        2
 70
     0
 43
0.15
 10
66.90531862572334
 20
68.44288474247782
 10
66.2345206275233
 20
68.5373506081778
  0
LWPOLYLINE
  5
1C3
330
50
100
AcDbEntity
  8
0
  6
Continuous
 62
     3
100
AcDbPolyline
 90
        2
 70
     0
 43
0.15
 10
66.2345206275233
 20
68.5373506081778
 10
65.52152197972333
 20
68.58928622937782
  0
LWPOLYLINE
  5
1C4
330
50
100
AcDbEntity
  8
0
  6
Continuous
 62
     3
100
AcDbPolyline
 90
        2
 70
     0
 43
0.15
 10
65.52152197972333
 20
68.58928622937782
 10
64.78683592342333
 20
68.59719784667777
  0
LWPOLYLINE
  5
1C5
330
50
100
AcDbEntity
  8
0
  6
Continuous
 62
     3
100
AcDbPolyline
 90
        2
 70
     0
 43
0.15
 10
64.78683592342333
 20
68.59719784667777
 10
64.0515965258233
 20
68.56085646787778
  0
LWPOLYLINE
  5
1C6
330
50
100
AcDbEntity
  8
0
  6
Continuous
 62
     3
100
AcDbPolyline
 90
        2
 70
     0
 43
0.15
 10
64.0515965258233
 20
68.56085646787778
 10
63.3369566687233
 20
68.48130891497783
  0
LWPOLYLINE
  5
1C7
330
50
100
AcDbEntity
  8
0
  6
Continuous
 62
     3
100
AcDbPolyline
 90
        2
 70
     0
 43
0.15
 10
63.3369566687233
 20
68.48130891497783
 10
62.6634744164233
 20
68.3608431725778
  0
LWPOLYLINE
  5
1C8
330
50
100
AcDbEntity
  8
0
  6
Continuous
 62
     3
100
AcDbPolyline
 90
        2
 70
     0
 43
0.15
 10
62.6634744164233
 20
68.3608431725778
 10
62.05052440462333
 20
68.2029242307778
  0
LWPOLYLINE
  5
1C9
330
50
100
AcDbEntity
  8
0
  6
Continuous
 62
     3
100
AcDbPolyline
 90
        2
 70
     0
 43
0.15
 10
96.39728097772331
 20
78.6394197126778
 10
95.86249605712328
 20
78.44859159267781
  0
LWPOLYLINE
  5
1CA
330
50
100
AcDbEntity
  8
0
  6
Continuous
 62
     3
100
AcDbPolyline
 90
        2
 70
     0
 43
0.15
 10
95.86249605712328
 20
78.44859159267781
 10
95.42126362402337
 20
78.23034369977779
  0
LWPOLYLINE
  5
1CB
330
50
100
AcDbEntity
  8
0
  6
Continuous
 62
     3
100
AcDbPolyline
 90
        2
 70
     0
 43
0.15
 10
95.42126362402337
 20
78.23034369977779
 10
95.08627546852335
 20
77.99095464537777
  0
LWPOLYLINE
  5
1CC
330
50
100
AcDbEntity
  8
0
  6
Continuous
 62
     3
100
AcDbPolyline
 90
        2
 70
     0
 43
0.15
 10
95.08627546852335
 20
77.99095464537777
 10
94.86716720512334
 20
77.7373109995778
  0
LWPOLYLINE
  5
1CD
330
50
100
AcDbEntity
  8
0
  6
Continuous
 62
     3
100
AcDbPolyline
 90
        2
 70
     0
 43
0.15
 10
94.86716720512334
 20
77.7373109995778
 10
94.7702461189233
 20
77.47670989857784
  0
LWPOLYLINE
  5
1CE
330
50
100
AcDbEntity
  8
0
  6
Continuous
 62
     3
100
AcDbPolyline
 90
        2
 70
     0
 43
0.15
 10
94.7702461189233
 20
77.47670989857784
 10
94.79829637522334
 20
77.21664805217779
  0
LWPOLYLINE
  5
1CF
330
50
100
AcDbEntity
  8
0
  6
Continuous
 62
     3
100
AcDbPolyline
 90
        2
 70
     0
 43
0.15
 10
94.79829637522334
 20
77.21664805217779
 10
94.95051219352331
 20
76.96460746577782
  0
LWPOLYLINE
  5
1D0
330
50
100
AcDbEntity
  8
0
  6
Continuous
 62
     3
100
AcDbPolyline
 90
        2
 70
     0
 43
0.15
 10
94.95051219352331
 20
76.96460746577782
 10
95.22251565272336
 20
76.72783820387781
  0
LWPOLYLINE
  5
1D1
330
50
100
AcDbEntity
  8
0
  6
Continuous
 62
     3
100
AcDbPolyline
 90
        2
 70
     0
 43
0.15
 10
95.22251565272336
 20
76.72783820387781
 10
95.60648064432326
 20
76.51315232367779
  0
LWPOLYLINE
  5
1D2
330
50
100
AcDbEntity
  8
0
  6
Continuous
 62
     3
100
AcDbPolyline
 90
        2
 70
     0
 43
0.15
 10
95.60648064432326
 20
76.51315232367779
 10
96.09136181082329
 20
76.3267252518778
  0
LWPOLYLINE
  5
1D3
330
50
100
AcDbEntity
  8
0
  6
Continuous
 62
     3
100
AcDbPolyline
 90
        2
 70
     0
 43
0.15
 10
96.09136181082329
 20
76.3267252518778
 10
96.66320985312336
 20
76.17392087477782
  0
LWPOLYLINE
  5
1D4
330
50
100
AcDbEntity
  8
0
  6
Continuous
 62
     3
100
AcDbPolyline
 90
        2
 70
     0
 43
0.15
 10
96.66320985312336
 20
76.17392087477782
 10
97.30557407972333
 20
76.05913470427782
  0
LWPOLYLINE
  5
1D5
330
50
100
AcDbEntity
  8
0
  6
Continuous
 62
     3
100
AcDbPolyline
 90
        2
 70
     0
 43
0.15
 10
97.30557407972333
 20
76.05913470427782
 10
97.99997416262329
 20
75.98566903577779
  0
LWPOLYLINE
  5
1D6
330
50
100
AcDbEntity
  8
0
  6
Continuous
 62
     3
100
AcDbPolyline
 90
        2
 70
     0
 43
0.15
 10
97.99997416262329
 20
75.98566903577779
 10
98.72643383092327
 20
75.95563789097781
  0
LWPOLYLINE
  5
1D7
330
50
100
AcDbEntity
  8
0
  6
Continuous
 62
     3
100
AcDbPolyline
 90
        2
 70
     0
 43
0.15
 10
98.72643383092327
 20
75.95563789097781
 10
99.46405352442332
 20
75.9699040385778
  0
LWPOLYLINE
  5
1D8
330
50
100
AcDbEntity
  8
0
  6
Continuous
 62
     3
100
AcDbPolyline
 90
        2
 70
     0
 43
0.15
 10
99.46405352442332
 20
75.9699040385778
 10
100.1916158992233
 20
76.02805804517777
  0
LWPOLYLINE
  5
1D9
330
50
100
AcDbEntity
  8
0
  6
Continuous
 62
     3
100
AcDbPolyline
 90
        2
 70
     0
 43
0.15
 10
100.1916158992233
 20
76.02805804517777
 10
100.8881846345233
 20
76.12842649517779
  0
LWPOLYLINE
  5
1DA
330
50
100
AcDbEntity
  8
0
  6
Continuous
 62
     3
100
AcDbPolyline
 90
        2
 70
     0
 43
0.15
 10
100.8881846345233
 20
76.12842649517779
 10
101.5337267845233
 20
76.2681219425778
  0
LWPOLYLINE
  5
1DB
330
50
100
AcDbEntity
  8
0
  6
Continuous
 62
     3
100
AcDbPolyline
 90
        2
 70
     0
 43
0.15
 10
101.5337267845233
 20
76.2681219425778
 10
102.1096691029234
 20
76.44312593137784
  0
LWPOLYLINE
  5
1DC
330
50
100
AcDbEntity
  8
0
  6
Continuous
 62
     3
100
AcDbPolyline
 90
        2
 70
     0
 43
0.15
 10
102.1096691029234
 20
76.44312593137784
 10
102.5994418523233
 20
76.64840363427777
  0
LWPOLYLINE
  5
1DD
330
50
100
AcDbEntity
  8
0
  6
Continuous
 62
     3
100
AcDbPolyline
 90
        2
 70
     0
 43
0.15
 10
102.5994418523233
 20
76.64840363427777
 10
102.9889557150234
 20
76.87804876507778
  0
LWPOLYLINE
  5
1DE
330
50
100
AcDbEntity
  8
0
  6
Continuous
 62
     3
100
AcDbPolyline
 90
        2
 70
     0
 43
0.15
 10
102.9889557150234
 20
76.87804876507778
 10
103.2670059888233
 20
77.1254569982778
  0
LWPOLYLINE
  5
1DF
330
50
100
AcDbEntity
  8
0
  6
Continuous
 62
     3
100
AcDbPolyline
 90
        2
 70
     0
 43
0.15
 10
103.2670059888233
 20
77.1254569982778
 10
103.4255915679233
 20
77.38350891537777
  0
LWPOLYLINE
  5
1E0
330
50
100
AcDbEntity
  8
0
  6
Continuous
 62
     3
100
AcDbPolyline
 90
        2
 70
     0
 43
0.15
 10
103.4255915679233
 20
77.38350891537777
 10
103.4601533569233
 20
77.64478160357783
  0
LWPOLYLINE
  5
1E1
330
50
100
AcDbEntity
  8
0
  6
Continuous
 62
     3
100
AcDbPolyline
 90
        2
 70
     0
 43
0.15
 10
103.4601533569233
 20
77.64478160357783
 10
103.3696937375233
 20
77.9017586875778
  0
LWPOLYLINE
  5
1E2
330
50
100
AcDbEntity
  8
0
  6
Continuous
 62
     3
100
AcDbPolyline
 90
        2
 70
     0
 43
0.15
 10
103.3696937375233
 20
77.9017586875778
 10
103.1568166377233
 20
78.14704744137782
  0
LWPOLYLINE
  5
1E3
330
50
100
AcDbEntity
  8
0
  6
Continuous
 62
     3
100
AcDbPolyline
 90
        2
 70
     0
 43
0.15
 10
103.1568166377233
 20
78.14704744137782
 10
102.8276463281234
 20
78.37359109727782
  0
LWPOLYLINE
  5
1E4
330
50
100
AcDbEntity
  8
0
  6
Continuous
 62
     3
100
AcDbPolyline
 90
        2
 70
     0
 43
0.15
 10
102.8276463281234
 20
78.37359109727782
 10
102.3916514119233
 20
78.57487258857782
  0
LWPOLYLINE
  5
1E5
330
50
100
AcDbEntity
  8
0
  6
Continuous
 62
     3
100
AcDbPolyline
 90
        2
 70
     0
 43
0.15
 10
102.3916514119233
 20
78.57487258857782
 10
101.8613766283233
 20
78.74510124377781
  0
LWPOLYLINE
  5
1E6
330
50
100
AcDbEntity
  8
0
  6
Continuous
 62
     3
100
AcDbPolyline
 90
        2
 70
     0
 43
0.15
 10
101.8613766283233
 20
78.74510124377781
 10
101.2520751988234
 20
78.87938022437777
  0
LWPOLYLINE
  5
1E7
330
50
100
AcDbEntity
  8
0
  6
Continuous
 62
     3
100
AcDbPolyline
 90
        2
 70
     0
 43
0.15
 10
101.2520751988234
 20
78.87938022437777
 10
100.5812772006234
 20
78.97384609007781
  0
LWPOLYLINE
  5
1E8
330
50
100
AcDbEntity
  8
0
  6
Continuous
 62
     3
100
AcDbPolyline
 90
        2
 70
     0
 43
0.15
 10
100.5812772006234
 20
78.97384609007781
 10
99.86828000692333
 20
79.02578215307778
  0
LWPOLYLINE
  5
1E9
330
50
100
AcDbEntity
  8
0
  6
Continuous
 62
     3
100
AcDbPolyline
 90
        2
 70
     0
 43
0.15
 10
99.86828000692333
 20
79.02578215307778
 10
99.1335924965233
 20
79.03369332857778
  0
LWPOLYLINE
  5
1EA
330
50
100
AcDbEntity
  8
0
  6
Continuous
 62
     3
100
AcDbPolyline
 90
        2
 70
     0
 43
0.15
 10
99.1335924965233
 20
79.03369332857778
 10
98.39835309902332
 20
78.9973519496778
  0
LWPOLYLINE
  5
1EB
330
50
100
AcDbEntity
  8
0
  6
Continuous
 62
     3
100
AcDbPolyline
 90
        2
 70
     0
 43
0.15
 10
98.39835309902332
 20
78.9973519496778
 10
97.68371324182328
 20
78.91780439687778
  0
LWPOLYLINE
  5
1EC
330
50
100
AcDbEntity
  8
0
  6
Continuous
 62
     3
100
AcDbPolyline
 90
        2
 70
     0
 43
0.15
 10
97.68371324182328
 20
78.91780439687778
 10
97.01023098952328
 20
78.79733865447781
  0
LWPOLYLINE
  5
1ED
330
50
100
AcDbEntity
  8
0
  6
Continuous
 62
     3
100
AcDbPolyline
 90
        2
 70
     0
 43
0.15
 10
97.01023098952328
 20
78.79733865447781
 10
96.39728097772331
 20
78.6394197126778
  0
LWPOLYLINE
  5
1EE
330
50
100
AcDbEntity
  8
0
  6
Continuous
 62
     3
100
AcDbPolyline
 90
        2
 70
     0
 43
0.15
 10
31.74136141782333
 20
78.98327113537778
 10
31.60107347032329
 20
78.9319436062778
  0
LWPOLYLINE
  5
1EF
330
50
100
AcDbEntity
  8
0
  6
Continuous
 62
     3
100
AcDbPolyline
 90
        2
 70
     0
 43
0.15
 10
31.60107347032329
 20
78.9319436062778
 10
31.4901816808233
 20
78.87248294787781
  0
LWPOLYLINE
  5
1F0
330
50
100
AcDbEntity
  8
0
  6
Continuous
 62
     3
100
AcDbPolyline
 90
        2
 70
     0
 43
0.15
 10
31.4901816808233
 20
78.87248294787781
 10
31.41294567162333
 20
78.80717357787779
  0
LWPOLYLINE
  5
1F1
330
50
100
AcDbEntity
  8
0
  6
Continuous
 62
     3
100
AcDbPolyline
 90
        2
 70
     0
 43
0.15
 10
31.41294567162333
 20
78.80717357787779
 10
31.37233576812332
 20
78.73852549027782
  0
LWPOLYLINE
  5
1F2
330
50
100
AcDbEntity
  8
0
  6
Continuous
 62
     3
100
AcDbPolyline
 90
        2
 70
     0
 43
0.15
 10
31.37233576812332
 20
78.73852549027782
 10
31.36990913652335
 20
78.66917674097783
  0
LWPOLYLINE
  5
1F3
330
50
100
AcDbEntity
  8
0
  6
Continuous
 62
     3
100
AcDbPolyline
 90
        2
 70
     0
 43
0.15
 10
31.36990913652335
 20
78.66917674097783
 10
31.4057624093233
 20
78.60179218657782
  0
LWPOLYLINE
  5
1F4
330
50
100
AcDbEntity
  8
0
  6
Continuous
 62
     3
100
AcDbPolyline
 90
        2
 70
     0
 43
0.15
 10
31.4057624093233
 20
78.60179218657782
 10
31.47851572002332
 20
78.53896164717781
  0
LWPOLYLINE
  5
1F5
330
50
100
AcDbEntity
  8
0
  6
Continuous
 62
     3
100
AcDbPolyline
 90
        2
 70
     0
 43
0.15
 10
31.47851572002332
 20
78.53896164717781
 10
31.58537467962333
 20
78.48309898117782
  0
LWPOLYLINE
  5
1F6
330
50
100
AcDbEntity
  8
0
  6
Continuous
 62
     3
100
AcDbPolyline
 90
        2
 70
     0
 43
0.15
 10
72.37719002082332
 20
62.56212672767782
 10
72.37600531882333
 20
62.48754701557778
  0
LWPOLYLINE
  5
1F7
330
50
100
AcDbEntity
  8
0
  6
Continuous
 62
     3
100
AcDbPolyline
 90
        2
 70
     0
 43
0.15
 10
72.37600531882333
 20
62.48754701557778
 10
72.29508221162331
 20
62.14608049847777
  0
LWPOLYLINE
  5
1F8
330
50
100
AcDbEntity
  8
0
  6
Continuous
 62
     3
100
AcDbPolyline
 90
        2
 70
     0
 43
0.15
 10
98.6811675788233
 20
70.16367191607782
 10
97.72595284742329
 20
70.19030090687784
  0
LWPOLYLINE
  5
1F9
330
50
100
AcDbEntity
  8
0
  6
Continuous
 62
     3
100
AcDbPolyline
 90
        2
 70
     0
 43
0.15
 10
97.72595284742329
 20
70.19030090687784
 10
97.3047165928233
 20
70.2164172987778
  0
LWPOLYLINE
  5
1FA
330
50
100
AcDbEntity
  8
0
  6
Continuous
 62
     3
100
AcDbPolyline
 90
        2
 70
     0
 43
0.15
 10
106.5493340694234
 20
72.72735368067782
 10
106.5432651669233
 20
72.68523840927782
  0
LWPOLYLINE
  5
1FB
330
50
100
AcDbEntity
  8
0
  6
Continuous
 62
     3
100
AcDbPolyline
 90
        2
 70
     0
 43
0.15
 10
106.5432651669233
 20
72.68523840927782
 10
106.5026552634233
 20
72.61659032167779
  0
LWPOLYLINE
  5
1FC
330
50
100
AcDbEntity
  8
0
  6
Continuous
 62
     3
100
AcDbPolyline
 90
        2
 70
     0
 43
0.15
 10
106.5026552634233
 20
72.61659032167779
 10
106.4254192542232
 20
72.55128095157784
  0
LWPOLYLINE
  5
1FD
330
50
100
AcDbEntity
  8
0
  6
Continuous
 62
     3
100
AcDbPolyline
 90
        2
 70
     0
 43
0.15
 10
106.4254192542232
 20
72.55128095157784
 10
106.3145260108233
 20
72.49181985137778
  0
LWPOLYLINE
  5
1FE
330
50
100
AcDbEntity
  8
0
  6
Continuous
 62
     3
100
AcDbPolyline
 90
        2
 70
     0
 43
0.15
 10
106.3145260108233
 20
72.49181985137778
 10
106.1742395172233
 20
72.4404927641778
  0
LWPOLYLINE
  5
1FF
330
50
100
AcDbEntity
  8
0
  6
Continuous
 62
     3
100
AcDbPolyline
 90
        2
 70
     0
 43
0.15
 10
37.40095838362333
 20
71.30273574367777
 10
37.24845842542334
 20
71.30006077517783
  0
LWPOLYLINE
  5
200
330
50
100
AcDbEntity
  8
0
  6
Continuous
 62
     3
100
AcDbPolyline
 90
        2
 70
     0
 43
0.15
 10
37.24845842542334
 20
71.30006077517783
 10
36.2875995106233
 20
71.3085916674778
  0
LWPOLYLINE
  5
201
330
50
100
AcDbEntity
  8
0
  6
Continuous
 62
     3
100
AcDbPolyline
 90
        2
 70
     0
 43
0.15
 10
30.91646846362335
 20
73.56995292947784
 10
30.70275170782333
 20
73.68167777157782
  0
LWPOLYLINE
  5
202
330
50
100
AcDbEntity
  8
0
  6
Continuous
 62
     3
100
AcDbPolyline
 90
        2
 70
     0
 43
0.15
 10
30.70275170782333
 20
73.68167777157782
 10
30.55724508632329
 20
73.80733885047778
  0
LWPOLYLINE
  5
203
330
50
100
AcDbEntity
  8
0
  6
Continuous
 62
     3
100
AcDbPolyline
 90
        2
 70
     0
 43
0.15
 10
30.55724508632329
 20
73.80733885047778
 10
30.48553854082331
 20
73.9421079591778
  0
LWPOLYLINE
  5
204
330
50
100
AcDbEntity
  8
0
  6
Continuous
 62
     3
100
AcDbPolyline
 90
        2
 70
     0
 43
0.15
 10
30.48553854082331
 20
73.9421079591778
 10
30.47825428972328
 20
73.9965758465778
  0
LWPOLYLINE
  5
205
330
50
100
AcDbEntity
  8
0
  6
Continuous
 62
     3
100
AcDbPolyline
 90
        2
 70
     0
 43
0.15
 10
46.4421864643233
 20
83.69741998587779
 10
47.62436377672333
 20
83.23371910267781
  0
LWPOLYLINE
  5
206
330
50
100
AcDbEntity
  8
0
  6
Continuous
 62
     3
100
AcDbPolyline
 90
        2
 70
     0
 43
0.15
 10
47.62436377672333
 20
83.23371910267781
 10
48.89524190962334
 20
82.80056896517783
  0
LWPOLYLINE
  5
207
330
50
100
AcDbEntity
  8
0
  6
Continuous
 62
     3
100
AcDbPolyline
 90
        2
 70
     0
 43
0.15
 10
48.89524190962334
 20
82.80056896517783
 10
50.24926066022329
 20
82.39986260047783
  0
LWPOLYLINE
  5
208
330
50
100
AcDbEntity
  8
0
  6
Continuous
 62
     3
100
AcDbPolyline
 90
        2
 70
     0
 43
0.15
 10
50.24926066022329
 20
82.39986260047783
 10
51.68050127972333
 20
82.03335309587783
  0
LWPOLYLINE
  5
209
330
50
100
AcDbEntity
  8
0
  6
Continuous
 62
     3
100
AcDbPolyline
 90
        2
 70
     0
 43
0.15
 10
51.68050127972333
 20
82.03335309587783
 10
53.18270370802333
 20
81.70264212607782
  0
LWPOLYLINE
  5
20A
330
50
100
AcDbEntity
  8
0
  6
Continuous
 62
     3
100
AcDbPolyline
 90
        2
 70
     0
 43
0.15
 10
53.18270370802333
 20
81.70264212607782
 10
54.74930096442336
 20
81.4091770683778
  0
LWPOLYLINE
  5
20B
330
50
100
AcDbEntity
  8
0
  6
Continuous
 62
     3
100
AcDbPolyline
 90
        2
 70
     0
 43
0.15
 10
54.74930096442336
 20
81.4091770683778
 10
56.37344169032332
 20
81.15424045707778
  0
LWPOLYLINE
  5
20C
330
50
100
AcDbEntity
  8
0
  6
Continuous
 62
     3
100
AcDbPolyline
 90
        2
 70
     0
 43
0.15
 10
56.37344169032332
 20
81.15424045707778
 10
58.0480230129233
 20
80.93894668727779
  0
LWPOLYLINE
  5
20D
330
50
100
AcDbEntity
  8
0
  6
Continuous
 62
     3
100
AcDbPolyline
 90
        2
 70
     0
 43
0.15
 10
58.0480230129233
 20
80.93894668727779
 10
59.76572515502335
 20
80.7642379831778
  0
LWPOLYLINE
  5
20E
330
50
100
AcDbEntity
  8
0
  6
Continuous
 62
     3
100
AcDbPolyline
 90
        2
 70
     0
 43
0.15
 10
59.76572515502335
 20
80.7642379831778
 10
61.51903499362334
 20
80.63087764057781
  0
LWPOLYLINE
  5
20F
330
50
100
AcDbEntity
  8
0
  6
Continuous
 62
     3
100
AcDbPolyline
 90
        2
 70
     0
 43
0.15
 10
61.51903499362334
 20
80.63087764057781
 10
63.30028590362332
 20
80.53944906257777
  0
LWPOLYLINE
  5
210
330
50
100
AcDbEntity
  8
0
  6
Continuous
 62
     3
100
AcDbPolyline
 90
        2
 70
     0
 43
0.15
 10
63.30028590362332
 20
80.53944906257777
 10
65.10168829522331
 20
80.49035238727782
  0
LWPOLYLINE
  5
211
330
50
100
AcDbEntity
  8
0
  6
Continuous
 62
     3
100
AcDbPolyline
 90
        2
 70
     0
 43
0.15
 10
65.10168829522331
 20
80.49035238727782
 10
66.91536684072332
 20
80.48380146267777
  0
LWPOLYLINE
  5
212
330
50
100
AcDbEntity
  8
0
  6
Continuous
 62
     3
100
AcDbPolyline
 90
        2
 70
     0
 43
0.15
 10
66.91536684072332
 20
80.48380146267777
 10
68.73339013792332
 20
80.51982611357778
  0
LWPOLYLINE
  5
213
330
50
100
AcDbEntity
  8
0
  6
Continuous
 62
     3
100
AcDbPolyline
 90
        2
 70
     0
 43
0.15
 10
68.73339013792332
 20
80.51982611357778
 10
70.54780691902329
 20
80.59826796277781
  0
LWPOLYLINE
  5
214
330
50
100
AcDbEntity
  8
0
  6
Continuous
 62
     3
100
AcDbPolyline
 90
        2
 70
     0
 43
0.15
 10
70.54780691902329
 20
80.59826796277781
 10
72.35068603832332
 20
80.71878414857781
  0
LWPOLYLINE
  5
215
330
50
100
AcDbEntity
  8
0
  6
Continuous
 62
     3
100
AcDbPolyline
 90
        2
 70
     0
 43
0.15
 10
72.35068603832332
 20
80.71878414857781
 10
74.13414104642334
 20
80.88084804477779
  0
LWPOLYLINE
  5
216
330
50
100
AcDbEntity
  8
0
  6
Continuous
 62
     3
100
AcDbPolyline
 90
        2
 70
     0
 43
0.15
 10
74.13414104642334
 20
80.88084804477779
 10
75.89037526822335
 20
81.08375030717781
  0
LWPOLYLINE
  5
217
330
50
100
AcDbEntity
  8
0
  6
Continuous
 62
     3
100
AcDbPolyline
 90
        2
 70
     0
 43
0.15
 10
75.89037526822335
 20
81.08375030717781
 10
77.6117089933233
 20
81.3266037630778
  0
LWPOLYLINE
  5
218
330
50
100
AcDbEntity
  8
0
  6
Continuous
 62
     3
100
AcDbPolyline
 90
        2
 70
     0
 43
0.15
 10
77.6117089933233
 20
81.3266037630778
 10
79.2906142288233
 20
81.60834722317782
  0
LWPOLYLINE
  5
219
330
50
100
AcDbEntity
  8
0
  6
Continuous
 62
     3
100
AcDbPolyline
 90
        2
 70
     0
 43
0.15
 10
79.2906142288233
 20
81.60834722317782
 10
80.91975068792328
 20
81.92774798417781
  0
LWPOLYLINE
  5
21A
330
50
100
AcDbEntity
  8
0
  6
Continuous
 62
     3
100
AcDbPolyline
 90
        2
 70
     0
 43
0.15
 10
80.91975068792328
 20
81.92774798417781
 10
82.4919932345233
 20
82.2834101676778
  0
LWPOLYLINE
  5
21B
330
50
100
AcDbEntity
  8
0
  6
Continuous
 62
     3
100
AcDbPolyline
 90
        2
 70
     0
 43
0.15
 10
82.4919932345233
 20
82.2834101676778
 10
84.00046868932333
 20
82.6737774702778
  0
LWPOLYLINE
  5
21C
330
50
100
AcDbEntity
  8
0
  6
Continuous
 62
     3
100
AcDbPolyline
 90
        2
 70
     0
 43
0.15
 10
84.00046868932333
 20
82.6737774702778
 10
85.43857937092332
 20
83.09714369047782
  0
LWPOLYLINE
  5
21D
330
50
100
AcDbEntity
  8
0
  6
Continuous
 62
     3
100
AcDbPolyline
 90
        2
 70
     0
 43
0.15
 10
85.43857937092332
 20
83.09714369047782
 10
86.80003756972332
 20
83.5516573001778
  0
LWPOLYLINE
  5
21E
330
50
100
AcDbEntity
  8
0
  6
Continuous
 62
     3
100
AcDbPolyline
 90
        2
 70
     0
 43
0.15
 10
86.80003756972332
 20
83.5516573001778
 10
88.07888882132329
 20
84.03533104617782
  0
LWPOLYLINE
  5
21F
330
50
100
AcDbEntity
  8
0
  6
Continuous
 62
     3
100
AcDbPolyline
 90
        2
 70
     0
 43
0.15
 10
88.07888882132329
 20
84.03533104617782
 10
89.26954263102334
 20
84.54604959967781
  0
LWPOLYLINE
  5
220
330
50
100
AcDbEntity
  8
0
  6
Continuous
 62
     3
100
AcDbPolyline
 90
        2
 70
     0
 43
0.15
 10
89.26954263102334
 20
84.54604959967781
 10
90.3667912336233
 20
85.08158031687782
  0
LWPOLYLINE
  5
221
330
50
100
AcDbEntity
  8
0
  6
Continuous
 62
     3
100
AcDbPolyline
 90
        2
 70
     0
 43
0.15
 10
90.3667912336233
 20
85.08158031687782
 10
91.36583852402327
 20
85.63958034237783
  0
LWPOLYLINE
  5
222
330
50
100
AcDbEntity
  8
0
  6
Continuous
 62
     3
100
AcDbPolyline
 90
        2
 70
     0
 43
0.15
 10
91.36583852402327
 20
85.63958034237783
 10
92.26231317632335
 20
86.21761071667783
  0
LWPOLYLINE
  5
223
330
50
100
AcDbEntity
  8
0
  6
Continuous
 62
     3
100
AcDbPolyline
 90
        2
 70
     0
 43
0.15
 10
92.26231317632335
 20
86.21761071667783
 10
93.0522967065233
 20
86.8131440589778
  0
LWPOLYLINE
  5
224
330
50
100
AcDbEntity
  8
0
  6
Continuous
 62
     3
100
AcDbPolyline
 90
        2
 70
     0
 43
0.15
 10
93.0522967065233
 20
86.8131440589778
 10
93.73233561072334
 20
87.42357500287778
  0
LWPOLYLINE
  5
225
330
50
100
AcDbEntity
  8
0
  6
Continuous
 62
     3
100
AcDbPolyline
 90
        2
 70
     0
 43
0.15
 10
93.73233561072334
 20
87.42357500287778
 10
94.29945495752327
 20
88.04623529017783
  0
LWPOLYLINE
  5
226
330
50
100
AcDbEntity
  8
0
  6
Continuous
 62
     3
100
AcDbPolyline
 90
        2
 70
     0
 43
0.15
 10
94.29945495752327
 20
88.04623529017783
 10
94.75117336262338
 20
88.67840169407782
  0
LWPOLYLINE
  5
227
330
50
100
AcDbEntity
  8
0
  6
Continuous
 62
     3
100
AcDbPolyline
 90
        2
 70
     0
 43
0.15
 10
94.75117336262338
 20
88.67840169407782
 10
95.0855192711233
 20
89.3173102437778
  0
LWPOLYLINE
  5
228
330
50
100
AcDbEntity
  8
0
  6
Continuous
 62
     3
100
AcDbPolyline
 90
        2
 70
     0
 43
0.15
 10
95.0855192711233
 20
89.3173102437778
 10
95.3010292089233
 20
89.96016750047784
  0
LWPOLYLINE
  5
229
330
50
100
AcDbEntity
  8
0
  6
Continuous
 62
     3
100
AcDbPolyline
 90
        2
 70
     0
 43
0.15
 10
95.3010292089233
 20
89.96016750047784
 10
95.39676028532335
 20
90.60416110277782
  0
LWPOLYLINE
  5
22A
330
50
100
AcDbEntity
  8
0
  6
Continuous
 62
     3
100
AcDbPolyline
 90
        2
 70
     0
 43
0.15
 10
95.39676028532335
 20
90.60416110277782
 10
95.37229280522331
 20
91.24647658447782
  0
LWPOLYLINE
  5
22B
330
50
100
AcDbEntity
  8
0
  6
Continuous
 62
     3
100
AcDbPolyline
 90
        2
 70
     0
 43
0.15
 10
95.37229280522331
 20
91.24647658447782
 10
95.22773492072338
 20
91.88430384797778
  0
LWPOLYLINE
  5
22C
330
50
100
AcDbEntity
  8
0
  6
Continuous
 62
     3
100
AcDbPolyline
 90
        2
 70
     0
 43
0.15
 10
95.22773492072338
 20
91.88430384797778
 10
94.96371971702331
 20
92.5148552546778
  0
LWPOLYLINE
  5
22D
330
50
100
AcDbEntity
  8
0
  6
Continuous
 62
     3
100
AcDbPolyline
 90
        2
 70
     0
 43
0.15
 10
94.96371971702331
 20
92.5148552546778
 10
94.58139939442333
 20
93.1353722903778
  0
LWPOLYLINE
  5
22E
330
50
100
AcDbEntity
  8
0
  6
Continuous
 62
     3
100
AcDbPolyline
 90
        2
 70
     0
 43
0.15
 10
94.58139939442333
 20
93.1353722903778
 10
94.08244788042339
 20
93.7431423829778
  0
LWPOLYLINE
  5
22F
330
50
100
AcDbEntity
  8
0
  6
Continuous
 62
     3
100
AcDbPolyline
 90
        2
 70
     0
 43
0.15
 10
94.08244788042339
 20
93.7431423829778
 10
93.46904715832329
 20
94.3355078200778
  0
LWPOLYLINE
  5
230
330
50
100
AcDbEntity
  8
0
  6
Continuous
 62
     3
100
AcDbPolyline
 90
        2
 70
     0
 43
0.15
 10
93.46904715832329
 20
94.3355078200778
 10
92.74387621222331
 20
94.90987778187781
  0
LWPOLYLINE
  5
231
330
50
100
AcDbEntity
  8
0
  6
Continuous
 62
     3
100
AcDbPolyline
 90
        2
 70
     0
 43
0.15
 10
92.74387621222331
 20
94.90987778187781
 10
91.91010986002334
 20
95.4637414793778
  0
LWPOLYLINE
  5
232
330
50
100
AcDbEntity
  8
0
  6
Continuous
 62
     3
100
AcDbPolyline
 90
        2
 70
     0
 43
0.15
 10
91.91010986002334
 20
95.4637414793778
 10
90.97139170392325
 20
95.99467638127783
  0
LWPOLYLINE
  5
233
330
50
100
AcDbEntity
  8
0
  6
Continuous
 62
     3
100
AcDbPolyline
 90
        2
 70
     0
 43
0.15
 10
90.97139170392325
 20
95.99467638127783
 10
89.93182794662334
 20
96.50036135717778
  0
LWPOLYLINE
  5
234
330
50
100
AcDbEntity
  8
0
  6
Continuous
 62
     3
100
AcDbPolyline
 90
        2
 70
     0
 43
0.15
 10
89.93182794662334
 20
96.50036135717778
 10
88.7959631050233
 20
96.9785847944778
  0
LWPOLYLINE
  5
235
330
50
100
AcDbEntity
  8
0
  6
Continuous
 62
     3
100
AcDbPolyline
 90
        2
 70
     0
 43
0.15
 10
88.7959631050233
 20
96.9785847944778
 10
87.56876408402331
 20
97.4272555198778
  0
LWPOLYLINE
  5
236
330
50
100
AcDbEntity
  8
0
  6
Continuous
 62
     3
100
AcDbPolyline
 90
        2
 70
     0
 43
0.15
 10
87.56876408402331
 20
97.4272555198778
 10
86.25559836222328
 20
97.84441198337782
  0
LWPOLYLINE
  5
237
330
50
100
AcDbEntity
  8
0
  6
Continuous
 62
     3
100
AcDbPolyline
 90
        2
 70
     0
 43
0.15
 10
86.25559836222328
 20
97.84441198337782
 10
84.86220643372332
 20
98.22822964507782
  0
LWPOLYLINE
  5
238
330
50
100
AcDbEntity
  8
0
  6
Continuous
 62
     3
100
AcDbPolyline
 90
        2
 70
     0
 43
0.15
 10
84.86220643372332
 20
98.22822964507782
 10
83.39468333782332
 20
98.57703085947782
  0
LWPOLYLINE
  5
239
330
50
100
AcDbEntity
  8
0
  6
Continuous
 62
     3
100
AcDbPolyline
 90
        2
 70
     0
 43
0.15
 10
83.39468333782332
 20
98.57703085947782
 10
81.85944339522331
 20
98.88928918257778
  0
LWPOLYLINE
  5
23A
330
50
100
AcDbEntity
  8
0
  6
Continuous
 62
     3
100
AcDbPolyline
 90
        2
 70
     0
 43
0.15
 10
81.85944339522331
 20
98.88928918257778
 10
80.26320188272331
 20
99.1636402494778
  0
LWPOLYLINE
  5
23B
330
50
100
AcDbEntity
  8
0
  6
Continuous
 62
     3
100
AcDbPolyline
 90
        2
 70
     0
 43
0.15
 10
80.26320188272331
 20
99.1636402494778
 10
78.6129389702233
 20
99.39888430947781
  0
LWPOLYLINE
  5
23C
330
50
100
AcDbEntity
  8
0
  6
Continuous
 62
     3
100
AcDbPolyline
 90
        2
 70
     0
 43
0.15
 10
78.6129389702233
 20
99.39888430947781
 10
76.91586830942333
 20
99.59399207327783
  0
LWPOLYLINE
  5
23D
330
50
100
AcDbEntity
  8
0
  6
Continuous
 62
     3
100
AcDbPolyline
 90
        2
 70
     0
 43
0.15
 10
76.91586830942333
 20
99.59399207327783
 10
75.17941463902332
 20
99.74811098017778
  0
LWPOLYLINE
  5
23E
330
50
100
AcDbEntity
  8
0
  6
Continuous
 62
     3
100
AcDbPolyline
 90
        2
 70
     0
 43
0.15
 10
75.17941463902332
 20
99.74811098017778
 10
73.41116696072334
 20
99.86056699407777
  0
LWPOLYLINE
  5
23F
330
50
100
AcDbEntity
  8
0
  6
Continuous
 62
     3
100
AcDbPolyline
 90
        2
 70
     0
 43
0.15
 10
73.41116696072334
 20
99.86056699407777
 10
71.61886108902331
 20
99.93086773437778
  0
LWPOLYLINE
  5
240
330
50
100
AcDbEntity
  8
0
  6
Continuous
 62
     3
100
AcDbPolyline
 90
        2
 70
     0
 43
0.15
 10
71.61886108902331
 20
99.93086773437778
 10
69.8103302097233
 20
99.9587064288778
  0
LWPOLYLINE
  5
241
330
50
100
AcDbEntity
  8
0
  6
Continuous
 62
     3
100
AcDbPolyline
 90
        2
 70
     0
 43
0.15
 10
69.8103302097233
 20
99.9587064288778
 10
67.99348626712333
 20
99.94396131807781
  0
LWPOLYLINE
  5
242
330
50
100
AcDbEntity
  8
0
  6
Continuous
 62
     3
100
AcDbPolyline
 90
        2
 70
     0
 43
0.15
 10
67.99348626712333
 20
99.94396131807781
 10
66.17627314072331
 20
99.88669745137781
  0
LWPOLYLINE
  5
243
330
50
100
AcDbEntity
  8
0
  6
Continuous
 62
     3
100
AcDbPolyline
 90
        2
 70
     0
 43
0.15
 10
66.17627314072331
 20
99.88669745137781
 10
64.36663552752333
 20
99.78716397857784
  0
LWPOLYLINE
  5
244
330
50
100
AcDbEntity
  8
0
  6
Continuous
 62
     3
100
AcDbPolyline
 90
        2
 70
     0
 43
0.15
 10
64.36663552752333
 20
99.78716397857784
 10
62.5724881141233
 20
99.64579658987782
  0
LWPOLYLINE
  5
245
330
50
100
AcDbEntity
  8
0
  6
Continuous
 62
     3
100
AcDbPolyline
 90
        2
 70
     0
 43
0.15
 10
62.5724881141233
 20
99.64579658987782
 10
60.80167369842332
 20
99.4632140673778
  0
LWPOLYLINE
  5
246
330
50
100
AcDbEntity
  8
0
  6
Continuous
 62
     3
100
AcDbPolyline
 90
        2
 70
     0
 43
0.15
 10
60.80167369842332
 20
99.4632140673778
 10
59.06193890722329
 20
99.24021428067783
  0
LWPOLYLINE
  5
247
330
50
100
AcDbEntity
  8
0
  6
Continuous
 62
     3
100
AcDbPolyline
 90
        2
 70
     0
 43
0.15
 10
59.06193890722329
 20
99.24021428067783
 10
57.36089035502334
 20
98.97777182867782
  0
LWPOLYLINE
  5
248
330
50
100
AcDbEntity
  8
0
  6
Continuous
 62
     3
100
AcDbPolyline
 90
        2
 70
     0
 43
0.15
 10
57.36089035502334
 20
98.97777182867782
 10
55.70596388972331
 20
98.67703544147781
  0
LWPOLYLINE
  5
249
330
50
100
AcDbEntity
  8
0
  6
Continuous
 62
     3
100
AcDbPolyline
 90
        2
 70
     0
 43
0.15
 10
55.70596388972331
 20
98.67703544147781
 10
54.10439885712333
 20
98.33931931767779
  0
LWPOLYLINE
  5
24A
330
50
100
AcDbEntity
  8
0
  6
Continuous
 62
     3
100
AcDbPolyline
 90
        2
 70
     0
 43
0.15
 10
54.10439885712333
 20
98.33931931767779
 10
52.56319705942332
 20
97.9661007731778
  0
LWPOLYLINE
  5
24B
330
50
100
AcDbEntity
  8
0
  6
Continuous
 62
     3
100
AcDbPolyline
 90
        2
 70
     0
 43
0.15
 10
52.56319705942332
 20
97.9661007731778
 10
51.08909847782331
 20
97.55901117837777
  0
LWPOLYLINE
  5
24C
330
50
100
AcDbEntity
  8
0
  6
Continuous
 62
     3
100
AcDbPolyline
 90
        2
 70
     0
 43
0.15
 10
51.08909847782331
 20
97.55901117837777
 10
49.6885485519233
 20
97.11983107517779
  0
LWPOLYLINE
  5
24D
330
50
100
AcDbEntity
  8
0
  6
Continuous
 62
     3
100
AcDbPolyline
 90
        2
 70
     0
 43
0.15
 10
49.6885485519233
 20
97.11983107517779
 10
48.36767210832329
 20
96.65048056887781
  0
LWPOLYLINE
  5
24E
330
50
100
AcDbEntity
  8
0
  6
Continuous
 62
     3
100
AcDbPolyline
 90
        2
 70
     0
 43
0.15
 10
48.36767210832329
 20
96.65048056887781
 10
47.13224310762331
 20
96.15301266547783
  0
LWPOLYLINE
  5
24F
330
50
100
AcDbEntity
  8
0
  6
Continuous
 62
     3
100
AcDbPolyline
 90
        2
 70
     0
 43
0.15
 10
47.13224310762331
 20
96.15301266547783
 10
45.98766645752335
 20
95.62960184187779
  0
LWPOLYLINE
  5
250
330
50
100
AcDbEntity
  8
0
  6
Continuous
 62
     3
100
AcDbPolyline
 90
        2
 70
     0
 43
0.15
 10
45.98766645752335
 20
95.62960184187779
 10
44.93894516492333
 20
95.0825374384778
  0
LWPOLYLINE
  5
251
330
50
100
AcDbEntity
  8
0
  6
Continuous
 62
     3
100
AcDbPolyline
 90
        2
 70
     0
 43
0.15
 10
44.93894516492333
 20
95.0825374384778
 10
43.99066679862335
 20
94.51421111167781
  0
LWPOLYLINE
  5
252
330
50
100
AcDbEntity
  8
0
  6
Continuous
 62
     3
100
AcDbPolyline
 90
        2
 70
     0
 43
0.15
 10
43.99066679862335
 20
94.51421111167781
 10
43.14697604472332
 20
93.9271084954778
  0
LWPOLYLINE
  5
253
330
50
100
AcDbEntity
  8
0
  6
Continuous
 62
     3
100
AcDbPolyline
 90
        2
 70
     0
 43
0.15
 10
43.14697604472332
 20
93.9271084954778
 10
42.41156198702333
 20
93.32379690207779
  0
LWPOLYLINE
  5
254
330
50
100
AcDbEntity
  8
0
  6
Continuous
 62
     3
100
AcDbPolyline
 90
        2
 70
     0
 43
0.15
 10
42.41156198702333
 20
93.32379690207779
 10
41.78764196912334
 20
92.7069136720778
  0
LWPOLYLINE
  5
255
330
50
100
AcDbEntity
  8
0
  6
Continuous
 62
     3
100
AcDbPolyline
 90
        2
 70
     0
 43
0.15
 10
41.78764196912334
 20
92.7069136720778
 10
41.27794371202333
 20
92.07915736707781
  0
LWPOLYLINE
  5
256
330
50
100
AcDbEntity
  8
0
  6
Continuous
 62
     3
100
AcDbPolyline
 90
        2
 70
     0
 43
0.15
 10
41.27794371202333
 20
92.07915736707781
 10
40.8846951393233
 20
91.44327202757779
  0
LWPOLYLINE
  5
257
330
50
100
AcDbEntity
  8
0
  6
Continuous
 62
     3
100
AcDbPolyline
 90
        2
 70
     0
 43
0.15
 10
40.8846951393233
 20
91.44327202757779
 10
40.60961841792334
 20
90.8020386153778
  0
LWPOLYLINE
  5
258
330
50
100
AcDbEntity
  8
0
  6
Continuous
 62
     3
100
AcDbPolyline
 90
        2
 70
     0
 43
0.15
 10
40.60961841792334
 20
90.8020386153778
 10
40.45391324002333
 20
90.1582615000778
  0
LWPOLYLINE
  5
259
330
50
100
AcDbEntity
  8
0
  6
Continuous
 62
     3
100
AcDbPolyline
 90
        2
 70
     0
 43
0.15
 10
40.45391324002333
 20
90.1582615000778
 10
40.41826249772333
 20
89.5147550032778
  0
LWPOLYLINE
  5
25A
330
50
100
AcDbEntity
  8
0
  6
Continuous
 62
     3
100
AcDbPolyline
 90
        2
 70
     0
 43
0.15
 10
40.41826249772333
 20
89.5147550032778
 10
40.50282123482333
 20
88.87433329407781
  0
LWPOLYLINE
  5
25B
330
50
100
AcDbEntity
  8
0
  6
Continuous
 62
     3
100
AcDbPolyline
 90
        2
 70
     0
 43
0.15
 10
40.50282123482333
 20
88.87433329407781
 10
40.7072189777233
 20
88.23979676037777
  0
LWPOLYLINE
  5
25C
330
50
100
AcDbEntity
  8
0
  6
Continuous
 62
     3
100
AcDbPolyline
 90
        2
 70
     0
 43
0.15
 10
40.7072189777233
 20
88.23979676037777
 10
41.0305641009233
 20
87.61392068547781
  0
LWPOLYLINE
  5
25D
330
50
100
AcDbEntity
  8
0
  6
Continuous
 62
     3
100
AcDbPolyline
 90
        2
 70
     0
 43
0.15
 10
41.0305641009233
 20
87.61392068547781
 10
41.47144005042333
 20
86.99944102777783
  0
LWPOLYLINE
  5
25E
330
50
100
AcDbEntity
  8
0
  6
Continuous
 62
     3
100
AcDbPolyline
 90
        2
 70
     0
 43
0.15
 10
41.47144005042333
 20
86.99944102777783
 10
42.0279201789233
 20
86.39904501367778
  0
LWPOLYLINE
  5
25F
330
50
100
AcDbEntity
  8
0
  6
Continuous
 62
     3
100
AcDbPolyline
 90
        2
 70
     0
 43
0.15
 10
42.0279201789233
 20
86.39904501367778
 10
42.69757327532329
 20
85.81535826957781
  0
LWPOLYLINE
  5
260
330
50
100
AcDbEntity
  8
0
  6
Continuous
 62
     3
100
AcDbPolyline
 90
        2
 70
     0
 43
0.15
 10
42.69757327532329
 20
85.81535826957781
 10
43.47746734882333
 20
85.25093268887781
  0
LWPOLYLINE
  5
261
330
50
100
AcDbEntity
  8
0
  6
Continuous
 62
     3
100
AcDbPolyline
 90
        2
 70
     0
 43
0.15
 10
43.47746734882333
 20
85.25093268887781
 10
44.36419507912331
 20
84.7082367709778
  0
LWPOLYLINE
  5
262
330
50
100
AcDbEntity
  8
0
  6
Continuous
 62
     3
100
AcDbPolyline
 90
        2
 70
     0
 43
0.15
 10
44.36419507912331
 20
84.7082367709778
 10
45.3538762197233
 20
84.1896430156778
  0
LWPOLYLINE
  5
263
330
50
100
AcDbEntity
  8
0
  6
Continuous
 62
     3
100
AcDbPolyline
 90
        2
 70
     0
 43
0.15
 10
45.3538762197233
 20
84.1896430156778
 10
46.4421864643233
 20
83.69741998587779
  0
LWPOLYLINE
  5
264
330
50
100
AcDbEntity
  8
0
  6
Continuous
 62
     3
100
AcDbPolyline
 90
        2
 70
     0
 43
0.15
 10
46.55388848572329
 20
79.0214669990778
 10
47.73606579812332
 20
78.55776611587783
  0
LWPOLYLINE
  5
265
330
50
100
AcDbEntity
  8
0
  6
Continuous
 62
     3
100
AcDbPolyline
 90
        2
 70
     0
 43
0.15
 10
47.73606579812332
 20
78.55776611587783
 10
49.00694393092329
 20
78.12461597837779
  0
LWPOLYLINE
  5
266
330
50
100
AcDbEntity
  8
0
  6
Continuous
 62
     3
100
AcDbPolyline
 90
        2
 70
     0
 43
0.15
 10
49.00694393092329
 20
78.12461597837779
 10
50.36096268152335
 20
77.72390961367779
  0
LWPOLYLINE
  5
267
330
50
100
AcDbEntity
  8
0
  6
Continuous
 62
     3
100
AcDbPolyline
 90
        2
 70
     0
 43
0.15
 10
50.36096268152335
 20
77.72390961367779
 10
51.79220330112332
 20
77.3574001089778
  0
LWPOLYLINE
  5
268
330
50
100
AcDbEntity
  8
0
  6
Continuous
 62
     3
100
AcDbPolyline
 90
        2
 70
     0
 43
0.15
 10
51.79220330112332
 20
77.3574001089778
 10
53.29440572932333
 20
77.02668913927778
  0
LWPOLYLINE
  5
269
330
50
100
AcDbEntity
  8
0
  6
Continuous
 62
     3
100
AcDbPolyline
 90
        2
 70
     0
 43
0.15
 10
53.29440572932333
 20
77.02668913927778
 10
54.86100298582335
 20
76.73322408147783
  0
LWPOLYLINE
  5
26A
330
50
100
AcDbEntity
  8
0
  6
Continuous
 62
     3
100
AcDbPolyline
 90
        2
 70
     0
 43
0.15
 10
54.86100298582335
 20
76.73322408147783
 10
56.48514371172331
 20
76.47828747027779
  0
LWPOLYLINE
  5
26B
330
50
100
AcDbEntity
  8
0
  6
Continuous
 62
     3
100
AcDbPolyline
 90
        2
 70
     0
 43
0.15
 10
56.48514371172331
 20
76.47828747027779
 10
58.1597250342233
 20
76.26299370047781
  0
LWPOLYLINE
  5
26C
330
50
100
AcDbEntity
  8
0
  6
Continuous
 62
     3
100
AcDbPolyline
 90
        2
 70
     0
 43
0.15
 10
58.1597250342233
 20
76.26299370047781
 10
59.8774271763233
 20
76.08828499627782
  0
LWPOLYLINE
  5
26D
330
50
100
AcDbEntity
  8
0
  6
Continuous
 62
     3
100
AcDbPolyline
 90
        2
 70
     0
 43
0.15
 10
59.8774271763233
 20
76.08828499627782
 10
61.63073701492334
 20
75.95492465377782
  0
LWPOLYLINE
  5
26E
330
50
100
AcDbEntity
  8
0
  6
Continuous
 62
     3
100
AcDbPolyline
 90
        2
 70
     0
 43
0.15
 10
61.63073701492334
 20
75.95492465377782
 10
63.41198792492332
 20
75.86349607577779
  0
LWPOLYLINE
  5
26F
330
50
100
AcDbEntity
  8
0
  6
Continuous
 62
     3
100
AcDbPolyline
 90
        2
 70
     0
 43
0.15
 10
63.41198792492332
 20
75.86349607577779
 10
65.21339031652332
 20
75.8143994003778
  0
LWPOLYLINE
  5
270
330
50
100
AcDbEntity
  8
0
  6
Continuous
 62
     3
100
AcDbPolyline
 90
        2
 70
     0
 43
0.15
 10
65.21339031652332
 20
75.8143994003778
 10
67.02706886212331
 20
75.80784847587779
  0
LWPOLYLINE
  5
271
330
50
100
AcDbEntity
  8
0
  6
Continuous
 62
     3
100
AcDbPolyline
 90
        2
 70
     0
 43
0.15
 10
67.02706886212331
 20
75.80784847587779
 10
68.84509215922333
 20
75.8438731267778
  0
LWPOLYLINE
  5
272
330
50
100
AcDbEntity
  8
0
  6
Continuous
 62
     3
100
AcDbPolyline
 90
        2
 70
     0
 43
0.15
 10
68.84509215922333
 20
75.8438731267778
 10
70.65950894042334
 20
75.92231497597777
  0
LWPOLYLINE
  5
273
330
50
100
AcDbEntity
  8
0
  6
Continuous
 62
     3
100
AcDbPolyline
 90
        2
 70
     0
 43
0.15
 10
70.65950894042334
 20
75.92231497597777
 10
72.46238805962332
 20
76.04283116177783
  0
LWPOLYLINE
  5
274
330
50
100
AcDbEntity
  8
0
  6
Continuous
 62
     3
100
AcDbPolyline
 90
        2
 70
     0
 43
0.15
 10
72.46238805962332
 20
76.04283116177783
 10
74.24584306772329
 20
76.20489505787782
  0
LWPOLYLINE
  5
275
330
50
100
AcDbEntity
  8
0
  6
Continuous
 62
     3
100
AcDbPolyline
 90
        2
 70
     0
 43
0.15
 10
74.24584306772329
 20
76.20489505787782
 10
76.0020772895233
 20
76.40779732037782
  0
LWPOLYLINE
  5
276
330
50
100
AcDbEntity
  8
0
  6
Continuous
 62
     3
100
AcDbPolyline
 90
        2
 70
     0
 43
0.15
 10
76.0020772895233
 20
76.40779732037782
 10
77.7234110147233
 20
76.65065077627781
  0
LWPOLYLINE
  5
277
330
50
100
AcDbEntity
  8
0
  6
Continuous
 62
     3
100
AcDbPolyline
 90
        2
 70
     0
 43
0.15
 10
77.7234110147233
 20
76.65065077627781
 10
79.4023162501233
 20
76.93239423637783
  0
LWPOLYLINE
  5
278
330
50
100
AcDbEntity
  8
0
  6
Continuous
 62
     3
100
AcDbPolyline
 90
        2
 70
     0
 43
0.15
 10
79.4023162501233
 20
76.93239423637783
 10
81.03145270932333
 20
77.25179499737783
  0
LWPOLYLINE
  5
279
330
50
100
AcDbEntity
  8
0
  6
Continuous
 62
     3
100
AcDbPolyline
 90
        2
 70
     0
 43
0.15
 10
81.03145270932333
 20
77.25179499737783
 10
82.60369525582331
 20
77.60745718077783
  0
LWPOLYLINE
  5
27A
330
50
100
AcDbEntity
  8
0
  6
Continuous
 62
     3
100
AcDbPolyline
 90
        2
 70
     0
 43
0.15
 10
82.60369525582331
 20
77.60745718077783
 10
84.11217071072332
 20
77.99782448347781
  0
LWPOLYLINE
  5
27B
330
50
100
AcDbEntity
  8
0
  6
Continuous
 62
     3
100
AcDbPolyline
 90
        2
 70
     0
 43
0.15
 10
84.11217071072332
 20
77.99782448347781
 10
85.55028139222333
 20
78.42119070367778
  0
LWPOLYLINE
  5
27C
330
50
100
AcDbEntity
  8
0
  6
Continuous
 62
     3
100
AcDbPolyline
 90
        2
 70
     0
 43
0.15
 10
85.55028139222333
 20
78.42119070367778
 10
86.91173959102332
 20
78.87570431337781
  0
LWPOLYLINE
  5
27D
330
50
100
AcDbEntity
  8
0
  6
Continuous
 62
     3
100
AcDbPolyline
 90
        2
 70
     0
 43
0.15
 10
86.91173959102332
 20
78.87570431337781
 10
88.19059084272328
 20
79.35937805927779
  0
LWPOLYLINE
  5
27E
330
50
100
AcDbEntity
  8
0
  6
Continuous
 62
     3
100
AcDbPolyline
 90
        2
 70
     0
 43
0.15
 10
88.19059084272328
 20
79.35937805927779
 10
89.38124465232329
 20
79.87009661287777
  0
LWPOLYLINE
  5
27F
330
50
100
AcDbEntity
  8
0
  6
Continuous
 62
     3
100
AcDbPolyline
 90
        2
 70
     0
 43
0.15
 10
89.38124465232329
 20
79.87009661287777
 10
90.47849325492325
 20
80.40562732997779
  0
LWPOLYLINE
  5
280
330
50
100
AcDbEntity
  8
0
  6
Continuous
 62
     3
100
AcDbPolyline
 90
        2
 70
     0
 43
0.15
 10
90.47849325492325
 20
80.40562732997779
 10
91.47754054532334
 20
80.96362735557778
  0
LWPOLYLINE
  5
281
330
50
100
AcDbEntity
  8
0
  6
Continuous
 62
     3
100
AcDbPolyline
 90
        2
 70
     0
 43
0.15
 10
91.47754054532334
 20
80.96362735557778
 10
92.37401519772334
 20
81.54165772987778
  0
LWPOLYLINE
  5
282
330
50
100
AcDbEntity
  8
0
  6
Continuous
 62
     3
100
AcDbPolyline
 90
        2
 70
     0
 43
0.15
 10
92.37401519772334
 20
81.54165772987778
 10
93.16399872782335
 20
82.13719107217781
  0
LWPOLYLINE
  5
283
330
50
100
AcDbEntity
  8
0
  6
Continuous
 62
     3
100
AcDbPolyline
 90
        2
 70
     0
 43
0.15
 10
93.16399872782335
 20
82.13719107217781
 10
93.84403763202329
 20
82.7476220160778
  0
LWPOLYLINE
  5
284
330
50
100
AcDbEntity
  8
0
  6
Continuous
 62
     3
100
AcDbPolyline
 90
        2
 70
     0
 43
0.15
 10
93.84403763202329
 20
82.7476220160778
 10
94.41115697882333
 20
83.37028230337779
  0
LWPOLYLINE
  5
285
330
50
100
AcDbEntity
  8
0
  6
Continuous
 62
     3
100
AcDbPolyline
 90
        2
 70
     0
 43
0.15
 10
94.41115697882333
 20
83.37028230337779
 10
94.86287538402325
 20
84.00244870717779
  0
LWPOLYLINE
  5
286
330
50
100
AcDbEntity
  8
0
  6
Continuous
 62
     3
100
AcDbPolyline
 90
        2
 70
     0
 43
0.15
 10
94.86287538402325
 20
84.00244870717779
 10
95.1972212925233
 20
84.64135725697781
  0
LWPOLYLINE
  5
287
330
50
100
AcDbEntity
  8
0
  6
Continuous
 62
     3
100
AcDbPolyline
 90
        2
 70
     0
 43
0.15
 10
95.1972212925233
 20
84.64135725697781
 10
95.41273123032329
 20
85.2842145136778
  0
LWPOLYLINE
  5
288
330
50
100
AcDbEntity
  8
0
  6
Continuous
 62
     3
100
AcDbPolyline
 90
        2
 70
     0
 43
0.15
 10
95.41273123032329
 20
85.2842145136778
 10
95.5084623066233
 20
85.92820811597778
  0
LWPOLYLINE
  5
289
330
50
100
AcDbEntity
  8
0
  6
Continuous
 62
     3
100
AcDbPolyline
 90
        2
 70
     0
 43
0.15
 10
95.5084623066233
 20
85.92820811597778
 10
95.51276782222328
 20
86.20102624957781
  0
LWPOLYLINE
  5
28A
330
50
100
AcDbEntity
  8
0
  6
Continuous
 62
     3
100
AcDbPolyline
 90
        2
 70
     0
 43
0.15
 10
40.5284548656233
 20
84.88752710087783
 10
40.52996451902334
 20
84.83880201647781
  0
LWPOLYLINE
  5
28B
330
50
100
AcDbEntity
  8
0
  6
Continuous
 62
     3
100
AcDbPolyline
 90
        2
 70
     0
 43
0.15
 10
40.52996451902334
 20
84.83880201647781
 10
40.61452325622332
 20
84.19838030727783
  0
LWPOLYLINE
  5
28C
330
50
100
AcDbEntity
  8
0
  6
Continuous
 62
     3
100
AcDbPolyline
 90
        2
 70
     0
 43
0.15
 10
40.61452325622332
 20
84.19838030727783
 10
40.81892099912329
 20
83.56384377357779
  0
LWPOLYLINE
  5
28D
330
50
100
AcDbEntity
  8
0
  6
Continuous
 62
     3
100
AcDbPolyline
 90
        2
 70
     0
 43
0.15
 10
40.81892099912329
 20
83.56384377357779
 10
41.14226612222331
 20
82.93796769857784
  0
LWPOLYLINE
  5
28E
330
50
100
AcDbEntity
  8
0
  6
Continuous
 62
     3
100
AcDbPolyline
 90
        2
 70
     0
 43
0.15
 10
41.14226612222331
 20
82.93796769857784
 10
41.58314207172333
 20
82.3234880408778
  0
LWPOLYLINE
  5
28F
330
50
100
AcDbEntity
  8
0
  6
Continuous
 62
     3
100
AcDbPolyline
 90
        2
 70
     0
 43
0.15
 10
41.58314207172333
 20
82.3234880408778
 10
42.1396222002233
 20
81.7230920268778
  0
LWPOLYLINE
  5
290
330
50
100
AcDbEntity
  8
0
  6
Continuous
 62
     3
100
AcDbPolyline
 90
        2
 70
     0
 43
0.15
 10
42.1396222002233
 20
81.7230920268778
 10
42.80927529662336
 20
81.13940528277783
  0
LWPOLYLINE
  5
291
330
50
100
AcDbEntity
  8
0
  6
Continuous
 62
     3
100
AcDbPolyline
 90
        2
 70
     0
 43
0.15
 10
42.80927529662336
 20
81.13940528277783
 10
43.58916937012333
 20
80.57497970207783
  0
LWPOLYLINE
  5
292
330
50
100
AcDbEntity
  8
0
  6
Continuous
 62
     3
100
AcDbPolyline
 90
        2
 70
     0
 43
0.15
 10
43.58916937012333
 20
80.57497970207783
 10
44.47589710042331
 20
80.03228378407778
  0
LWPOLYLINE
  5
293
330
50
100
AcDbEntity
  8
0
  6
Continuous
 62
     3
100
AcDbPolyline
 90
        2
 70
     0
 43
0.15
 10
44.47589710042331
 20
80.03228378407778
 10
45.46557824102331
 20
79.51369002887782
  0
LWPOLYLINE
  5
294
330
50
100
AcDbEntity
  8
0
  6
Continuous
 62
     3
100
AcDbPolyline
 90
        2
 70
     0
 43
0.15
 10
45.46557824102331
 20
79.51369002887782
 10
46.55388848572329
 20
79.0214669990778
  0
LWPOLYLINE
  5
295
330
50
100
AcDbEntity
  8
0
  6
Continuous
 62
     3
100
AcDbPolyline
 90
        2
 70
     0
 43
0.15
 10
78.19327739402331
 20
73.85508730577783
 10
77.06669494062334
 20
73.54033525917782
  0
LWPOLYLINE
  5
296
330
50
100
AcDbEntity
  8
0
  6
Continuous
 62
     3
100
AcDbPolyline
 90
        2
 70
     0
 43
0.15
 10
77.06669494062334
 20
73.54033525917782
 10
75.87262744052333
 20
73.26000112057778
  0
LWPOLYLINE
  5
297
330
50
100
AcDbEntity
  8
0
  6
Continuous
 62
     3
100
AcDbPolyline
 90
        2
 70
     0
 43
0.15
 10
75.87262744052333
 20
73.26000112057778
 10
74.6201613554233
 20
73.01621883657782
  0
LWPOLYLINE
  5
298
330
50
100
AcDbEntity
  8
0
  6
Continuous
 62
     3
100
AcDbPolyline
 90
        2
 70
     0
 43
0.15
 10
74.6201613554233
 20
73.01621883657782
 10
73.31882899302332
 20
72.81084373777782
  0
LWPOLYLINE
  5
299
330
50
100
AcDbEntity
  8
0
  6
Continuous
 62
     3
100
AcDbPolyline
 90
        2
 70
     0
 43
0.15
 10
73.31882899302332
 20
72.81084373777782
 10
71.97853431372334
 20
72.64543885097783
  0
LWPOLYLINE
  5
29A
330
50
100
AcDbEntity
  8
0
  6
Continuous
 62
     3
100
AcDbPolyline
 90
        2
 70
     0
 43
0.15
 10
71.97853431372334
 20
72.64543885097783
 10
70.60947728382331
 20
72.52126287587782
  0
LWPOLYLINE
  5
29B
330
50
100
AcDbEntity
  8
0
  6
Continuous
 62
     3
100
AcDbPolyline
 90
        2
 70
     0
 43
0.15
 10
70.60947728382331
 20
72.52126287587782
 10
69.2220783359233
 20
72.4392611483778
  0
LWPOLYLINE
  5
29C
330
50
100
AcDbEntity
  8
0
  6
Continuous
 62
     3
100
AcDbPolyline
 90
        2
 70
     0
 43
0.15
 10
69.2220783359233
 20
72.4392611483778
 10
67.82689490452333
 20
72.40005756727783
  0
LWPOLYLINE
  5
29D
330
50
100
AcDbEntity
  8
0
  6
Continuous
 62
     3
100
AcDbPolyline
 90
        2
 70
     0
 43
0.15
 10
67.82689490452333
 20
72.40005756727783
 10
66.43454639432332
 20
72.4039503497778
  0
LWPOLYLINE
  5
29E
330
50
100
AcDbEntity
  8
0
  6
Continuous
 62
     3
100
AcDbPolyline
 90
        2
 70
     0
 43
0.15
 10
66.43454639432332
 20
72.4039503497778
 10
65.05562904162332
 20
72.45091019717779
  0
LWPOLYLINE
  5
29F
330
50
100
AcDbEntity
  8
0
  6
Continuous
 62
     3
100
AcDbPolyline
 90
        2
 70
     0
 43
0.15
 10
65.05562904162332
 20
72.45091019717779
 10
63.7006366645233
 20
72.54057940637779
  0
LWPOLYLINE
  5
2A0
330
50
100
AcDbEntity
  8
0
  6
Continuous
 62
     3
100
AcDbPolyline
 90
        2
 70
     0
 43
0.15
 10
63.7006366645233
 20
72.54057940637779
 10
62.37988286602331
 20
72.6722756402778
  0
LWPOLYLINE
  5
2A1
330
50
100
AcDbEntity
  8
0
  6
Continuous
 62
     3
100
AcDbPolyline
 90
        2
 70
     0
 43
0.15
 10
62.37988286602331
 20
72.6722756402778
 10
61.10341800202332
 20
72.84499684787784
  0
LWPOLYLINE
  5
2A2
330
50
100
AcDbEntity
  8
0
  6
Continuous
 62
     3
100
AcDbPolyline
 90
        2
 70
     0
 43
0.15
 10
61.10341800202332
 20
72.84499684787784
 10
59.88095763592332
 20
73.0574281984778
  0
LWPOLYLINE
  5
2A3
330
50
100
AcDbEntity
  8
0
  6
Continuous
 62
     3
100
AcDbPolyline
 90
        2
 70
     0
 43
0.15
 10
59.88095763592332
 20
73.0574281984778
 10
58.7218050304233
 20
73.30795310877784
  0
LWPOLYLINE
  5
2A4
330
50
100
AcDbEntity
  8
0
  6
Continuous
 62
     3
100
AcDbPolyline
 90
        2
 70
     0
 43
0.15
 10
58.7218050304233
 20
73.30795310877784
 10
57.63478207322328
 20
73.59466493337777
  0
LWPOLYLINE
  5
2A5
330
50
100
AcDbEntity
  8
0
  6
Continuous
 62
     3
100
AcDbPolyline
 90
        2
 70
     0
 43
0.15
 10
57.63478207322328
 20
73.59466493337777
 10
56.62816194622332
 20
73.91538161147781
  0
LWPOLYLINE
  5
2A6
330
50
100
AcDbEntity
  8
0
  6
Continuous
 62
     3
100
AcDbPolyline
 90
        2
 70
     0
 43
0.15
 10
56.62816194622332
 20
73.91538161147781
 10
55.70960426662333
 20
74.26766190677779
  0
LWPOLYLINE
  5
2A7
330
50
100
AcDbEntity
  8
0
  6
Continuous
 62
     3
100
AcDbPolyline
 90
        2
 70
     0
 43
0.15
 10
55.70960426662333
 20
74.26766190677779
 10
54.88610302342329
 20
74.64882574637784
  0
LWPOLYLINE
  5
2A8
330
50
100
AcDbEntity
  8
0
  6
Continuous
 62
     3
100
AcDbPolyline
 90
        2
 70
     0
 43
0.15
 10
54.88610302342329
 20
74.64882574637784
 10
54.16392229952328
 20
75.05597127087782
  0
LWPOLYLINE
  5
2A9
330
50
100
AcDbEntity
  8
0
  6
Continuous
 62
     3
100
AcDbPolyline
 90
        2
 70
     0
 43
0.15
 10
54.16392229952328
 20
75.05597127087782
 10
53.54855962032332
 20
75.4860002773778
  0
LWPOLYLINE
  5
2AA
330
50
100
AcDbEntity
  8
0
  6
Continuous
 62
     3
100
AcDbPolyline
 90
        2
 70
     0
 43
0.15
 10
53.54855962032332
 20
75.4860002773778
 10
53.04469825182332
 20
75.9356398847778
  0
LWPOLYLINE
  5
2AB
330
50
100
AcDbEntity
  8
0
  6
Continuous
 62
     3
100
AcDbPolyline
 90
        2
 70
     0
 43
0.15
 10
53.04469825182332
 20
75.9356398847778
 10
52.65617287572331
 20
76.40146805147782
  0
LWPOLYLINE
  5
2AC
330
50
100
AcDbEntity
  8
0
  6
Continuous
 62
     3
100
AcDbPolyline
 90
        2
 70
     0
 43
0.15
 10
52.65617287572331
 20
76.40146805147782
 10
52.38594006252333
 20
76.87993970827779
  0
LWPOLYLINE
  5
2AD
330
50
100
AcDbEntity
  8
0
  6
Continuous
 62
     3
100
AcDbPolyline
 90
        2
 70
     0
 43
0.15
 10
52.38594006252333
 20
76.87993970827779
 10
52.26127677662333
 20
77.24856022737782
  0
LWPOLYLINE
  5
2AE
330
50
100
AcDbEntity
  8
0
  6
Continuous
 62
     3
100
AcDbPolyline
 90
        2
 70
     0
 43
0.15
 10
84.15459761742329
 20
77.99279995507777
 10
84.09769156992331
 20
77.77101708947782
  0
LWPOLYLINE
  5
2AF
330
50
100
AcDbEntity
  8
0
  6
Continuous
 62
     3
100
AcDbPolyline
 90
        2
 70
     0
 43
0.15
 10
84.09769156992331
 20
77.77101708947782
 10
83.88338187372335
 20
77.27893028857778
  0
LWPOLYLINE
  5
2B0
330
50
100
AcDbEntity
  8
0
  6
Continuous
 62
     3
100
AcDbPolyline
 90
        2
 70
     0
 43
0.15
 10
83.88338187372335
 20
77.27893028857778
 10
83.54970746692334
 20
76.79280866237781
  0
LWPOLYLINE
  5
2B1
330
50
100
AcDbEntity
  8
0
  6
Continuous
 62
     3
100
AcDbPolyline
 90
        2
 70
     0
 43
0.15
 10
83.54970746692334
 20
76.79280866237781
 10
83.09920760762333
 20
76.31635234287779
  0
LWPOLYLINE
  5
2B2
330
50
100
AcDbEntity
  8
0
  6
Continuous
 62
     3
100
AcDbPolyline
 90
        2
 70
     0
 43
0.15
 10
83.09920760762333
 20
76.31635234287779
 10
82.53531012102331
 20
75.85318694737782
  0
LWPOLYLINE
  5
2B3
330
50
100
AcDbEntity
  8
0
  6
Continuous
 62
     3
100
AcDbPolyline
 90
        2
 70
     0
 43
0.15
 10
82.53531012102331
 20
75.85318694737782
 10
81.8623075589233
 20
75.4068377805778
  0
LWPOLYLINE
  5
2B4
330
50
100
AcDbEntity
  8
0
  6
Continuous
 62
     3
100
AcDbPolyline
 90
        2
 70
     0
 43
0.15
 10
81.8623075589233
 20
75.4068377805778
 10
81.0853214371233
 20
74.98070167897782
  0
LWPOLYLINE
  5
2B5
330
50
100
AcDbEntity
  8
0
  6
Continuous
 62
     3
100
AcDbPolyline
 90
        2
 70
     0
 43
0.15
 10
81.0853214371233
 20
74.98070167897782
 10
80.21026508942333
 20
74.57802180847779
  0
LWPOLYLINE
  5
2B6
330
50
100
AcDbEntity
  8
0
  6
Continuous
 62
     3
100
AcDbPolyline
 90
        2
 70
     0
 43
0.15
 10
80.21026508942333
 20
74.57802180847779
 10
79.24379827022335
 20
74.20186290627782
  0
LWPOLYLINE
  5
2B7
330
50
100
AcDbEntity
  8
0
  6
Continuous
 62
     3
100
AcDbPolyline
 90
        2
 70
     0
 43
0.15
 10
79.24379827022335
 20
74.20186290627782
 10
78.19327739402331
 20
73.85508730577783
  0
LWPOLYLINE
  5
2B8
330
50
100
AcDbEntity
  8
0
  6
Continuous
 62
     3
100
AcDbPolyline
 90
        2
 70
     0
 43
0.15
 10
106.4599724474233
 20
76.46811627697781
 10
106.4539035449234
 20
76.4260010055778
  0
LWPOLYLINE
  5
2B9
330
50
100
AcDbEntity
  8
0
  6
Continuous
 62
     3
100
AcDbPolyline
 90
        2
 70
     0
 43
0.15
 10
106.4539035449234
 20
76.4260010055778
 10
106.4132936414233
 20
76.35735291797778
  0
LWPOLYLINE
  5
2BA
330
50
100
AcDbEntity
  8
0
  6
Continuous
 62
     3
100
AcDbPolyline
 90
        2
 70
     0
 43
0.15
 10
106.4132936414233
 20
76.35735291797778
 10
106.3360576322233
 20
76.29204354787782
  0
LWPOLYLINE
  5
2BB
330
50
100
AcDbEntity
  8
0
  6
Continuous
 62
     3
100
AcDbPolyline
 90
        2
 70
     0
 43
0.15
 10
106.3360576322233
 20
76.29204354787782
 10
106.2251643888233
 20
76.23258244767783
  0
LWPOLYLINE
  5
2BC
330
50
100
AcDbEntity
  8
0
  6
Continuous
 62
     3
100
AcDbPolyline
 90
        2
 70
     0
 43
0.15
 10
106.2251643888233
 20
76.23258244767783
 10
106.0848778952303
 20
76.18125536049558
  0
LWPOLYLINE
  5
2BD
330
50
100
AcDbEntity
  8
0
  6
Continuous
 62
     3
100
AcDbPolyline
 90
        2
 70
     0
 43
0.15
 10
30.82710684162328
 20
77.31071552577782
 10
30.61339008582331
 20
77.4224403679778
  0
LWPOLYLINE
  5
2BE
330
50
100
AcDbEntity
  8
0
  6
Continuous
 62
     3
100
AcDbPolyline
 90
        2
 70
     0
 43
0.15
 10
30.61339008582331
 20
77.4224403679778
 10
30.46788346422329
 20
77.54810144677782
  0
LWPOLYLINE
  5
2BF
330
50
100
AcDbEntity
  8
0
  6
Continuous
 62
     3
100
AcDbPolyline
 90
        2
 70
     0
 43
0.15
 10
30.46788346422329
 20
77.54810144677782
 10
30.3961769188233
 20
77.68287055547779
  0
LWPOLYLINE
  5
2C0
330
50
100
AcDbEntity
  8
0
  6
Continuous
 62
     3
100
AcDbPolyline
 90
        2
 70
     0
 43
0.15
 10
30.3961769188233
 20
77.68287055547779
 10
30.38886642442333
 20
77.73854574777783
  0
LWPOLYLINE
  5
2C1
330
50
100
AcDbEntity
  8
0
  6
Continuous
 62
     3
100
AcDbPolyline
 90
        2
 70
     0
 43
0.15
 10
106.4599716286233
 20
76.46811608385428
 42
0.29526169810578
 10
105.8482894112133
 20
77.36587994662142
 42
0.29526169810578
  0
LWPOLYLINE
  5
2C2
330
50
100
AcDbEntity
  8
0
  6
Continuous
 62
     3
100
AcDbPolyline
 90
        2
 70
     0
 43
0.15
 10
63.44106525724243
 20
65.07117065250918
 42
0.15231877198429
 10
64.84629499129619
 20
65.04538473694782
 42
0.15231877198429
  0
LWPOLYLINE
  5
2C3
330
50
100
AcDbEntity
  8
0
  6
Continuous
 62
     3
100
AcDbPolyline
 90
        2
 70
     0
 43
0.15
 10
65.49325688723059
 20
63.84721536599562
 42
0.26462895493307
 10
64.84629499129619
 20
65.04538473694782
 42
0.26462895493307
  0
LWPOLYLINE
  5
2C4
330
50
100
AcDbEntity
  8
0
  6
Continuous
 62
     3
100
AcDbPolyline
 90
        2
 70
     0
 43
0.15
 10
62.68279741912681
 20
63.89878719709429
 42
0.15231860941839
 10
65.49325688723059
 20
63.84721536599562
 42
0.15231860941839
  0
LWPOLYLINE
  5
2C5
330
50
100
AcDbEntity
  8
0
  6
Continuous
 62
     3
100
AcDbPolyline
 90
        2
 70
     0
 43
0.15
 10
63.44106525724243
 20
65.07117065250918
 42
0.31663804129875
 10
62.68279741912681
 20
63.89878719709429
 42
0.31663804129875
  0
LWPOLYLINE
  5
2C6
330
50
100
AcDbEntity
  8
0
  6
Continuous
 62
     3
100
AcDbPolyline
 90
        2
 70
     0
 43
0.15
 10
62.77215904112683
 20
60.15802460079442
 42
0.15231860941818
 10
65.58261850923361
 20
60.10645276967148
 42
0.15231860941818
  0
LWPOLYLINE
  5
2C7
330
50
100
AcDbEntity
  8
0
  6
Continuous
 62
     3
100
AcDbPolyline
 90
        2
 70
     0
 43
0.15
 10
106.0848778952303
 20
76.18125536049558
 42
0.26462895492138
 10
105.4379159993233
 20
77.37942473137781
 42
0.26462895492138
  0
LWPOLYLINE
  5
2C8
330
50
100
AcDbEntity
  8
0
  6
Continuous
 62
     3
100
AcDbPolyline
 90
        2
 70
     0
 43
0.15
 10
31.58537467962333
 20
78.48309898117782
 42
0.31663804129665
 10
30.82710684162328
 20
77.31071552577782
 42
0.31663804129665
  0
LWPOLYLINE
  5
2C9
330
50
100
AcDbEntity
  8
0
  6
Continuous
 62
     3
100
AcDbPolyline
 90
        2
 70
     0
 43
0.15
 10
66.44878512013963
 20
65.67581398706221
 42
0.14332628250682
 10
63.4091442770233
 20
65.6867682959778
 42
0.14332628250682
  0
LWPOLYLINE
  5
2CA
330
50
100
AcDbEntity
  8
0
  6
Continuous
 62
     3
100
AcDbPolyline
 90
        2
 70
     0
 43
0.15
 10
100.7955416932396
 20
76.11230946896222
 42
0.14332628250682
 10
97.75590085012334
 20
76.12326377787781
 42
0.14332628250682
  0
LWPOLYLINE
  5
2CB
330
50
100
AcDbEntity
  8
0
  6
Continuous
 62
     3
100
AcDbPolyline
 90
        2
 70
     0
 43
0.15
 10
38.96544386474881
 20
77.24688956151209
 42
0.14332588390587
 10
35.92580185812335
 20
77.25784436027777
 42
0.14332588390587
  0
LWPOLYLINE
  5
2CC
330
50
100
AcDbEntity
  8
0
  6
Continuous
 62
     3
100
AcDbPolyline
 90
        2
 70
     0
 43
0.15
 10
105.8482886807233
 20
77.36588000767779
 42
0.177267776859
 10
105.4379159993233
 20
77.37942473137781
 42
0.177267776859
  0
LWPOLYLINE
  5
2CD
330
50
100
AcDbEntity
  8
0
  6
Continuous
 62
     3
100
AcDbPolyline
 90
        2
 70
     0
 43
0.15
 10
31.74136141782333
 20
78.98327113537778
 42
0.1811012279473
 10
31.47322572179974
 20
79.0049627790766
 42
0.1811012279473
  0
SPLINE
  5
2CE
330
50
100
AcDbEntity
  8
0
  6
Continuous
 62
     3
100
AcDbSpline
210
0.0
220
0.0
230
1.0
 70
     8
 71
     3
 72
    19
 73
    15
 74
    13
 42
0.0000000001
 43
0.0000000001
 44
0.00000001
 40
0.0
 40
0.0
 40
0.0
 40
0.0
 40
0.1166893923235418
 40
0.2326078570071842
 40
0.4142096653224189
 40
0.5957323509704057
 40
0.7501080569239966
 40
0.9063282777795227
 40
1.062981191438117
 40
1.222211713837241
 40
1.384961197463056
 40
1.547395074372735
 40
1.669809680722692
 40
1.793253001269378
 40
1.793253001269378
 40
1.793253001269378
 40
1.793253001269378
 10
31.4729695723953
 20
79.0048856806157
 30
0.0
 10
31.43608221964693
 20
78.992544823836
 30
0.0
 10
31.36255121650591
 20
78.96794464217423
 30
0.0
 10
31.23302721704379
 20
78.91998151829766
 30
0.0
 10
31.08817885792028
 20
78.8519690084303
 30
0.0
 10
30.94088007933323
 20
78.76149891105221
 30
0.0
 10
30.81062439318789
 20
78.66133792454839
 30
0.0
 10
30.69826225094811
 20
78.55291173154443
 30
0.0
 10
30.59972159505327
 20
78.4296597970837
 30
0.0
 10
30.51603210923408
 20
78.2933893911298
 30
0.0
 10
30.44845020479424
 20
78.14624911257901
 30
0.0
 10
30.40869230827498
 20
78.0013497462294
 30
0.0
 10
30.39793536650929
 20
77.86528550839328
 30
0.0
 10
30.39797862478762
 20
77.78333691735446
 30
0.0
 10
30.39800034442703
 20
77.7421911779445
 30
0.0
 11
31.4729695723953
 21
79.0048856806157
 31
0.0
 11
31.36250737449691
 21
78.96727561392744
 31
0.0
 11
31.2540330960458
 21
78.92640482522546
 31
0.0
 11
31.0897656458252
 21
78.84897471750638
 31
0.0
 11
30.93511028589866
 21
78.75393680375166
 31
0.0
 11
30.81297003416011
 21
78.6595248474436
 31
0.0
 11
30.70084281363366
 21
78.55074872956307
 31
0.0
 11
30.60289131922378
 21
78.42849636721125
 31
0.0
 11
30.51943012687525
 21
78.29289183692093
 31
0.0
 11
30.45253487671401
 21
78.14452600552322
 31
0.0
 11
30.41092484303944
 21
77.9875120906446
 31
0.0
 11
30.3995790266463
 21
77.86562440341497
 31
0.0
 11
30.39800034442703
 21
77.7421911779445
 31
0.0
  0
MTEXT
  5
2D0
330
50
100
AcDbEntity
  8
0
 62
     1
100
AcDbMText
 10
43.68784837212331
 20
107.0894294614778
 30
0.0
 40
4.0
 41
0.0
 71
     1
 72
     1
  1
M 1:1
  7
CONVERTER_13
 73
     1
 44
1.0
  0
ENDBLK
  5
52
330
50
100
AcDbEntity
  8
0
100
AcDbBlockEnd
  0
BLOCK
  5
54
330
53
100
AcDbEntity
  8
0
100
AcDbBlockBegin
  2
a4kl
 70
     0
 10
0.0
 20
0.0
 30
0.0
  3
a4kl
  1

  0
LINE
  5
2D1
330
53
100
AcDbEntity
  8
0
  6
Continuous
 62
     3
100
AcDbLine
 10
19.5066684218749
 20
139.299988
 30
0.0
 11
14.5066684218749
 21
139.299988
 31
0.0
  0
LINE
  5
2D2
330
53
100
AcDbEntity
  8
0
  6
Continuous
 62
     3
100
AcDbLine
 10
14.5066684218749
 20
188.599976
 30
0.0
 11
19.5066684218749
 21
188.599976
 31
0.0
  0
LINE
  5
2D3
330
53
100
AcDbEntity
  8
0
  6
Continuous
 62
     3
100
AcDbLine
 10
19.5066684218749
 20
237.899994
 30
0.0
 11
14.5066684218749
 21
237.899994
 31
0.0
  0
LINE
  5
2D4
330
53
100
AcDbEntity
  8
0
  6
Continuous
 62
     3
100
AcDbLine
 10
151.8066564218749
 20
282.0
 30
0.0
 11
151.8066564218749
 21
287.0
 31
0.0
  0
LINE
  5
2D5
330
53
100
AcDbEntity
  8
0
  6
Continuous
 62
     3
100
AcDbLine
 10
106.1066744218749
 20
287.0
 30
0.0
 11
106.1066744218749
 21
282.0
 31
0.0
  0
LINE
  5
2D6
330
53
100
AcDbEntity
  8
0
  6
Continuous
 62
     3
100
AcDbLine
 10
60.40667742187491
 20
282.0
 30
0.0
 11
60.40667742187491
 21
287.0
 31
0.0
  0
LINE
  5
2D7
330
53
100
AcDbEntity
  8
0
  6
Continuous
 62
     3
100
AcDbLine
 10
197.5066684218749
 20
282.0
 30
0.0
 11
19.5066684218749
 21
282.0
 31
0.0
  0
LINE
  5
2D8
330
53
100
AcDbEntity
  8
0
  6
Continuous
 62
     3
100
AcDbLine
 10
19.5066684218749
 20
282.0
 30
0.0
 11
19.5066684218749
 21
43.0
 31
0.0
  0
LINE
  5
2D9
330
53
100
AcDbEntity
  8
0
  6
Continuous
 62
     3
100
AcDbLine
 10
19.5066684218749
 20
89.99999999999997
 30
0.0
 11
14.5066684218749
 21
90.0
 31
0.0
  0
LINE
  5
2DA
330
53
100
AcDbEntity
  8
1
  6
Continuous
 62
     1
100
AcDbLine
 10
14.5066684218749
 20
0.0
 30
0.0
 11
14.5066684218749
 21
42.99999999999999
 31
0.0
  0
LINE
  5
2DB
330
53
100
AcDbEntity
  8
0
  6
Continuous
 62
     2
100
AcDbLine
 10
197.5066684218749
 20
287.0
 30
0.0
 11
14.5066684218749
 21
287.0
 31
0.0
  0
LINE
  5
2DC
330
53
100
AcDbEntity
  8
0
  6
Continuous
 62
     2
100
AcDbLine
 10
197.5066684218749
 20
287.0
 30
0.0
 11
197.5066684218749
 21
42.99999999999999
 31
0.0
  0
LINE
  5
2DD
330
53
100
AcDbEntity
  8
0
  6
Continuous
 62
     2
100
AcDbLine
 10
14.5066684218749
 20
287.0
 30
0.0
 11
14.5066684218749
 21
0.0
 31
0.0
  0
LINE
  5
2DE
330
53
100
AcDbEntity
  8
0
  6
Continuous
 62
     1
100
AcDbLine
 10
18.5066684218749
 20
0.0
 30
0.0
 11
18.5066684218749
 21
43.0
 31
0.0
  0
LINE
  5
2DF
330
53
100
AcDbEntity
  8
0
  6
Continuous
 62
     3
100
AcDbLine
 10
24.0066684218749
 20
0.0
 30
0.0
 11
24.0066684218749
 21
43.0
 31
0.0
  0
LINE
  5
2E0
330
53
100
AcDbEntity
  8
0
  6
Continuous
 62
     1
100
AcDbLine
 10
65.5066684218749
 20
5.86666666525001
 30
0.0
 11
65.5066684218749
 21
0.0
 31
0.0
  0
LINE
  5
2E1
330
53
100
AcDbEntity
  8
0
  6
Continuous
 62
     1
100
AcDbLine
 10
100.5066684218749
 20
13.0
 30
0.0
 11
83.5066684218749
 21
13.0
 31
0.0
  0
LINE
  5
2E2
330
53
100
AcDbEntity
  8
0
  6
Continuous
 62
     1
100
AcDbLine
 10
83.5066684218749
 20
13.0
 30
0.0
 11
65.5066684218749
 21
13.0
 31
0.0
  0
LINE
  5
2E3
330
53
100
AcDbEntity
  8
0
  6
Continuous
 62
     1
100
AcDbLine
 10
115.5066684218749
 20
19.83333329
 30
0.0
 11
142.5066684218749
 21
19.83333329
 31
0.0
  0
LINE
  5
2E4
330
53
100
AcDbEntity
  8
0
  6
Continuous
 62
     1
100
AcDbLine
 10
115.5066684218749
 20
26.0
 30
0.0
 11
197.5066684218749
 21
26.0
 31
0.0
  0
LINE
  5
2E5
330
53
100
AcDbEntity
  8
0
  6
Continuous
 62
     1
100
AcDbLine
 10
115.5066684218749
 20
26.0
 30
0.0
 11
115.5066684218749
 21
5.5
 31
0.0
  0
LINE
  5
2E6
330
53
100
AcDbEntity
  8
0
  6
Continuous
 62
     1
100
AcDbLine
 10
115.5066684218749
 20
13.0
 30
0.0
 11
100.5066684218749
 21
13.0
 31
0.0
  0
LINE
  5
2E7
330
53
100
AcDbEntity
  8
0
  6
Continuous
 62
     1
100
AcDbLine
 10
106.5066684218749
 20
26.0
 30
0.0
 11
65.5066684218749
 21
26.0
 31
0.0
  0
LINE
  5
2E8
330
53
100
AcDbEntity
  8
0
  6
Continuous
 62
     7
100
AcDbLine
 10
71.56666519246491
 20
38.8708321903435
 30
0.0
 11
71.56666519246491
 21
38.7590991514796
 31
0.0
  0
LINE
  5
2E9
330
53
100
AcDbEntity
  8
0
  6
Continuous
 62
     7
100
AcDbLine
 10
79.6667313684269
 20
40.2212071096856
 30
0.0
 11
76.6652774592859
 21
40.2212071096856
 31
0.0
  0
LINE
  5
2EA
330
53
100
AcDbEntity
  8
0
  6
Continuous
 62
     7
100
AcDbLine
 10
77.89988186674589
 20
38.4635841258695
 30
0.0
 11
79.8018625281029
 21
39.78299998112
 31
0.0
  0
LINE
  5
2EB
330
53
100
AcDbEntity
  8
0
  6
Continuous
 62
     7
100
AcDbLine
 10
79.7441702389269
 20
38.4635841258695
 30
0.0
 11
77.89988186674589
 21
38.4635841258695
 31
0.0
  0
LINE
  5
2EC
330
53
100
AcDbEntity
  8
0
  6
Continuous
 62
     7
100
AcDbLine
 10
79.8018625281029
 20
38.10435507512
 30
0.0
 11
79.8018625281029
 21
38.4060373238976
 31
0.0
  0
LINE
  5
2ED
330
53
100
AcDbEntity
  8
0
  6
Continuous
 62
     7
100
AcDbLine
 10
76.6652774592859
 20
38.0468082731482
 30
0.0
 11
79.7441702389269
 21
38.0468082731482
 31
0.0
  0
LINE
  5
2EE
330
53
100
AcDbEntity
  8
0
  6
Continuous
 62
     7
100
AcDbLine
 10
76.6075851701099
 20
38.5135841258695
 30
0.0
 11
76.6075851701099
 21
38.10435507512
 31
0.0
  0
LINE
  5
2EF
330
53
100
AcDbEntity
  8
0
  6
Continuous
 62
     7
100
AcDbLine
 10
78.54604344117391
 20
39.832708678848
 30
0.0
 11
76.6075851701099
 21
38.5135841258695
 31
0.0
  0
LINE
  5
2F0
330
53
100
AcDbEntity
  8
0
  6
Continuous
 62
     7
100
AcDbLine
 10
76.6652774592859
 20
39.832708678848
 30
0.0
 11
78.54604344117391
 21
39.832708678848
 31
0.0
  0
LINE
  5
2F1
330
53
100
AcDbEntity
  8
0
  6
Continuous
 62
     7
100
AcDbLine
 10
76.6075851701099
 20
40.1635148205104
 30
0.0
 11
76.6075851701099
 21
39.8904009680231
 31
0.0
  0
LINE
  5
2F2
330
53
100
AcDbEntity
  8
0
  6
Continuous
 62
     7
100
AcDbLine
 10
73.71371243477589
 20
39.3783150776447
 30
0.0
 11
73.71371243477589
 21
39.776365452831
 31
0.0
  0
LINE
  5
2F3
330
53
100
AcDbEntity
  8
0
  6
Continuous
 62
     7
100
AcDbLine
 10
76.08602677228089
 20
39.3219718516277
 30
0.0
 11
73.77141795006091
 21
39.3219718516277
 31
0.0
  0
LINE
  5
2F4
330
53
100
AcDbEntity
  8
0
  6
Continuous
 62
     7
100
AcDbLine
 10
76.08602677228089
 20
38.9789500913775
 30
0.0
 11
76.08602677228089
 21
39.3219718516277
 31
0.0
  0
LINE
  5
2F5
330
53
100
AcDbEntity
  8
0
  6
Continuous
 62
     7
100
AcDbLine
 10
73.77141795006091
 20
38.9789500913775
 30
0.0
 11
76.08602677228089
 21
38.9789500913775
 31
0.0
  0
LINE
  5
2F6
330
53
100
AcDbEntity
  8
0
  6
Continuous
 62
     7
100
AcDbLine
 10
76.08602677228089
 20
38.4635841258695
 30
0.0
 11
73.77141795006091
 21
38.4635841258695
 31
0.0
  0
LINE
  5
2F7
330
53
100
AcDbEntity
  8
0
  6
Continuous
 62
     7
100
AcDbLine
 10
76.08602677228089
 20
38.0474431263991
 30
0.0
 11
76.08602677228089
 21
38.4635841258695
 31
0.0
  0
LINE
  5
2F8
330
53
100
AcDbEntity
  8
0
  6
Continuous
 62
     7
100
AcDbLine
 10
73.00680333990391
 20
38.0474431263991
 30
0.0
 11
76.08602677228089
 21
38.0474431263991
 31
0.0
  0
LINE
  5
2F9
330
53
100
AcDbEntity
  8
0
  6
Continuous
 62
     7
100
AcDbLine
 10
72.86911954111591
 20
40.0835233108975
 30
0.0
 11
72.86911954111591
 21
38.1851269251872
 31
0.0
  0
LINE
  5
2FA
330
53
100
AcDbEntity
  8
0
  6
Continuous
 62
     7
100
AcDbLine
 10
76.08602677228089
 20
40.2212071096856
 30
0.0
 11
73.00680333990391
 21
40.2212071096856
 31
0.0
  0
LINE
  5
2FB
330
53
100
AcDbEntity
  8
0
  6
Continuous
 62
     7
100
AcDbLine
 10
76.08602677228089
 20
39.832708678848
 30
0.0
 11
76.08602677228089
 21
40.2212071096856
 31
0.0
  0
LINE
  5
2FC
330
53
100
AcDbEntity
  8
0
  6
Continuous
 62
     7
100
AcDbLine
 10
73.77141795006091
 20
39.832708678848
 30
0.0
 11
76.08602677228089
 21
39.832708678848
 31
0.0
  0
LINE
  5
2FD
330
53
100
AcDbEntity
  8
0
  6
Continuous
 62
     7
100
AcDbLine
 10
70.75356366527089
 20
39.2719718516277
 30
0.0
 11
70.75356366527089
 21
38.9289500913775
 31
0.0
  0
LINE
  5
2FE
330
53
100
AcDbEntity
  8
0
  6
Continuous
 62
     7
100
AcDbLine
 10
72.3597027117089
 20
39.2719718516277
 30
0.0
 11
70.75356366527089
 21
39.2719718516277
 31
0.0
  0
LINE
  5
2FF
330
53
100
AcDbEntity
  8
0
  6
Continuous
 62
     7
100
AcDbLine
 10
72.3597027117089
 20
38.5122747410395
 30
0.0
 11
72.3597027117089
 21
39.2719718516277
 31
0.0
  0
LINE
  5
300
330
53
100
AcDbEntity
  8
0
  6
Continuous
 62
     7
100
AcDbLine
 10
71.75130167960089
 20
40.2212071096856
 30
0.0
 11
69.7742628474349
 21
40.2212071096856
 31
0.0
  0
LINE
  5
301
330
53
100
AcDbEntity
  8
0
  6
Continuous
 62
     7
100
AcDbLine
 10
72.3597027117089
 20
39.5640149600237
 30
0.0
 11
72.3597027117089
 21
39.751733130648
 31
0.0
  0
LINE
  5
302
330
53
100
AcDbEntity
  8
0
  6
Continuous
 62
     7
100
AcDbLine
 10
71.56583194757289
 20
39.5640149600237
 30
0.0
 11
72.3597027117089
 21
39.5640149600237
 31
0.0
  0
LINE
  5
303
330
53
100
AcDbEntity
  8
0
  6
Continuous
 62
     7
100
AcDbLine
 10
71.56583194757289
 20
39.6440593740742
 30
0.0
 11
71.56583194757289
 21
39.5640149600237
 31
0.0
  0
LINE
  5
304
330
53
100
AcDbEntity
  8
0
  6
Continuous
 62
     7
100
AcDbLine
 10
70.75356366527089
 20
38.9289500913775
 30
0.0
 11
71.5072006046309
 21
38.9289500913775
 31
0.0
  0
LINE
  5
305
330
53
100
AcDbEntity
  8
0
  6
Continuous
 62
     7
100
AcDbLine
 10
68.3383438288929
 20
40.4447019062197
 30
0.0
 11
68.3383438288929
 21
37.8193059654678
 31
0.0
  0
LINE
  5
306
330
53
100
AcDbEntity
  8
0
  6
Continuous
 62
     7
100
AcDbLine
 10
84.18954496279491
 20
40.5812218073812
 30
0.0
 11
68.47486373005489
 21
40.5812218073812
 31
0.0
  0
LINE
  5
307
330
53
100
AcDbEntity
  8
0
  6
Continuous
 62
     7
100
AcDbLine
 10
84.3260648639559
 20
37.8193059654678
 30
0.0
 11
84.3260648639559
 21
40.4447019062197
 31
0.0
  0
LINE
  5
308
330
53
100
AcDbEntity
  8
0
  6
Continuous
 62
     7
100
AcDbLine
 10
67.47990319869692
 20
37.728971638309
 30
0.0
 11
67.47990319869692
 21
40.5350362333785
 31
0.0
  0
LINE
  5
309
330
53
100
AcDbEntity
  8
0
  6
Continuous
 62
     7
100
AcDbLine
 10
84.57527121715191
 20
37.2581882744415
 30
0.0
 11
68.0891374756979
 21
37.2581882744415
 31
0.0
  0
LINE
  5
30A
330
53
100
AcDbEntity
  8
0
  6
Continuous
 62
     7
100
AcDbLine
 10
85.18450549415189
 20
40.5350362333785
 30
0.0
 11
85.18450549415189
 21
37.728971638309
 31
0.0
  0
LINE
  5
30B
330
53
100
AcDbEntity
  8
0
  6
Continuous
 62
     7
100
AcDbLine
 10
68.0891374756979
 20
41.005819597246
 30
0.0
 11
84.57527121715191
 21
41.005819597246
 31
0.0
  0
LINE
  5
30C
330
53
100
AcDbEntity
  8
0
  6
Continuous
 62
     7
100
AcDbLine
 10
84.18954496279491
 20
37.6827860643064
 30
0.0
 11
68.47486373005489
 21
37.6827860643064
 31
0.0
  0
LINE
  5
30D
330
53
100
AcDbEntity
  8
0
  6
Continuous
 62
     7
100
AcDbLine
 10
70.1521989233589
 20
39.781465424565
 30
0.0
 11
71.4275265216439
 21
39.781465424565
 31
0.0
  0
LINE
  5
30E
330
53
100
AcDbEntity
  8
0
  6
Continuous
 62
     7
100
AcDbLine
 10
70.1521989233589
 20
38.5221560148176
 30
0.0
 11
71.4305420745859
 21
38.5221560148176
 31
0.0
  0
LINE
  5
30F
330
53
100
AcDbEntity
  8
0
  6
Continuous
 62
     7
100
AcDbLine
 10
70.0099917951589
 20
39.6434774252609
 30
0.0
 11
70.0099917951589
 21
38.6601440141217
 31
0.0
  0
LINE
  5
310
330
53
100
AcDbEntity
  8
0
  6
Continuous
 62
     7
100
AcDbLine
 10
69.1658618153269
 20
39.751733130648
 30
0.0
 11
69.1658618153269
 21
38.5122747410395
 31
0.0
  0
LINE
  5
311
330
53
100
AcDbEntity
  8
0
  6
Continuous
 62
     7
100
AcDbLine
 10
69.7742628474349
 20
38.0428007620019
 30
0.0
 11
71.75130167960089
 21
38.0428007620019
 31
0.0
  0
LINE
  5
312
330
53
100
AcDbEntity
  8
0
  6
Continuous
 62
     7
100
AcDbLine
 10
73.71371243477589
 20
38.5199273518864
 30
0.0
 11
73.71371243477589
 21
38.9226068653605
 31
0.0
  0
LINE
  5
313
330
53
100
AcDbEntity
  8
0
  6
Continuous
 62
     7
100
AcDbLine
 10
81.1262193139089
 20
39.3783150776447
 30
0.0
 11
81.1262193139089
 21
39.776365452831
 31
0.0
  0
LINE
  5
314
330
53
100
AcDbEntity
  8
0
  6
Continuous
 62
     7
100
AcDbLine
 10
83.49853365141291
 20
39.3219718516277
 30
0.0
 11
81.1839248291939
 21
39.3219718516277
 31
0.0
  0
LINE
  5
315
330
53
100
AcDbEntity
  8
0
  6
Continuous
 62
     7
100
AcDbLine
 10
83.49853365141291
 20
38.9789500913775
 30
0.0
 11
83.49853365141291
 21
39.3219718516277
 31
0.0
  0
LINE
  5
316
330
53
100
AcDbEntity
  8
0
  6
Continuous
 62
     7
100
AcDbLine
 10
81.1839248291939
 20
38.9789500913775
 30
0.0
 11
83.49853365141291
 21
38.9789500913775
 31
0.0
  0
LINE
  5
317
330
53
100
AcDbEntity
  8
0
  6
Continuous
 62
     7
100
AcDbLine
 10
83.49853365141291
 20
38.4635841258695
 30
0.0
 11
81.1839248291939
 21
38.4635841258695
 31
0.0
  0
LINE
  5
318
330
53
100
AcDbEntity
  8
0
  6
Continuous
 62
     7
100
AcDbLine
 10
83.49853365141291
 20
38.0474431263991
 30
0.0
 11
83.49853365141291
 21
38.4635841258695
 31
0.0
  0
LINE
  5
319
330
53
100
AcDbEntity
  8
0
  6
Continuous
 62
     7
100
AcDbLine
 10
80.4193102190369
 20
38.0474431263991
 30
0.0
 11
83.49853365141291
 21
38.0474431263991
 31
0.0
  0
LINE
  5
31A
330
53
100
AcDbEntity
  8
0
  6
Continuous
 62
     7
100
AcDbLine
 10
80.2816264202479
 20
40.0835233108975
 30
0.0
 11
80.2816264202479
 21
38.1851269251872
 31
0.0
  0
LINE
  5
31B
330
53
100
AcDbEntity
  8
0
  6
Continuous
 62
     7
100
AcDbLine
 10
83.49853365141291
 20
40.2212071096856
 30
0.0
 11
80.4193102190369
 21
40.2212071096856
 31
0.0
  0
LINE
  5
31C
330
53
100
AcDbEntity
  8
0
  6
Continuous
 62
     7
100
AcDbLine
 10
83.49853365141291
 20
39.832708678848
 30
0.0
 11
83.49853365141291
 21
40.2212071096856
 31
0.0
  0
LINE
  5
31D
330
53
100
AcDbEntity
  8
0
  6
Continuous
 62
     7
100
AcDbLine
 10
81.1839248291939
 20
39.832708678848
 30
0.0
 11
83.49853365141291
 21
39.832708678848
 31
0.0
  0
LINE
  5
31E
330
53
100
AcDbEntity
  8
0
  6
Continuous
 62
     7
100
AcDbLine
 10
81.1262193139089
 20
38.5199273518864
 30
0.0
 11
81.1262193139089
 21
38.9226068653605
 31
0.0
  0
LINE
  5
31F
330
53
100
AcDbEntity
  8
0
  6
Continuous
 62
     7
100
AcDbLine
 10
79.8018625281029
 20
39.78299998112
 30
0.0
 11
79.8018625281029
 21
40.0820155344267
 31
0.0
  0
LINE
  5
320
330
53
100
AcDbEntity
  8
0
  6
Continuous
 62
     1
100
AcDbLine
 10
106.5066684218749
 20
38.9763382614061
 30
0.0
 11
106.5066684218749
 21
31.0
 31
0.0
  0
LINE
  5
321
330
53
100
AcDbEntity
  8
0
  6
Continuous
 62
     1
100
AcDbLine
 10
18.5066684218749
 20
0.0
 30
0.0
 11
18.5066684218749
 21
43.0
 31
0.0
  0
LINE
  5
322
330
53
100
AcDbEntity
  8
0
  6
Continuous
 62
     1
100
AcDbLine
 10
142.5066684218749
 20
0.0
 30
0.0
 11
142.5066684218749
 21
5.5
 31
0.0
  0
LINE
  5
323
330
53
100
AcDbEntity
  8
0
  6
Continuous
 62
     1
100
AcDbLine
 10
65.5066684218749
 20
43.0
 30
0.0
 11
65.5066684218749
 21
31.0
 31
0.0
  0
LINE
  5
324
330
53
100
AcDbEntity
  8
0
  6
Continuous
 62
     1
100
AcDbLine
 10
197.5066684218749
 20
13.0
 30
0.0
 11
142.5066684218749
 21
13.0
 31
0.0
  0
LINE
  5
325
330
53
100
AcDbEntity
  8
0
  6
Continuous
 62
     1
100
AcDbLine
 10
106.5066684218749
 20
43.0
 30
0.0
 11
106.5066684218749
 21
38.9763382614061
 31
0.0
  0
LINE
  5
326
330
53
100
AcDbEntity
  8
0
  6
Continuous
 62
     1
100
AcDbLine
 10
106.5066684218749
 20
26.0
 30
0.0
 11
115.5066684218749
 21
26.0
 31
0.0
  0
LINE
  5
327
330
53
100
AcDbEntity
  8
0
  6
Continuous
 62
     1
100
AcDbLine
 10
106.5066684218749
 20
43.0
 30
0.0
 11
18.5066684218749
 21
43.0
 31
0.0
  0
LINE
  5
328
330
53
100
AcDbEntity
  8
0
  6
Continuous
 62
     3
100
AcDbLine
 10
65.5066684218749
 20
6.5
 30
0.0
 11
115.5066684218749
 21
6.5
 31
0.0
  0
LINE
  5
329
330
53
100
AcDbEntity
  8
0
  6
Continuous
 62
     1
100
AcDbLine
 10
65.5066684218749
 20
30.0
 30
0.0
 11
65.5066684218749
 21
30.1005888789615
 31
0.0
  0
LINE
  5
32A
330
53
100
AcDbEntity
  8
0
  6
Continuous
 62
     1
100
AcDbLine
 10
106.5066684218749
 20
43.0
 30
0.0
 11
197.5066684218749
 21
42.99999999999999
 31
0.0
  0
LINE
  5
32B
330
53
100
AcDbEntity
  8
0
  6
Continuous
 62
     2
100
AcDbLine
 10
197.5066684218749
 20
42.99999999999999
 30
0.0
 11
197.5066684218749
 21
0.0
 31
0.0
  0
LINE
  5
32C
330
53
100
AcDbEntity
  8
0
  6
Continuous
 62
     1
100
AcDbLine
 10
142.5066684218749
 20
12.96666658
 30
0.0
 11
115.5066684218749
 21
12.96666658
 31
0.0
  0
LINE
  5
32D
330
53
100
AcDbEntity
  8
0
  6
Continuous
 62
     3
100
AcDbLine
 10
100.5066684218749
 20
13.0
 30
0.0
 11
100.5066684218749
 21
26.0000062329264
 31
0.0
  0
LINE
  5
32E
330
53
100
AcDbEntity
  8
0
  6
Continuous
 62
     3
100
AcDbLine
 10
83.5066684218749
 20
13.0
 30
0.0
 11
83.5066684218749
 21
26.0
 31
0.0
  0
LINE
  5
32F
330
53
100
AcDbEntity
  8
0
  6
Continuous
 62
     3
100
AcDbLine
 10
65.5066684218749
 20
21.6
 30
0.0
 11
115.5066684218749
 21
21.6
 31
0.0
  0
LINE
  5
330
330
53
100
AcDbEntity
  8
0
  6
Continuous
 62
     3
100
AcDbLine
 10
115.5066684218749
 20
17.3
 30
0.0
 11
65.5066684218749
 21
17.3
 31
0.0
  0
LINE
  5
331
330
53
100
AcDbEntity
  8
0
  6
Continuous
 62
     3
100
AcDbLine
 10
51.5066684218749
 20
0.0
 30
0.0
 11
51.5066684218749
 21
43.0
 31
0.0
  0
LINE
  5
332
330
53
100
AcDbEntity
  8
0
  6
Continuous
 62
     3
100
AcDbLine
 10
43.5066684218749
 20
0.0
 30
0.0
 11
43.5066684218749
 21
43.0
 31
0.0
  0
LINE
  5
333
330
53
100
AcDbEntity
  8
0
  6
Continuous
 62
     3
100
AcDbLine
 10
31.5066684218749
 20
0.0
 30
0.0
 11
31.5066684218749
 21
43.0
 31
0.0
  0
LINE
  5
334
330
53
100
AcDbEntity
  8
0
  6
Continuous
 62
     3
100
AcDbLine
 10
18.5066684218749
 20
38.699997
 30
0.0
 11
65.5066684218749
 21
38.699997
 31
0.0
  0
LINE
  5
335
330
53
100
AcDbEntity
  8
0
  6
Continuous
 62
     3
100
AcDbLine
 10
65.5066684218749
 20
34.399994
 30
0.0
 11
18.5066684218749
 21
34.399994
 31
0.0
  0
LINE
  5
336
330
53
100
AcDbEntity
  8
0
  6
Continuous
 62
     3
100
AcDbLine
 10
18.5066684218749
 20
30.099991
 30
0.0
 11
65.5066684218749
 21
30.099991
 31
0.0
  0
LINE
  5
337
330
53
100
AcDbEntity
  8
0
  6
Continuous
 62
     3
100
AcDbLine
 10
65.5066684218749
 20
25.799988
 30
0.0
 11
18.5066684218749
 21
25.799988
 31
0.0
  0
LINE
  5
338
330
53
100
AcDbEntity
  8
0
  6
Continuous
 62
     3
100
AcDbLine
 10
18.5066684218749
 20
21.5
 30
0.0
 11
65.5066684218749
 21
21.5
 31
0.0
  0
LINE
  5
339
330
53
100
AcDbEntity
  8
0
  6
Continuous
 62
     3
100
AcDbLine
 10
65.5066684218749
 20
17.199997
 30
0.0
 11
18.5066684218749
 21
17.199997
 31
0.0
  0
LINE
  5
33A
330
53
100
AcDbEntity
  8
0
  6
Continuous
 62
     3
100
AcDbLine
 10
18.5066684218749
 20
12.899994
 30
0.0
 11
65.5066684218749
 21
12.899994
 31
0.0
  0
LINE
  5
33B
330
53
100
AcDbEntity
  8
0
  6
Continuous
 62
     3
100
AcDbLine
 10
65.5066684218749
 20
8.59999099999999
 30
0.0
 11
18.5066684218749
 21
8.59999099999999
 31
0.0
  0
LINE
  5
33C
330
53
100
AcDbEntity
  8
0
  6
Continuous
 62
     4
100
AcDbLine
 10
18.5066684218749
 20
4.30000300000002
 30
0.0
 11
65.5066684218749
 21
4.30000300000002
 31
0.0
  0
LINE
  5
33D
330
53
100
AcDbEntity
  8
0
  6
Continuous
 62
     2
100
AcDbLine
 10
197.5066684218749
 20
0.0
 30
0.0
 11
18.5066684218749
 21
0.0
 31
0.0
  0
LINE
  5
33E
330
53
100
AcDbEntity
  8
0
  6
Continuous
 62
     1
100
AcDbLine
 10
65.5066684218749
 20
31.0
 30
0.0
 11
106.5066684218749
 21
31.0
 31
0.0
  0
LINE
  5
33F
330
53
100
AcDbEntity
  8
0
  6
Continuous
 62
     1
100
AcDbLine
 10
106.5066684218749
 20
31.0
 30
0.0
 11
106.5066684218749
 21
26.0
 31
0.0
  0
LINE
  5
340
330
53
100
AcDbEntity
  8
0
  6
Continuous
 62
     1
100
AcDbLine
 10
65.5066684218749
 20
31.0
 30
0.0
 11
65.5066684218749
 21
5.86666666525001
 31
0.0
  0
LINE
  5
341
330
53
100
AcDbEntity
  8
1
  6
Continuous
 62
     1
100
AcDbLine
 10
115.5066684218749
 20
5.5
 30
0.0
 11
142.5066684218749
 21
5.5
 31
0.0
  0
LINE
  5
342
330
53
100
AcDbEntity
  8
0
  6
Continuous
 62
     1
100
AcDbLine
 10
115.5066684218749
 20
5.5
 30
0.0
 11
115.5066684218749
 21
0.0
 31
0.0
  0
LINE
  5
343
330
53
100
AcDbEntity
  8
0
  6
Continuous
 62
     1
100
AcDbLine
 10
142.5066684218749
 20
5.5
 30
0.0
 11
142.5066684218749
 21
26.0
 31
0.0
  0
LINE
  5
344
330
53
100
AcDbEntity
  8
1
  6
Continuous
 62
     4
100
AcDbLine
 10
120.5399694939633
 20
3.75
 30
0.0
 11
127.5399694939633
 21
4.75
 31
0.0
  0
LINE
  5
345
330
53
100
AcDbEntity
  8
1
  6
Continuous
 62
     4
100
AcDbLine
 10
127.5399694939633
 20
4.75
 30
0.0
 11
127.5399694939633
 21
0.75
 31
0.0
  0
LINE
  5
346
330
53
100
AcDbEntity
  8
1
  6
Continuous
 62
     4
100
AcDbLine
 10
127.5399694939633
 20
0.75
 30
0.0
 11
120.5399694939633
 21
1.75
 31
0.0
  0
LINE
  5
347
330
53
100
AcDbEntity
  8
1
  6
Continuous
 62
     4
100
AcDbLine
 10
120.5399694939633
 20
1.75
 30
0.0
 11
120.5399694939633
 21
3.75
 31
0.0
  0
LINE
  5
348
330
53
100
AcDbEntity
  8
1
  6
DOT_CENTER
 62
     7
100
AcDbLine
 10
119.8271273882571
 20
2.75
 30
0.0
 11
128.2247785571842
 21
2.75
 31
0.0
  0
LINE
  5
349
330
53
100
AcDbEntity
  8
1
  6
DOT_CENTER
 62
     7
100
AcDbLine
 10
131.932832320087
 20
2.75
 30
0.0
 11
137.0859364464741
 21
2.75
 31
0.0
  0
LINE
  5
34A
330
53
100
AcDbEntity
  8
1
  6
DOT_CENTER
 62
     7
100
AcDbLine
 10
134.441221630286
 20
0.32749751310985
 30
0.0
 11
134.441221630286
 21
5.20795062751873
 31
0.0
  0
LINE
  5
34B
330
53
100
AcDbEntity
  8
0
  6
Continuous
 62
     1
100
AcDbLine
 10
18.5066684218749
 20
0.0
 30
0.0
 11
18.5066684218749
 21
43.0
 31
0.0
  0
ARC
  5
34C
330
53
100
AcDbEntity
  8
0
  6
Continuous
 62
     7
100
AcDbCircle
 10
68.47486373005489
 20
40.4447019062197
 30
0.0
 40
0.136519901161499
100
AcDbArc
 50
90.0
 51
180.0
  0
ARC
  5
34D
330
53
100
AcDbEntity
  8
0
  6
Continuous
 62
     7
100
AcDbCircle
 10
68.47486373005489
 20
37.8193059654678
 30
0.0
 40
0.1365199011619893
100
AcDbArc
 50
180.0
 51
270.0
  0
ARC
  5
34E
330
53
100
AcDbEntity
  8
0
  6
Continuous
 62
     7
100
AcDbCircle
 10
84.18954496279491
 20
40.4447019062197
 30
0.0
 40
0.1365199011609946
100
AcDbArc
 50
0.0
 51
90.0
  0
ARC
  5
34F
330
53
100
AcDbEntity
  8
0
  6
Continuous
 62
     7
100
AcDbCircle
 10
84.18954496279491
 20
37.8193059654678
 30
0.0
 40
0.1365199011613996
100
AcDbArc
 50
270.0
 51
0.0
  0
ARC
  5
350
330
53
100
AcDbEntity
  8
0
  6
Continuous
 62
     7
100
AcDbCircle
 10
71.5072006046309
 20
38.869469901076
 30
0.0
 40
0.0594801903016254
100
AcDbArc
 50
1.31237392905096
 51
90.0
  0
ARC
  5
351
330
53
100
AcDbEntity
  8
0
  6
Continuous
 62
     7
100
AcDbCircle
 10
73.7706114375869
 20
39.3788678232447
 30
0.0
 40
0.0569016875723858
100
AcDbArc
 50
180.5565825808357
 51
270.8121254434627
  0
ARC
  5
352
330
53
100
AcDbEntity
  8
0
  6
Continuous
 62
     7
100
AcDbCircle
 10
73.7706114375869
 20
39.7758127072311
 30
0.0
 40
0.0569016875725334
100
AcDbArc
 50
89.18787455653593
 51
179.4434174192573
  0
ARC
  5
353
330
53
100
AcDbEntity
  8
0
  6
Continuous
 62
     7
100
AcDbCircle
 10
73.7706114375869
 20
38.9220541197606
 30
0.0
 40
0.0569016875725263
100
AcDbArc
 50
89.18787455653583
 51
179.4434174192644
  0
ARC
  5
354
330
53
100
AcDbEntity
  8
0
  6
Continuous
 62
     7
100
AcDbCircle
 10
73.7706114375869
 20
38.5204800974864
 30
0.0
 40
0.0569016875723858
100
AcDbArc
 50
180.5565825808357
 51
270.8121254434642
  0
ARC
  5
355
330
53
100
AcDbEntity
  8
0
  6
Continuous
 62
     7
100
AcDbCircle
 10
81.18311831671991
 20
39.3788678232447
 30
0.0
 40
0.0569016875723858
100
AcDbArc
 50
180.5565825808357
 51
270.8121254434341
  0
ARC
  5
356
330
53
100
AcDbEntity
  8
0
  6
Continuous
 62
     7
100
AcDbCircle
 10
81.18311831671991
 20
39.7758127072311
 30
0.0
 40
0.056901687572533
100
AcDbArc
 50
89.18787455656455
 51
179.4434174192573
  0
ARC
  5
357
330
53
100
AcDbEntity
  8
0
  6
Continuous
 62
     7
100
AcDbCircle
 10
81.18311831671991
 20
38.9220541197606
 30
0.0
 40
0.0569016875725259
100
AcDbArc
 50
89.18787455656445
 51
179.4434174192644
  0
ARC
  5
358
330
53
100
AcDbEntity
  8
0
  6
Continuous
 62
     7
100
AcDbCircle
 10
81.18311831671991
 20
38.5204800974864
 30
0.0
 40
0.0569016875723858
100
AcDbArc
 50
180.5565825808357
 51
270.8121254434355
  0
ARC
  5
359
330
53
100
AcDbEntity
  8
0
  6
Continuous
 62
     7
100
AcDbCircle
 10
76.6652774592859
 20
40.1635148205104
 30
0.0
 40
0.0576922891752005
100
AcDbArc
 50
90.0
 51
180.0
  0
ARC
  5
35A
330
53
100
AcDbEntity
  8
0
  6
Continuous
 62
     7
100
AcDbCircle
 10
76.6652774592859
 20
39.8904009680231
 30
0.0
 40
0.0576922891760034
100
AcDbArc
 50
180.0
 51
270.0
  0
ARC
  5
35B
330
53
100
AcDbEntity
  8
0
  6
Continuous
 62
     7
100
AcDbCircle
 10
76.6652047156839
 20
38.1044278187217
 30
0.0
 40
0.0576195914927011
100
AcDbArc
 50
180.0723348146616
 51
270.0723348149589
  0
ARC
  5
35C
330
53
100
AcDbEntity
  8
0
  6
Continuous
 62
     7
100
AcDbCircle
 10
79.7442429825289
 20
38.1044278187217
 30
0.0
 40
0.0576195914922041
100
AcDbArc
 50
269.9276651850411
 51
359.9276651853385
  0
ARC
  5
35D
330
53
100
AcDbEntity
  8
0
  6
Continuous
 62
     7
100
AcDbCircle
 10
79.7442429825289
 20
38.4059645802959
 30
0.0
 40
0.0576195914927011
100
AcDbArc
 50
0.07233481465449
 51
90.07233481495881
  0
CIRCLE
  5
35E
330
53
100
AcDbEntity
  8
1
  6
Continuous
 62
     4
100
AcDbCircle
 10
134.441221630286
 20
2.75
 30
0.0
 40
1.0
  0
CIRCLE
  5
35F
330
53
100
AcDbEntity
  8
1
  6
Continuous
 62
     4
100
AcDbCircle
 10
134.441221630286
 20
2.75
 30
0.0
 40
2.0
  0
SPLINE
  5
360
330
53
100
AcDbEntity
  8
0
  6
Continuous
 62
     7
100
AcDbSpline
210
0.0
220
0.0
230
1.0
 70
     8
 71
     3
 72
    13
 73
     9
 74
     7
 42
0.0000000001
 43
0.0000000001
 44
0.00000001
 40
0.0
 40
0.0
 40
0.0
 40
0.0
 40
0.1601947109558571
 40
0.3210951627356181
 40
0.4607710778824172
 40
0.6002079329854569
 40
0.7244156662364544
 40
0.8468166043873959
 40
0.8468166043873959
 40
0.8468166043873959
 40
0.8468166043873959
 10
68.0891374756979
 20
41.005819597246
 30
0.0
 10
68.03563323603954
 20
41.00257863108322
 30
0.0
 10
67.9283890427848
 20
40.99608242062008
 30
0.0
 10
67.78149114502145
 20
40.94528700216985
 30
0.0
 10
67.65453118198033
 20
40.86952704002226
 30
0.0
 10
67.5596620658666
 20
40.77254630936896
 30
0.0
 10
67.49422682762659
 20
40.65833950796376
 30
0.0
 10
67.48465436390597
 20
40.57593608014565
 30
0.0
 10
67.47990319869692
 20
40.5350362333785
 30
0.0
 11
68.0891374756979
 21
41.005819597246
 31
0.0
 11
67.9298384572199
 21
40.98890309257813
 31
0.0
 11
67.77733194674212
 21
40.9376125511029
 31
0.0
 11
67.65818891135913
 21
40.8647133165951
 31
0.0
 11
67.56092634484284
 21
40.76480020576529
 31
0.0
 11
67.50209607616378
 21
40.65540843054201
 31
0.0
 11
67.47990319869692
 21
40.5350362333785
 31
0.0
  0
SPLINE
  5
361
330
53
100
AcDbEntity
  8
0
  6
Continuous
 62
     7
100
AcDbSpline
210
0.0
220
0.0
230
1.0
 70
     8
 71
     3
 72
    13
 73
     9
 74
     7
 42
0.0000000001
 43
0.0000000001
 44
0.00000001
 40
0.0
 40
0.0
 40
0.0
 40
0.0
 40
0.1601947109558571
 40
0.3210951627356226
 40
0.4607710778824365
 40
0.6002079329855068
 40
0.724415666236498
 40
0.8468166043873557
 40
0.8468166043873557
 40
0.8468166043873557
 40
0.8468166043873557
 10
68.0891374756979
 20
37.2581882744415
 30
0.0
 10
68.03563323603956
 20
37.26142924060427
 30
0.0
 10
67.9283890427848
 20
37.26792545106743
 30
0.0
 10
67.78149114502142
 20
37.31872086951768
 30
0.0
 10
67.65453118198033
 20
37.39448083166527
 30
0.0
 10
67.55966206586662
 20
37.49146156231863
 30
0.0
 10
67.4942268276266
 20
37.60566836372379
 30
0.0
 10
67.484654363906
 20
37.68807179154188
 30
0.0
 10
67.47990319869692
 20
37.728971638309
 30
0.0
 11
68.0891374756979
 21
37.2581882744415
 31
0.0
 11
67.9298384572199
 21
37.27510477910937
 31
0.0
 11
67.77733194674212
 21
37.32639532058462
 31
0.0
 11
67.65818891135913
 21
37.39929455509245
 31
0.0
 11
67.56092634484284
 21
37.4992076659223
 31
0.0
 11
67.50209607616378
 21
37.60859944114557
 31
0.0
 11
67.47990319869692
 21
37.728971638309
 31
0.0
  0
SPLINE
  5
362
330
53
100
AcDbEntity
  8
0
  6
Continuous
 62
     7
100
AcDbSpline
210
0.0
220
0.0
230
1.0
 70
     8
 71
     3
 72
    13
 73
     9
 74
     7
 42
0.0000000001
 43
0.0000000001
 44
0.00000001
 40
0.0
 40
0.0
 40
0.0
 40
0.0
 40
0.1601947109558571
 40
0.3210951627356226
 40
0.4607710778824001
 40
0.6002079329853118
 40
0.7244156662360809
 40
0.8468166043868922
 40
0.8468166043868922
 40
0.8468166043868922
 40
0.8468166043868922
 10
84.57527121715191
 20
37.2581882744415
 30
0.0
 10
84.62877545681026
 20
37.26142924060427
 30
0.0
 10
84.73601965006502
 20
37.26792545106743
 30
0.0
 10
84.88291754782836
 20
37.31872086951768
 30
0.0
 10
85.00987751086939
 20
37.39448083166524
 30
0.0
 10
85.10474662698299
 20
37.49146156231856
 30
0.0
 10
85.17018186522243
 20
37.6056683637239
 30
0.0
 10
85.17975432894289
 20
37.68807179154189
 30
0.0
 10
85.18450549415189
 20
37.728971638309
 30
0.0
 11
84.57527121715191
 21
37.2581882744415
 31
0.0
 11
84.7345702356299
 21
37.27510477910937
 31
0.0
 11
84.88707674610768
 21
37.32639532058462
 31
0.0
 11
85.00621978149063
 21
37.39929455509245
 31
0.0
 11
85.1034823480067
 21
37.4992076659223
 31
0.0
 11
85.16231261668528
 21
37.60859944114557
 31
0.0
 11
85.18450549415189
 21
37.728971638309
 31
0.0
  0
SPLINE
  5
363
330
53
100
AcDbEntity
  8
0
  6
Continuous
 62
     7
100
AcDbSpline
210
0.0
220
0.0
230
1.0
 70
     8
 71
     3
 72
    13
 73
     9
 74
     7
 42
0.0000000001
 43
0.0000000001
 44
0.00000001
 40
0.0
 40
0.0
 40
0.0
 40
0.0
 40
0.1601947109558571
 40
0.3210951627356181
 40
0.4607710778823808
 40
0.600207932985262
 40
0.7244156662360374
 40
0.8468166043869325
 40
0.8468166043869325
 40
0.8468166043869325
 40
0.8468166043869325
 10
84.57527121715191
 20
41.005819597246
 30
0.0
 10
84.62877545681025
 20
41.00257863108322
 30
0.0
 10
84.73601965006502
 20
40.99608242062008
 30
0.0
 10
84.88291754782836
 20
40.94528700216983
 30
0.0
 10
85.00987751086939
 20
40.86952704002232
 30
0.0
 10
85.104746626983
 20
40.77254630936901
 30
0.0
 10
85.17018186522243
 20
40.65833950796366
 30
0.0
 10
85.17975432894288
 20
40.57593608014562
 30
0.0
 10
85.18450549415189
 20
40.5350362333785
 30
0.0
 11
84.57527121715191
 21
41.005819597246
 31
0.0
 11
84.7345702356299
 21
40.98890309257813
 31
0.0
 11
84.88707674610768
 21
40.9376125511029
 31
0.0
 11
85.00621978149063
 21
40.8647133165951
 31
0.0
 11
85.1034823480067
 21
40.76480020576529
 31
0.0
 11
85.16231261668528
 21
40.65540843054201
 31
0.0
 11
85.18450549415189
 21
40.5350362333785
 31
0.0
  0
SPLINE
  5
364
330
53
100
AcDbEntity
  8
0
  6
Continuous
 62
     7
100
AcDbSpline
210
0.0
220
0.0
230
1.0
 70
     8
 71
     3
 72
    13
 73
     9
 74
     7
 42
0.0000000001
 43
0.0000000001
 44
0.00000001
 40
0.0
 40
0.0
 40
0.0
 40
0.0
 40
0.1486423989487176
 40
0.2982382234603186
 40
0.4390496453782385
 40
0.5790300758310005
 40
0.7141201510145314
 40
0.8476890380266158
 40
0.8476890380266158
 40
0.8476890380266158
 40
0.8476890380266158
 10
69.7742628474349
 20
40.2212071096856
 30
0.0
 10
69.7246300616515
 20
40.21835846231372
 30
0.0
 10
69.62504613430558
 20
40.21264289570914
 30
0.0
 10
69.48424150591778
 20
40.16814065712431
 30
0.0
 10
69.3561828253489
 20
40.10121601702136
 30
0.0
 10
69.2529088576138
 20
40.00648346448909
 30
0.0
 10
69.18150628951867
 20
39.88616677345274
 30
0.0
 10
69.17105691807726
 20
39.79637487308771
 30
0.0
 10
69.1658618153269
 20
39.751733130648
 30
0.0
 11
69.7742628474349
 21
40.2212071096856
 31
0.0
 11
69.6263426988872
 21
40.20657179558386
 31
0.0
 11
69.48320908411844
 21
40.16307835890044
 31
0.0
 11
69.35941101223935
 21
40.09598220445351
 31
0.0
 11
69.25693680461141
 21
40.00062205721806
 31
0.0
 11
69.1904676163402
 21
39.8830160394143
 31
0.0
 11
69.1658618153269
 21
39.751733130648
 31
0.0
  0
SPLINE
  5
365
330
53
100
AcDbEntity
  8
0
  6
Continuous
 62
     7
100
AcDbSpline
210
0.0
220
0.0
230
1.0
 70
     8
 71
     3
 72
    13
 73
     9
 74
     7
 42
0.0000000001
 43
0.0000000001
 44
0.00000001
 40
0.0
 40
0.0
 40
0.0
 40
0.0
 40
0.1486423989487317
 40
0.2982382234603191
 40
0.4390496453782765
 40
0.5790300758310385
 40
0.7141201510145694
 40
0.8476890380266512
 40
0.8476890380266512
 40
0.8476890380266512
 40
0.8476890380266512
 10
71.75130167960089
 20
40.2212071096856
 30
0.0
 10
71.8009344653843
 20
40.21835846231372
 30
0.0
 10
71.90051839273022
 20
40.21264289570917
 30
0.0
 10
72.041323021118
 20
40.16814065712428
 30
0.0
 10
72.16938170168693
 20
40.10121601702137
 30
0.0
 10
72.27265566942201
 20
40.00648346448909
 30
0.0
 10
72.34405823751717
 20
39.88616677345273
 30
0.0
 10
72.35450760895857
 20
39.79637487308771
 30
0.0
 10
72.3597027117089
 20
39.751733130648
 30
0.0
 11
71.75130167960089
 21
40.2212071096856
 31
0.0
 11
71.8992218281486
 21
40.20657179558386
 31
0.0
 11
72.04235544291734
 21
40.16307835890044
 31
0.0
 11
72.16615351479648
 21
40.09598220445351
 31
0.0
 11
72.26862772242441
 21
40.00062205721806
 31
0.0
 11
72.33509691069563
 21
39.8830160394143
 31
0.0
 11
72.3597027117089
 21
39.751733130648
 31
0.0
  0
SPLINE
  5
366
330
53
100
AcDbEntity
  8
0
  6
Continuous
 62
     7
100
AcDbSpline
210
0.0
220
0.0
230
1.0
 70
     8
 71
     3
 72
    13
 73
     9
 74
     7
 42
0.0000000001
 43
0.0000000001
 44
0.00000001
 40
0.0
 40
0.0
 40
0.0
 40
0.0
 40
0.148642398948731
 40
0.2982382234603225
 40
0.4390496453783036
 40
0.5790300758310705
 40
0.7141201510145581
 40
0.8476890380266189
 40
0.8476890380266189
 40
0.8476890380266189
 40
0.8476890380266189
 10
71.75130167960089
 20
38.0428007620019
 30
0.0
 10
71.8009344653843
 20
38.04564940937378
 30
0.0
 10
71.90051839273022
 20
38.05136497597835
 30
0.0
 10
72.04132302111803
 20
38.0958672145632
 30
0.0
 10
72.16938170168692
 20
38.1627918546662
 30
0.0
 10
72.272655669422
 20
38.25752440719846
 30
0.0
 10
72.34405823751719
 20
38.37784109823479
 30
0.0
 10
72.35450760895857
 20
38.46763299859979
 30
0.0
 10
72.3597027117089
 20
38.5122747410395
 30
0.0
 11
71.75130167960089
 21
38.0428007620019
 31
0.0
 11
71.8992218281486
 21
38.05743607610364
 31
0.0
 11
72.04235544291734
 21
38.10092951278708
 31
0.0
 11
72.16615351479648
 21
38.16802566723405
 31
0.0
 11
72.26862772242441
 21
38.26338581446951
 31
0.0
 11
72.33509691069563
 21
38.38099183227322
 31
0.0
 11
72.3597027117089
 21
38.5122747410395
 31
0.0
  0
SPLINE
  5
367
330
53
100
AcDbEntity
  8
0
  6
Continuous
 62
     7
100
AcDbSpline
210
0.0
220
0.0
230
1.0
 70
     8
 71
     3
 72
    13
 73
     9
 74
     7
 42
0.0000000001
 43
0.0000000001
 44
0.00000001
 40
0.0
 40
0.0
 40
0.0
 40
0.0
 40
0.0328394650074352
 40
0.0655975995952085
 40
0.1022664447831562
 40
0.1389211607506419
 40
0.1782532813533702
 40
0.217726769161267
 40
0.217726769161267
 40
0.217726769161267
 40
0.217726769161267
 10
70.1521989233589
 20
39.781465424565
 30
0.0
 10
70.14121603172254
 20
39.78060526975248
 30
0.0
 10
70.11927744874635
 20
39.7788870903921
 30
0.0
 10
70.08756437969518
 20
39.76512882247921
 30
0.0
 10
70.0580448777086
 20
39.74535628319218
 30
0.0
 10
70.03193540549626
 20
39.7179598973277
 30
0.0
 10
70.01346450762219
 20
39.68308429884037
 30
0.0
 10
70.01115074950894
 20
39.65669549583578
 30
0.0
 10
70.0099917951589
 20
39.6434774252609
 30
0.0
 11
70.1521989233589
 21
39.781465424565
 31
0.0
 11
70.11965039145655
 21
39.77710382703929
 31
0.0
 11
70.0892690948642
 21
39.76485343116654
 31
0.0
 11
70.05889380622448
 21
39.74431210580836
 31
0.0
 11
70.03382524428599
 21
39.71757009008416
 31
0.0
 11
70.01605121376576
 21
39.68248306185187
 31
0.0
 11
70.0099917951589
 21
39.6434774252609
 31
0.0
  0
SPLINE
  5
368
330
53
100
AcDbEntity
  8
0
  6
Continuous
 62
     7
100
AcDbSpline
210
0.0
220
0.0
230
1.0
 70
     8
 71
     3
 72
    13
 73
     9
 74
     7
 42
0.0000000001
 43
0.0000000001
 44
0.00000001
 40
0.0
 40
0.0
 40
0.0
 40
0.0
 40
0.1486423989487169
 40
0.298238223460322
 40
0.4390496453782656
 40
0.5790300758310325
 40
0.7141201510145201
 40
0.8476890380265836
 40
0.8476890380265836
 40
0.8476890380265836
 40
0.8476890380265836
 10
69.7742628474349
 20
38.0428007620019
 30
0.0
 10
69.7246300616515
 20
38.04564940937378
 30
0.0
 10
69.62504613430556
 20
38.05136497597834
 30
0.0
 10
69.48424150591777
 20
38.0958672145632
 30
0.0
 10
69.3561828253489
 20
38.16279185466621
 30
0.0
 10
69.25290885761383
 20
38.25752440719846
 30
0.0
 10
69.18150628951862
 20
38.37784109823479
 30
0.0
 10
69.17105691807724
 20
38.4676329985998
 30
0.0
 10
69.1658618153269
 20
38.5122747410395
 30
0.0
 11
69.7742628474349
 21
38.0428007620019
 31
0.0
 11
69.6263426988872
 21
38.05743607610364
 31
0.0
 11
69.48320908411844
 21
38.10092951278708
 31
0.0
 11
69.35941101223935
 21
38.16802566723405
 31
0.0
 11
69.25693680461141
 21
38.26338581446951
 31
0.0
 11
69.1904676163402
 21
38.38099183227322
 31
0.0
 11
69.1658618153269
 21
38.5122747410395
 31
0.0
  0
SPLINE
  5
369
330
53
100
AcDbEntity
  8
0
  6
Continuous
 62
     7
100
AcDbSpline
210
0.0
220
0.0
230
1.0
 70
     8
 71
     3
 72
    13
 73
     9
 74
     7
 42
0.0000000001
 43
0.0000000001
 44
0.00000001
 40
0.0
 40
0.0
 40
0.0
 40
0.0
 40
0.0328394650074361
 40
0.0655975995952015
 40
0.1022664447831333
 40
0.1389211607506086
 40
0.1782532813533559
 40
0.2177267691612878
 40
0.2177267691612878
 40
0.2177267691612878
 40
0.2177267691612878
 10
70.1521989233589
 20
38.5221560148176
 30
0.0
 10
70.14121603172255
 20
38.52301616963013
 30
0.0
 10
70.11927744874635
 20
38.52473434899051
 30
0.0
 10
70.08756437969515
 20
38.53849261690337
 30
0.0
 10
70.05804487770862
 20
38.55826515619037
 30
0.0
 10
70.03193540549626
 20
38.58566154205485
 30
0.0
 10
70.01346450762219
 20
38.62053714054219
 30
0.0
 10
70.01115074950893
 20
38.64692594354681
 30
0.0
 10
70.0099917951589
 20
38.6601440141217
 30
0.0
 11
70.1521989233589
 21
38.5221560148176
 31
0.0
 11
70.11965039145655
 21
38.52651761234331
 31
0.0
 11
70.0892690948642
 21
38.53876800821604
 31
0.0
 11
70.05889380622448
 21
38.55930933357419
 31
0.0
 11
70.03382524428599
 21
38.58605134929838
 31
0.0
 11
70.01605121376576
 21
38.62113837753069
 31
0.0
 11
70.0099917951589
 21
38.6601440141217
 31
0.0
  0
SPLINE
  5
36A
330
53
100
AcDbEntity
  8
0
  6
Continuous
 62
     7
100
AcDbSpline
210
0.0
220
0.0
230
1.0
 70
     8
 71
     3
 72
    14
 73
    10
 74
     8
 42
0.0000000001
 43
0.0000000001
 44
0.00000001
 40
0.0
 40
0.0
 40
0.0
 40
0.0
 40
0.0375510748548248
 40
0.075404233490093
 40
0.1094159352404561
 40
0.1434580761254709
 40
0.170966969709373
 40
0.2205583987493849
 40
0.3151356117044947
 40
0.3151356117044947
 40
0.3151356117044947
 40
0.3151356117044947
 10
71.4305420745859
 20
38.5221560148176
 30
0.0
 10
71.44309291428925
 20
38.52289797125056
 30
0.0
 10
71.46829556031592
 20
38.52438785286718
 30
0.0
 10
71.50286416469375
 20
38.53836321983192
 30
0.0
 10
71.53036013146837
 20
38.56098878700328
 30
0.0
 10
71.54993865171532
 20
38.58672285872549
 30
0.0
 10
71.56228282115396
 20
38.62213394377407
 30
0.0
 10
71.56544295466288
 20
38.67966584148242
 30
0.0
 10
71.56618101298079
 20
38.72763229699997
 30
0.0
 10
71.56666519246491
 20
38.7590991514796
 30
0.0
 11
71.4305420745859
 21
38.5221560148176
 31
0.0
 11
71.46785244767516
 21
38.52640092738363
 31
0.0
 11
71.50295502351557
 21
38.54056675909359
 31
0.0
 11
71.52942161569713
 21
38.56192829822939
 31
0.0
 11
71.54951092858136
 21
38.58941078108438
 31
0.0
 11
71.55892075252942
 21
38.61526023832195
 31
0.0
 11
71.56438821061022
 21
38.6645493520933
 31
0.0
 11
71.56666519246491
 21
38.7590991514796
 31
0.0
  0
SPLINE
  5
36B
330
53
100
AcDbEntity
  8
0
  6
Continuous
 62
     7
100
AcDbSpline
210
0.0
220
0.0
230
1.0
 70
     8
 71
     3
 72
    13
 73
     9
 74
     7
 42
0.0000000001
 43
0.0000000001
 44
0.00000001
 40
0.0
 40
0.0
 40
0.0
 40
0.0
 40
0.0303249383642044
 40
0.060441785117422
 40
0.0959479298118383
 40
0.1315593707300932
 40
0.1736623627999717
 40
0.2160932553481884
 40
0.2160932553481884
 40
0.2160932553481884
 40
0.2160932553481884
 10
71.56583194757289
 20
39.6440593740742
 30
0.0
 10
71.56515876844172
 20
39.65419856280421
 30
0.0
 10
71.56381702957638
 20
39.67440736452128
 30
0.0
 10
71.55211566862403
 20
39.70459807825534
 30
0.0
 10
71.53408971639844
 20
39.73335261119022
 30
0.0
 10
71.50698482402723
 20
39.76018605254315
 30
0.0
 10
71.47002432670459
 20
39.77835949631016
 30
0.0
 10
71.44172904174681
 20
39.78042744134647
 30
0.0
 10
71.4275265216439
 20
39.781465424565
 30
0.0
 11
71.56583194757289
 21
39.6440593740742
 31
0.0
 11
71.56229464840196
 21
39.67417729899223
 31
0.0
 11
71.55199743714748
 21
39.70247909926602
 31
0.0
 11
71.53302114843116
 21
39.73248887729945
 31
0.0
 11
71.50742544849075
 21
39.75724841826521
 31
0.0
 11
71.46955713404556
 21
39.77565093717747
 31
0.0
 11
71.4275265216439
 21
39.781465424565
 31
0.0
  0
SPLINE
  5
36C
330
53
100
AcDbEntity
  8
0
  6
Continuous
 62
     7
100
AcDbSpline
210
0.0
220
0.0
230
1.0
 70
     8
 71
     3
 72
    13
 73
     9
 74
     7
 42
0.0000000001
 43
0.0000000001
 44
0.00000001
 40
0.0
 40
0.0
 40
0.0
 40
0.0
 40
0.0381152522468692
 40
0.0763355512012206
 40
0.1127548768764178
 40
0.1486421571416508
 40
0.1827729054947339
 40
0.2174479487766111
 40
0.2174479487766111
 40
0.2174479487766111
 40
0.2174479487766111
 10
73.00680333990391
 20
40.2212071096856
 30
0.0
 10
72.99405142146328
 20
40.22023893651315
 30
0.0
 10
72.96851243993609
 20
40.21829992185575
 30
0.0
 10
72.93363710627838
 20
40.2025388843503
 30
0.0
 10
72.90408720754898
 20
40.18018025378962
 30
0.0
 10
72.88178348624263
 20
40.15182183865477
 30
0.0
 10
72.87048486098118
 20
40.11809153316263
 30
0.0
 10
72.86957704153578
 20
40.09510665968073
 30
0.0
 10
72.86911954111591
 20
40.0835233108975
 30
0.0
 11
73.00680333990391
 21
40.2212071096856
 31
0.0
 11
72.96902831529361
 21
40.21612577427708
 31
0.0
 11
72.93390102492563
 21
40.20106374507901
 31
0.0
 11
72.90500535286975
 21
40.17889603389641
 31
0.0
 11
72.88328470427611
 21
40.15032838944492
 31
0.0
 11
72.87214737405552
 21
40.11806590567974
 31
0.0
 11
72.86911954111591
 21
40.0835233108975
 31
0.0
  0
SPLINE
  5
36D
330
53
100
AcDbEntity
  8
0
  6
Continuous
 62
     7
100
AcDbSpline
210
0.0
220
0.0
230
1.0
 70
     8
 71
     3
 72
    13
 73
     9
 74
     7
 42
0.0000000001
 43
0.0000000001
 44
0.00000001
 40
0.0
 40
0.0
 40
0.0
 40
0.0
 40
0.0381152522468664
 40
0.0763355512012009
 40
0.1127548768763765
 40
0.1486421571416378
 40
0.1827729054947545
 40
0.2174479487766529
 40
0.2174479487766529
 40
0.2174479487766529
 40
0.2174479487766529
 10
73.00680333990391
 20
38.0474431263991
 30
0.0
 10
72.99405142146328
 20
38.04841129957155
 30
0.0
 10
72.96851243993608
 20
38.05035031422894
 30
0.0
 10
72.93363710627838
 20
38.06611135173433
 30
0.0
 10
72.90408720754897
 20
38.088469982295
 30
0.0
 10
72.88178348624265
 20
38.11682839742988
 30
0.0
 10
72.87048486098118
 20
38.15055870292203
 30
0.0
 10
72.86957704153578
 20
38.17354357640397
 30
0.0
 10
72.86911954111591
 20
38.1851269251872
 30
0.0
 11
73.00680333990391
 21
38.0474431263991
 31
0.0
 11
72.96902831529361
 21
38.0525244618076
 31
0.0
 11
72.93390102492563
 21
38.06758649100563
 31
0.0
 11
72.90500535286975
 21
38.08975420218819
 31
0.0
 11
72.88328470427611
 21
38.11832184663972
 31
0.0
 11
72.87214737405552
 21
38.15058433040494
 31
0.0
 11
72.86911954111591
 21
38.1851269251872
 31
0.0
  0
SPLINE
  5
36E
330
53
100
AcDbEntity
  8
0
  6
Continuous
 62
     7
100
AcDbSpline
210
0.0
220
0.0
230
1.0
 70
     8
 71
     3
 72
    13
 73
     9
 74
     7
 42
0.0000000001
 43
0.0000000001
 44
0.00000001
 40
0.0
 40
0.0
 40
0.0
 40
0.0
 40
0.0381152522468551
 40
0.0763355512012195
 40
0.1127548768764506
 40
0.1486421571418127
 40
0.1827729054950488
 40
0.2174479487769495
 40
0.2174479487769495
 40
0.2174479487769495
 40
0.2174479487769495
 10
80.4193102190369
 20
40.2212071096856
 30
0.0
 10
80.40655830059629
 20
40.22023893651315
 30
0.0
 10
80.38101931906907
 20
40.21829992185572
 30
0.0
 10
80.34614398541137
 20
40.2025388843503
 30
0.0
 10
80.3165940866819
 20
40.18018025378958
 30
0.0
 10
80.29429036537545
 20
40.15182183865473
 30
0.0
 10
80.28299174011339
 20
40.11809153316273
 30
0.0
 10
80.28208392066786
 20
40.09510665968075
 30
0.0
 10
80.2816264202479
 20
40.0835233108975
 30
0.0
 11
80.4193102190369
 21
40.2212071096856
 31
0.0
 11
80.38153519442662
 21
40.21612577427708
 31
0.0
 11
80.34640790405862
 21
40.20106374507901
 31
0.0
 11
80.3175122320027
 21
40.17889603389641
 31
0.0
 11
80.29579158340884
 21
40.15032838944492
 31
0.0
 11
80.28465425318778
 21
40.11806590567974
 31
0.0
 11
80.2816264202479
 21
40.0835233108975
 31
0.0
  0
SPLINE
  5
36F
330
53
100
AcDbEntity
  8
0
  6
Continuous
 62
     7
100
AcDbSpline
210
0.0
220
0.0
230
1.0
 70
     8
 71
     3
 72
    13
 73
     9
 74
     7
 42
0.0000000001
 43
0.0000000001
 44
0.00000001
 40
0.0
 40
0.0
 40
0.0
 40
0.0
 40
0.0381152522468523
 40
0.0763355512011999
 40
0.1127548768764093
 40
0.1486421571417997
 40
0.1827729054950693
 40
0.2174479487769913
 40
0.2174479487769913
 40
0.2174479487769913
 40
0.2174479487769913
 10
80.4193102190369
 20
38.0474431263991
 30
0.0
 10
80.40655830059626
 20
38.04841129957154
 30
0.0
 10
80.38101931906907
 20
38.05035031422895
 30
0.0
 10
80.34614398541137
 20
38.06611135173434
 30
0.0
 10
80.31659408668189
 20
38.08846998229504
 30
0.0
 10
80.29429036537546
 20
38.1168283974299
 30
0.0
 10
80.2829917401134
 20
38.15055870292196
 30
0.0
 10
80.28208392066784
 20
38.17354357640396
 30
0.0
 10
80.2816264202479
 20
38.1851269251872
 30
0.0
 11
80.4193102190369
 21
38.0474431263991
 31
0.0
 11
80.38153519442662
 21
38.0525244618076
 31
0.0
 11
80.34640790405862
 21
38.06758649100563
 31
0.0
 11
80.3175122320027
 21
38.08975420218819
 31
0.0
 11
80.29579158340884
 21
38.11832184663972
 31
0.0
 11
80.28465425318778
 21
38.15058433040494
 31
0.0
 11
80.2816264202479
 21
38.1851269251872
 31
0.0
  0
SPLINE
  5
370
330
53
100
AcDbEntity
  8
0
  6
Continuous
 62
     7
100
AcDbSpline
210
0.0
220
0.0
230
1.0
 70
     8
 71
     3
 72
    13
 73
     9
 74
     7
 42
0.0000000001
 43
0.0000000001
 44
0.00000001
 40
0.0
 40
0.0
 40
0.0
 40
0.0
 40
0.0353323702701624
 40
0.0704203827951201
 40
0.1027084056751373
 40
0.1352293371689407
 40
0.1740111215768533
 40
0.2125287438774726
 40
0.2125287438774726
 40
0.2125287438774726
 40
0.2125287438774726
 10
79.8018625281029
 20
40.0820155344267
 30
0.0
 10
79.80097633395614
 20
40.09383743982976
 30
0.0
 10
79.79921007455808
 20
40.11739949064847
 30
0.0
 10
79.78475394188328
 20
40.14916597405491
 30
0.0
 10
79.76406621550059
 20
40.17553738297964
 30
0.0
 10
79.73780865784373
 20
40.19804631842177
 30
0.0
 10
79.70551522853428
 20
40.21701449832517
 30
0.0
 10
79.67962983498018
 20
40.21981276014809
 30
0.0
 10
79.6667313684269
 20
40.2212071096856
 30
0.0
 11
79.8018625281029
 21
40.0820155344267
 31
0.0
 11
79.79715344956283
 21
40.11703268691247
 31
0.0
 11
79.7831475833106
 21
40.14920417014648
 31
0.0
 11
79.76336832639187
 21
40.1747246994757
 31
0.0
 11
79.73879366734859
 21
40.19602486656732
 31
0.0
 11
79.70464340753496
 21
40.21440383706415
 31
0.0
 11
79.6667313684269
 21
40.2212071096856
 31
0.0
  0
TEXT
  5
372
330
53
100
AcDbEntity
  8
0
 62
     3
100
AcDbText
 10
45.5066684218749
 20
283.0
 30
0.0
 40
1.798828
  1
4
 41
0.99
  7
CONVERTER_14
100
AcDbText
  0
TEXT
  5
373
330
53
100
AcDbEntity
  8
0
 62
     3
100
AcDbText
 10
170.5066684218749
 20
283.0
 30
0.0
 40
1.798828
  1
1
 41
0.99
  7
CONVERTER_14
100
AcDbText
  0
TEXT
  5
374
330
53
100
AcDbEntity
  8
0
 62
     3
100
AcDbText
 10
16.5066684218749
 20
111.5
 30
0.0
 40
1.798828
  1
C
 41
0.99
  7
CONVERTER_14
100
AcDbText
  0
TEXT
  5
375
330
53
100
AcDbEntity
  8
0
 62
     3
100
AcDbText
 10
16.5066684218749
 20
161.5
 30
0.0
 40
1.798828
  1
D
 41
0.99
  7
CONVERTER_14
100
AcDbText
  0
TEXT
  5
376
330
53
100
AcDbEntity
  8
0
 62
     3
100
AcDbText
 10
16.5066684218749
 20
211.5
 30
0.0
 40
1.798828
  1
E
 41
0.99
  7
CONVERTER_14
100
AcDbText
  0
TEXT
  5
377
330
53
100
AcDbEntity
  8
0
 62
     3
100
AcDbText
 10
16.5066684218749
 20
261.5
 30
0.0
 40
1.798828
  1
F
 41
0.99
  7
CONVERTER_14
100
AcDbText
  0
TEXT
  5
378
330
53
100
AcDbEntity
  8
0
 62
     3
100
AcDbText
 10
16.5066684218749
 20
63.5
 30
0.0
 40
1.798828
  1
B
 41
0.99
  7
CONVERTER_14
100
AcDbText
  0
TEXT
  5
379
330
53
100
AcDbEntity
  8
0
 62
     3
100
AcDbText
 10
83.5066684218749
 20
283.0
 30
0.0
 40
1.798828
  1
3
 41
0.99
  7
CONVERTER_14
100
AcDbText
  0
TEXT
  5
37A
330
53
100
AcDbEntity
  8
0
 62
     3
100
AcDbText
 10
127.5066684218749
 20
283.0
 30
0.0
 40
1.798828
  1
2
 41
0.99
  7
CONVERTER_14
100
AcDbText
  0
MTEXT
  5
37B
330
53
100
AcDbEntity
  8
0
 62
     7
100
AcDbMText
 10
13.21210475602299
 20
214.6132400482627
 30
0.0
 40
1.3
 41
0.0
 71
     7
 72
     1
  3
This drawing shows the actual state of product development at\Pthe date of the drawing or the revision date. No claims or\Pdamages in any form can be made against GEZE as a result of the\Pinterpretation of this drawing. This drawing remains the prop
  3
erty\Pof GEZE and is made available to third parties only for the duration\Pof contractural obligations. All rights connected with this drawing remain\Pin possession of GEZE. This drawing may not be copied or handed over\Pto third parties without th
  1
e express consent of GEZE.
  7
CONVERTER_12
 11
6.123233995736766E-17
 21
1.0
 31
0.0
 73
     1
 44
0.7202881152461
  0
MTEXT
  5
37C
330
53
100
AcDbEntity
  8
0
 62
     7
100
AcDbMText
 10
13.78
 20
0.0
 30
0.0
 40
1.3
 41
0.0
 71
     7
 72
     1
  3
Diese Zeichnung entspricht dem Entwicklungsstand des Zeichnungs-\Pdatums bzw. der letzten \U+00c4nderungseintragung.Aus der Ben\U+00fctzung der\PZeichnung k\U+00f6nnen keine Anspr\U+00fcche, gleich welcher Art, einschlie\U+00df-\Plich Schadenersatza
  3
nspr\U+00fcche, abgeleitet und gegen GEZE geltend ge-\Pmacht werden. Die Zeichnung bleibt unser Eigentum und ist Dritten\Pnur f\U+00fcr die Vertragsdauer zur Benutzung \U+00fcberlassen.S\U+00e4mtliche sich\Paus der Zeichnung ergebenden Anspr\U+00fcc
  1
he stehen ausschlie\U+00dflich GEZE\Pzu.Ohne vorherige Zustimmung von GEZE darf diese Zeichnung weder\Pvervielf\U+00e4ltigt noch Dritten zug\U+00e4nglich gemacht werden.
  7
CONVERTER_12
 11
6.123233764940082E-17
 21
1.0
 31
0.0
 73
     1
 44
0.7202881152461
  0
MTEXT
  5
37D
330
53
100
AcDbEntity
  8
1
 62
     7
100
AcDbMText
 10
11.16031950505541
 20
141.7735294117645
 30
0.0
 40
2.0
 41
0.0
 71
     5
 72
     1
  1
EMPB = Erstmusterpr\U+00fcfbericht /First sample test report
  7
CONVERTER_12
 11
6.123233995736766E-17
 21
1.0
 31
0.0
 73
     1
 44
1.02040816326531
  0
MTEXT
  5
37E
330
53
100
AcDbEntity
  8
0
 62
     4
100
AcDbMText
 10
129.129383835554
 20
8.20000000000001
 30
0.0
 40
3.5
 41
0.0
 71
     5
 72
     1
  1
D
  7
CONVERTER_12
 73
     1
 44
1.02040816326531
  0
MTEXT
  5
380
330
53
100
AcDbEntity
  8
0
 62
     3
100
AcDbMText
 10
66.2358488707329
 20
15.15
 30
0.0
 40
1.8
 41
0.0
 71
     4
 72
     1
  1
gepr. / checked
  7
CONVERTER_15
 73
     1
 44
0.90036014405762
  0
MTEXT
  5
381
330
53
100
AcDbEntity
  8
0
 62
     3
100
AcDbMText
 10
66.2358488707329
 20
19.45
 30
0.0
 40
1.8
 41
0.0
 71
     4
 72
     1
  1
erstellt / drawn
  7
CONVERTER_15
 73
     1
 44
0.90036014405762
  0
TEXT
  5
382
330
53
100
AcDbEntity
  8
0
 62
     4
100
AcDbText
 10
87.0662822490759
 20
39.4483504727545
 30
0.0
 40
2.2
  1
GEZE GmbH
 41
0.9
  7
CONVERTER_12
100
AcDbText
  0
MTEXT
  5
383
330
53
100
AcDbEntity
  8
0
 62
     3
100
AcDbMText
 10
87.0662822490759
 20
31.7168732439802
 30
0.0
 40
1.8
 41
0.0
 71
     7
 72
     1
  1
P.O. Box 13 63\P71226 Leonberg\PGermany
  7
CONVERTER_15
 73
     1
 44
0.78031212484994
  0
MTEXT
  5
384
330
53
100
AcDbEntity
  8
0
 62
     3
100
AcDbMText
 10
143.5066684218749
 20
20.9
 30
0.0
 40
1.8
 41
0.0
 71
     7
 72
     1
  1
Material-Nr.\PID-no.
  7
CONVERTER_15
 73
     1
 44
0.84033613445378
  0
TEXT
  5
385
330
53
100
AcDbEntity
  8
0
 62
     3
100
AcDbText
 10
143.5066684218749
 20
10.4
 30
0.0
 40
1.8
  1
Zeichnungs-Nr. / document-no.
 41
0.72
  7
CONVERTER_15
100
AcDbText
  0
TEXT
  5
386
330
53
100
AcDbEntity
  8
0
 62
     3
100
AcDbText
 10
116.7066684218748
 20
10.73333324949998
 30
0.0
 40
1.8
  1
Sprache / language
 41
0.72
  7
CONVERTER_15
100
AcDbText
  0
MTEXT
  5
387
330
53
100
AcDbEntity
  8
0
 62
     3
100
AcDbMText
 10
116.221568841094
 20
15.3617882489337
 30
0.0
 40
1.8
 41
0.0
 71
     7
 72
     1
  1
Ma\U+00dfstab\Pscale
  7
CONVERTER_15
 73
     1
 44
0.84033613445378
  0
TEXT
  5
388
330
53
100
AcDbEntity
  8
0
 62
     3
100
AcDbText
 10
107.306625421875
 20
40.600006
 30
0.0
 40
1.8
  1
Benennung / designation
 41
0.72
  7
CONVERTER_15
100
AcDbText
  0
MTEXT
  5
389
330
53
100
AcDbEntity
  8
0
 62
     3
100
AcDbMText
 10
66.2358488707329
 20
3.25
 30
0.0
 40
1.8
 41
0.0
 71
     4
 72
     1
  1
Ersetzt durch:\Psubst. with:
  7
CONVERTER_15
 73
     1
 44
0.84033613445378
  0
MTEXT
  5
38A
330
53
100
AcDbEntity
  8
0
 62
     3
100
AcDbMText
 10
66.2358488707329
 20
9.75
 30
0.0
 40
1.8
 41
0.0
 71
     4
 72
     1
  1
Ersatz f\U+00fcr:\Psubst. for:
  7
CONVERTER_15
 73
     1
 44
0.84033613445378
  0
MTEXT
  5
38B
330
53
100
AcDbEntity
  8
0
 62
     3
100
AcDbMText
 10
116.3200072399219
 20
21.1543120908915
 30
0.0
 40
1.8
 41
0.0
 71
     7
 72
     1
  1
Blatt / von\Psheet / of
  7
CONVERTER_15
 73
     1
 44
0.84033613445378
  0
MTEXT
  5
38D
330
53
100
AcDbEntity
  8
0
 62
     3
100
AcDbMText
 10
92.0066684218749
 20
22.6975560165162
 30
0.0
 40
1.8
 41
0.0
 71
     8
 72
     1
  1
Datum / date
  7
CONVERTER_16
 73
     1
 44
0.90036014405762
  0
MTEXT
  5
38E
330
53
100
AcDbEntity
  8
0
 62
     3
100
AcDbMText
 10
108.0066684218749
 20
22.6975560165162
 30
0.0
 40
1.8
 41
0.0
 71
     8
 72
     1
  1
Name / name
  7
CONVERTER_16
 73
     1
 44
0.90036014405762
  0
MTEXT
  5
390
330
53
100
AcDbEntity
  8
0
 62
     7
100
AcDbMText
 10
27.70666842187489
 20
2.36042929205311
 30
0.0
 40
1.3
 41
0.0
 71
     8
 72
     1
  1
Dok.version
  7
CONVERTER_17
 73
     1
 44
0.7202881152461
  0
MTEXT
  5
391
330
53
100
AcDbEntity
  8
0
 62
     7
100
AcDbMText
 10
27.70666842187489
 20
0.56042929205312
 30
0.0
 40
1.3
 41
0.0
 71
     8
 72
     1
  1
doc.version
  7
CONVERTER_17
 73
     1
 44
0.7202881152461
  0
MTEXT
  5
392
330
53
100
AcDbEntity
  8
0
 62
     7
100
AcDbMText
 10
38.0066684218749
 20
0.56042929205312
 30
0.0
 40
1.3
 41
0.0
 71
     8
 72
     1
  1
date
  7
CONVERTER_15
 73
     1
 44
0.7202881152461
  0
MTEXT
  5
393
330
53
100
AcDbEntity
  8
0
 62
     7
100
AcDbMText
 10
38.0066684218749
 20
2.36042929205311
 30
0.0
 40
1.3
 41
0.0
 71
     8
 72
     1
  1
Datum
  7
CONVERTER_15
 73
     1
 44
0.7202881152461
  0
MTEXT
  5
394
330
53
100
AcDbEntity
  8
0
 62
     7
100
AcDbMText
 10
47.0066684218749
 20
0.56042929205312
 30
0.0
 40
1.3
 41
0.0
 71
     8
 72
     1
  1
name
  7
CONVERTER_15
 73
     1
 44
0.7202881152461
  0
MTEXT
  5
395
330
53
100
AcDbEntity
  8
0
 62
     7
100
AcDbMText
 10
47.0066684218749
 20
2.36042929205311
 30
0.0
 40
1.3
 41
0.0
 71
     8
 72
     1
  1
Name
  7
CONVERTER_15
 73
     1
 44
0.7202881152461
  0
MTEXT
  5
396
330
53
100
AcDbEntity
  8
0
 62
     7
100
AcDbMText
 10
58.5066684218749
 20
0.56042929205312
 30
0.0
 40
1.3
 41
0.0
 71
     8
 72
     1
  1
Doc. change no.
  7
CONVERTER_15
 73
     1
 44
0.7202881152461
  0
MTEXT
  5
397
330
53
100
AcDbEntity
  8
0
 62
     7
100
AcDbMText
 10
58.5066684218749
 20
2.36042929205311
 30
0.0
 40
1.3
 41
0.0
 71
     8
 72
     1
  1
Mitteilungs-Nr.
  7
CONVERTER_15
 73
     1
 44
0.7202881152461
  0
MTEXT
  5
398
330
53
100
AcDbEntity
  8
0
 62
     4
100
AcDbMText
 10
136.7022258382949
 20
22.5
 30
0.0
 40
5.0
 41
0.0
 71
     5
 72
     1
  1
/
  7
CONVERTER_12
 73
     1
 44
1.02040816326531
  0
MTEXT
  5
399
330
53
100
AcDbEntity
  8
0
 62
     7
100
AcDbMText
 10
27.70666842187489
 20
6.449997
 30
0.0
 40
2.0
 41
0.0
 71
     5
 72
     1
  1
00
  7
CONVERTER_12
 73
     1
 44
1.02040816326531
  0
MTEXT
  5
39A
330
53
100
AcDbEntity
  8
0
 62
     7
100
AcDbMText
 10
27.70666842187489
 20
10.749985
 30
0.0
 40
2.0
 41
0.0
 71
     5
 72
     1
  1
 
  7
CONVERTER_12
 73
     1
 44
1.02040816326531
  0
MTEXT
  5
39B
330
53
100
AcDbEntity
  8
0
 62
     7
100
AcDbMText
 10
27.70666842187489
 20
15.049973
 30
0.0
 40
2.0
 41
0.0
 71
     5
 72
     1
  1
 
  7
CONVERTER_12
 73
     1
 44
1.02040816326531
  0
MTEXT
  5
39C
330
53
100
AcDbEntity
  8
0
 62
     7
100
AcDbMText
 10
27.70666842187489
 20
19.349961
 30
0.0
 40
2.0
 41
0.0
 71
     5
 72
     1
  1
 
  7
CONVERTER_12
 73
     1
 44
1.02040816326531
  0
MTEXT
  5
39D
330
53
100
AcDbEntity
  8
0
 62
     7
100
AcDbMText
 10
27.70666842187489
 20
23.649949
 30
0.0
 40
2.0
 41
0.0
 71
     5
 72
     1
  1
 
  7
CONVERTER_12
 73
     1
 44
1.02040816326531
  0
MTEXT
  5
39E
330
53
100
AcDbEntity
  8
0
 62
     7
100
AcDbMText
 10
27.70666842187489
 20
27.949937
 30
0.0
 40
2.0
 41
0.0
 71
     5
 72
     1
  1
 
  7
CONVERTER_12
 73
     1
 44
1.02040816326531
  0
MTEXT
  5
39F
330
53
100
AcDbEntity
  8
0
 62
     7
100
AcDbMText
 10
27.70666842187489
 20
32.249925
 30
0.0
 40
2.0
 41
0.0
 71
     5
 72
     1
  1
 
  7
CONVERTER_12
 73
     1
 44
1.02040816326531
  0
MTEXT
  5
3A0
330
53
100
AcDbEntity
  8
0
 62
     7
100
AcDbMText
 10
37.5066684218749
 20
36.549913
 30
0.0
 40
2.0
 41
0.0
 71
     5
 72
     1
  1
 
  7
CONVERTER_17
 73
     1
 44
1.02040816326531
  0
MTEXT
  5
3A1
330
53
100
AcDbEntity
  8
0
 62
     7
100
AcDbMText
 10
27.70666842187489
 20
40.849901
 30
0.0
 40
2.0
 41
0.0
 71
     5
 72
     1
  1
 
  7
CONVERTER_12
 73
     1
 44
1.02040816326531
  0
MTEXT
  5
3A2
330
53
100
AcDbEntity
  8
0
 62
     7
100
AcDbMText
 10
58.5066684218749
 20
40.849901
 30
0.0
 40
2.0
 41
0.0
 71
     5
 72
     1
  1
 
  7
CONVERTER_12
 73
     1
 44
1.02040816326531
  0
MTEXT
  5
3A3
330
53
100
AcDbEntity
  8
0
 62
     7
100
AcDbMText
 10
47.30666842187491
 20
36.549913
 30
0.0
 40
2.0
 41
0.0
 71
     5
 72
     1
  1
 
  7
CONVERTER_15
 73
     1
 44
1.02040816326531
  0
MTEXT
  5
3A4
330
53
100
AcDbEntity
  8
0
 62
     7
100
AcDbMText
 10
47.30666842187491
 20
32.249925
 30
0.0
 40
2.0
 41
0.0
 71
     5
 72
     1
  1
 
  7
CONVERTER_15
 73
     1
 44
1.02040816326531
  0
MTEXT
  5
3A5
330
53
100
AcDbEntity
  8
0
 62
     7
100
AcDbMText
 10
47.30666842187491
 20
27.949937
 30
0.0
 40
2.0
 41
0.0
 71
     5
 72
     1
  1
 
  7
CONVERTER_15
 73
     1
 44
1.02040816326531
  0
MTEXT
  5
3A6
330
53
100
AcDbEntity
  8
0
 62
     7
100
AcDbMText
 10
37.5066684218749
 20
23.649949
 30
0.0
 40
2.0
 41
0.0
 71
     5
 72
     1
  1
 
  7
CONVERTER_17
 73
     1
 44
1.02040816326531
  0
MTEXT
  5
3A7
330
53
100
AcDbEntity
  8
0
 62
     7
100
AcDbMText
 10
47.30666842187491
 20
19.349961
 30
0.0
 40
2.0
 41
0.0
 71
     5
 72
     1
  1
 
  7
CONVERTER_15
 73
     1
 44
1.02040816326531
  0
MTEXT
  5
3A8
330
53
100
AcDbEntity
  8
0
 62
     7
100
AcDbMText
 10
58.5066684218749
 20
15.049973
 30
0.0
 40
2.0
 41
0.0
 71
     5
 72
     1
  1
 
  7
CONVERTER_12
 73
     1
 44
1.02040816326531
  0
MTEXT
  5
3A9
330
53
100
AcDbEntity
  8
0
 62
     7
100
AcDbMText
 10
58.5066684218749
 20
10.749985
 30
0.0
 40
2.0
 41
0.0
 71
     5
 72
     1
  1
 
  7
CONVERTER_12
 73
     1
 44
1.02040816326531
  0
MTEXT
  5
3AA
330
53
100
AcDbEntity
  8
0
 62
     7
100
AcDbMText
 10
37.5066684218749
 20
6.449997
 30
0.0
 40
2.0
 41
0.0
 71
     5
 72
     1
  1
03.12.13
  7
CONVERTER_17
 73
     1
 44
1.02040816326531
  0
MTEXT
  5
3AB
330
53
100
AcDbEntity
  8
0
 62
     7
100
AcDbMText
 10
47.30666842187491
 20
6.449997
 30
0.0
 40
2.0
 41
0.0
 71
     5
 72
     1
  1
tbt7
  7
CONVERTER_15
 73
     1
 44
1.02040816326531
  0
MTEXT
  5
3AC
330
53
100
AcDbEntity
  8
0
 62
     7
100
AcDbMText
 10
58.5066684218749
 20
19.349961
 30
0.0
 40
2.0
 41
0.0
 71
     5
 72
     1
  1
 
  7
CONVERTER_12
 73
     1
 44
1.02040816326531
  0
MTEXT
  5
3AD
330
53
100
AcDbEntity
  8
0
 62
     7
100
AcDbMText
 10
37.5066684218749
 20
15.049973
 30
0.0
 40
2.0
 41
0.0
 71
     5
 72
     1
  1
 
  7
CONVERTER_17
 73
     1
 44
1.02040816326531
  0
MTEXT
  5
3AE
330
53
100
AcDbEntity
  8
0
 62
     7
100
AcDbMText
 10
58.5066684218749
 20
6.449997
 30
0.0
 40
2.0
 41
0.0
 71
     5
 72
     1
  1
*
  7
CONVERTER_12
 73
     1
 44
1.02040816326531
  0
MTEXT
  5
3AF
330
53
100
AcDbEntity
  8
0
 62
     7
100
AcDbMText
 10
37.5066684218749
 20
10.749985
 30
0.0
 40
2.0
 41
0.0
 71
     5
 72
     1
  1
 
  7
CONVERTER_17
 73
     1
 44
1.02040816326531
  0
MTEXT
  5
3B0
330
53
100
AcDbEntity
  8
0
 62
     7
100
AcDbMText
 10
37.5066684218749
 20
19.349961
 30
0.0
 40
2.0
 41
0.0
 71
     5
 72
     1
  1
 
  7
CONVERTER_17
 73
     1
 44
1.02040816326531
  0
MTEXT
  5
3B1
330
53
100
AcDbEntity
  8
0
 62
     7
100
AcDbMText
 10
37.5066684218749
 20
27.949937
 30
0.0
 40
2.0
 41
0.0
 71
     5
 72
     1
  1
 
  7
CONVERTER_17
 73
     1
 44
1.02040816326531
  0
MTEXT
  5
3B2
330
53
100
AcDbEntity
  8
0
 62
     7
100
AcDbMText
 10
37.5066684218749
 20
32.249925
 30
0.0
 40
2.0
 41
0.0
 71
     5
 72
     1
  1
 
  7
CONVERTER_17
 73
     1
 44
1.02040816326531
  0
MTEXT
  5
3B3
330
53
100
AcDbEntity
  8
0
 62
     7
100
AcDbMText
 10
37.5066684218749
 20
40.849901
 30
0.0
 40
2.0
 41
0.0
 71
     5
 72
     1
  1
 
  7
CONVERTER_17
 73
     1
 44
1.02040816326531
  0
MTEXT
  5
3B4
330
53
100
AcDbEntity
  8
0
 62
     7
100
AcDbMText
 10
47.30666842187491
 20
10.749985
 30
0.0
 40
2.0
 41
0.0
 71
     5
 72
     1
  1
 
  7
CONVERTER_15
 73
     1
 44
1.02040816326531
  0
MTEXT
  5
3B5
330
53
100
AcDbEntity
  8
0
 62
     7
100
AcDbMText
 10
47.30666842187491
 20
15.049973
 30
0.0
 40
2.0
 41
0.0
 71
     5
 72
     1
  1
 
  7
CONVERTER_15
 73
     1
 44
1.02040816326531
  0
MTEXT
  5
3B6
330
53
100
AcDbEntity
  8
0
 62
     7
100
AcDbMText
 10
47.30666842187491
 20
23.649949
 30
0.0
 40
2.0
 41
0.0
 71
     5
 72
     1
  1
 
  7
CONVERTER_15
 73
     1
 44
1.02040816326531
  0
MTEXT
  5
3B7
330
53
100
AcDbEntity
  8
0
 62
     7
100
AcDbMText
 10
47.30666842187491
 20
40.849901
 30
0.0
 40
2.0
 41
0.0
 71
     5
 72
     1
  1
 
  7
CONVERTER_15
 73
     1
 44
1.02040816326531
  0
MTEXT
  5
3B8
330
53
100
AcDbEntity
  8
0
 62
     7
100
AcDbMText
 10
58.5066684218749
 20
23.649949
 30
0.0
 40
2.0
 41
0.0
 71
     5
 72
     1
  1
 
  7
CONVERTER_12
 73
     1
 44
1.02040816326531
  0
MTEXT
  5
3B9
330
53
100
AcDbEntity
  8
0
 62
     7
100
AcDbMText
 10
58.5066684218749
 20
27.949937
 30
0.0
 40
2.0
 41
0.0
 71
     5
 72
     1
  1
 
  7
CONVERTER_12
 73
     1
 44
1.02040816326531
  0
MTEXT
  5
3BA
330
53
100
AcDbEntity
  8
0
 62
     7
100
AcDbMText
 10
58.5066684218749
 20
32.249925
 30
0.0
 40
2.0
 41
0.0
 71
     5
 72
     1
  1
 
  7
CONVERTER_12
 73
     1
 44
1.02040816326531
  0
MTEXT
  5
3BB
330
53
100
AcDbEntity
  8
0
 62
     7
100
AcDbMText
 10
58.5066684218749
 20
36.549913
 30
0.0
 40
2.0
 41
0.0
 71
     5
 72
     1
  1
 
  7
CONVERTER_12
 73
     1
 44
1.02040816326531
  0
MTEXT
  5
3BC
330
53
100
AcDbEntity
  8
0
 62
     7
100
AcDbMText
 10
27.70666842187489
 20
36.549913
 30
0.0
 40
2.0
 41
0.0
 71
     5
 72
     1
  1
 
  7
CONVERTER_12
 73
     1
 44
1.02040816326531
  0
MTEXT
  5
3BD
330
53
100
AcDbEntity
  8
0
 62
     3
100
AcDbMText
 10
90.5418984900569
 20
19.8136152178384
 30
0.0
 40
2.5
 41
0.0
 71
     5
 72
     1
  1
03.12.13
  7
CONVERTER_17
 73
     1
 44
1.02040816326531
  0
MTEXT
  5
3BE
330
53
100
AcDbEntity
  8
0
 62
     3
100
AcDbMText
 10
107.6339467400569
 20
19.8136152178384
 30
0.0
 40
2.5
 41
0.0
 71
     5
 72
     1
  1
tbt7
  7
CONVERTER_15
 73
     1
 44
1.02040816326531
  0
MTEXT
  5
3BF
330
53
100
AcDbEntity
  8
0
 62
     1
100
AcDbMText
 10
129.6853719060919
 20
16.2112503074031
 30
0.0
 40
5.0
 41
0.0
 71
     5
 72
     1
  1
1:1
  7
CONVERTER_12
 73
     1
 44
1.02040816326531
  0
MTEXT
  5
3C0
330
53
100
AcDbEntity
  8
0
 62
     3
100
AcDbMText
 10
90.5418984900569
 20
15.4881691307031
 30
0.0
 40
2.5
 41
0.0
 71
     5
 72
     1
  1
 
  7
CONVERTER_17
 73
     1
 44
1.02040816326531
  0
MTEXT
  5
3C1
330
53
100
AcDbEntity
  8
0
 62
     3
100
AcDbMText
 10
96.24967660828989
 20
2.4101356684765
 30
0.0
 40
2.5
 41
0.0
 71
     5
 72
     1
  1
 
  7
CONVERTER_12
 73
     1
 44
1.02040816326531
  0
MTEXT
  5
3C2
330
53
100
AcDbEntity
  8
0
 62
     3
100
AcDbMText
 10
96.24967660828989
 20
9.9101356684765
 30
0.0
 40
2.5
 41
0.0
 71
     5
 72
     1
  1
 
  7
CONVERTER_12
 73
     1
 44
1.02040816326531
  0
MTEXT
  5
3C3
330
53
100
AcDbEntity
  8
0
 62
     3
100
AcDbMText
 10
107.6339467400569
 20
15.4881691307031
 30
0.0
 40
2.5
 41
0.0
 71
     5
 72
     1
  1
 
  7
CONVERTER_15
 73
     1
 44
1.02040816326531
  0
MTEXT
  5
3C4
330
53
100
AcDbEntity
  8
0
 62
     4
100
AcDbMText
 10
153.5066684218749
 20
29.5509709389485
 30
0.0
 40
3.5
 41
0.0
 71
     5
 72
     1
  1
COUNTER PLATE STANDARD
  7
CONVERTER_15
 73
     1
 44
1.02040816326531
  0
MTEXT
  5
3C5
330
53
100
AcDbEntity
  8
0
 62
     1
100
AcDbMText
 10
153.5066684218749
 20
36.4392375438422
 30
0.0
 40
4.5
 41
0.0
 71
     5
 72
     1
  1
HAFTGEGENPLATTE STANDARD
  7
CONVERTER_15
 73
     1
 44
1.02040816326531
  0
MTEXT
  5
3C6
330
53
100
AcDbEntity
  8
0
 62
     1
100
AcDbMText
 10
172.5066684218749
 20
18.5101511820582
 30
0.0
 40
5.0
 41
0.0
 71
     5
 72
     1
  1
 
  7
CONVERTER_12
 73
     1
 44
1.02040816326531
  0
MTEXT
  5
3C7
330
53
100
AcDbEntity
  8
0
 62
     1
100
AcDbMText
 10
172.5066684218749
 20
5.38551908572789
 30
0.0
 40
5.0
 41
0.0
 71
     5
 72
     1
  1
21202-0-4
  7
CONVERTER_15
 73
     1
 44
1.02040816326531
  0
MTEXT
  5
3C8
330
53
100
AcDbEntity
  8
0
 62
     4
100
AcDbMText
 10
139.9224718661989
 20
22.5
 30
0.0
 40
3.5
 41
0.0
 71
     5
 72
     1
  1
1
  7
CONVERTER_12
 73
     1
 44
1.02040816326531
  0
MTEXT
  5
3C9
330
53
100
AcDbEntity
  8
0
 62
     4
100
AcDbMText
 10
133.129383835554
 20
22.5
 30
0.0
 40
3.5
 41
0.0
 71
     5
 72
     1
  1
1
  7
CONVERTER_12
 73
     1
 44
1.02040816326531
  0
MTEXT
  5
3CA
330
53
100
AcDbEntity
  8
0
 62
     7
100
AcDbMText
 10
21.10666842187489
 20
2.10462632711871
 30
0.0
 40
1.3
 41
0.0
 71
     8
 72
     1
  1
EMPB
  7
CONVERTER_15
 73
     1
 44
0.7202881152461
  0
TEXT
  5
3CC
330
53
100
AcDbEntity
  8
0
 62
     4
100
AcDbText
 10
66.5342641417329
 20
27.1408650519031
 30
0.0
 40
2.5
  1
vertraulich / confidential
 41
0.765
  7
CONVERTER_18
100
AcDbText
  0
MTEXT
  5
3CD
330
53
100
AcDbEntity
  8
0
 62
     4
100
AcDbMText
 10
20.70666842187489
 20
6.449997
 30
0.0
 40
2.0
 41
0.0
 71
     5
 72
     1
  1
 
  7
CONVERTER_12
 73
     1
 44
1.02040816326531
  0
MTEXT
  5
3CE
330
53
100
AcDbEntity
  8
0
 62
     4
100
AcDbMText
 10
20.70666842187489
 20
10.749985
 30
0.0
 40
2.0
 41
0.0
 71
     5
 72
     1
  1
 
  7
CONVERTER_12
 73
     1
 44
1.02040816326531
  0
MTEXT
  5
3CF
330
53
100
AcDbEntity
  8
0
 62
     4
100
AcDbMText
 10
20.70666842187489
 20
15.049973
 30
0.0
 40
2.0
 41
0.0
 71
     5
 72
     1
  1
 
  7
CONVERTER_12
 73
     1
 44
1.02040816326531
  0
MTEXT
  5
3D0
330
53
100
AcDbEntity
  8
0
 62
     4
100
AcDbMText
 10
20.70666842187489
 20
19.349961
 30
0.0
 40
2.0
 41
0.0
 71
     5
 72
     1
  1
 
  7
CONVERTER_12
 73
     1
 44
1.02040816326531
  0
MTEXT
  5
3D1
330
53
100
AcDbEntity
  8
0
 62
     4
100
AcDbMText
 10
20.70666842187489
 20
23.649949
 30
0.0
 40
2.0
 41
0.0
 71
     5
 72
     1
  1
 
  7
CONVERTER_12
 73
     1
 44
1.02040816326531
  0
MTEXT
  5
3D2
330
53
100
AcDbEntity
  8
0
 62
     4
100
AcDbMText
 10
20.70666842187489
 20
27.949937
 30
0.0
 40
2.0
 41
0.0
 71
     5
 72
     1
  1
 
  7
CONVERTER_12
 73
     1
 44
1.02040816326531
  0
MTEXT
  5
3D3
330
53
100
AcDbEntity
  8
0
 62
     4
100
AcDbMText
 10
20.70666842187489
 20
32.249925
 30
0.0
 40
2.0
 41
0.0
 71
     5
 72
     1
  1
 
  7
CONVERTER_12
 73
     1
 44
1.02040816326531
  0
MTEXT
  5
3D4
330
53
100
AcDbEntity
  8
0
 62
     4
100
AcDbMText
 10
20.70666842187489
 20
36.549913
 30
0.0
 40
2.0
 41
0.0
 71
     5
 72
     1
  1
 
  7
CONVERTER_12
 73
     1
 44
1.02040816326531
  0
MTEXT
  5
3D5
330
53
100
AcDbEntity
  8
0
 62
     4
100
AcDbMText
 10
20.70666842187489
 20
40.849901
 30
0.0
 40
2.0
 41
0.0
 71
     5
 72
     1
  1
 
  7
CONVERTER_12
 73
     1
 44
1.02040816326531
  0
ENDBLK
  5
55
330
53
100
AcDbEntity
  8
0
100
AcDbBlockEnd
  0
BLOCK
  5
7A
330
56
100
AcDbEntity
  8
0
100
AcDbBlockBegin
  2
Rahmen
 70
     0
 10
0.0
 20
0.0
 30
0.0
  3
Rahmen
  1

  0
INSERT
  5
79
330
56
100
AcDbEntity
  8
1
100
AcDbBlockReference
  2
a4kl
 10
0.0
 20
0.0
 30
0.0
  0
ENDBLK
  5
7B
330
56
100
AcDbEntity
  8
0
100
AcDbBlockEnd
  0
BLOCK
  5
BF
330
B6
100
AcDbEntity
  8
0
100
AcDbBlockBegin
  2
*D7
 70
     1
 10
0.0
 20
0.0
 30
0.0
  3
*D7
  1

  0
LINE
  5
B7
330
B6
100
AcDbEntity
  8
1
  6
Continuous
 62
     3
100
AcDbLine
 10
68.00508426347504
 20
229.888578948871
 30
0.0
 11
68.00508426347504
 21
236.888578948871
 31
0.0
  0
LINE
  5
B8
330
B6
100
AcDbEntity
  8
1
  6
Continuous
 62
     3
100
AcDbLine
 10
68.00508426347504
 20
236.888578948871
 30
0.0
 11
68.00508426347504
 21
241.888578837071
 31
0.0
  0
LINE
  5
B9
330
B6
100
AcDbEntity
  8
1
  6
Continuous
 62
     3
100
AcDbLine
 10
68.00508426347504
 20
241.888578837071
 30
0.0
 11
68.00508426347504
 21
248.888578837071
 31
0.0
  0
LINE
  5
BA
330
B6
100
AcDbEntity
  8
1
  6
Continuous
 62
     3
100
AcDbLine
 10
78.00508426347504
 20
236.888578948871
 30
0.0
 11
66.00508426347504
 21
236.888578948871
 31
0.0
  0
LINE
  5
BB
330
B6
100
AcDbEntity
  8
1
  6
Continuous
 62
     3
100
AcDbLine
 10
78.00508426347504
 20
241.888578837071
 30
0.0
 11
66.00508426347504
 21
241.888578837071
 31
0.0
  0
SOLID
  5
BC
330
B6
100
AcDbEntity
  8
1
 62
     3
100
AcDbTrace
 10
68.46586800503093
 20
233.388578948871
 30
0.0
 11
67.54430052191915
 21
233.388578948871
 31
0.0
 12
68.00508426347504
 22
236.888578948871
 32
0.0
 13
68.00508426347504
 23
236.888578948871
 33
0.0
  0
SOLID
  5
BD
330
B6
100
AcDbEntity
  8
1
 62
     3
100
AcDbTrace
 10
67.54430052191915
 20
245.388578837071
 30
0.0
 11
68.46586800503093
 21
245.388578837071
 31
0.0
 12
68.00508426347504
 22
241.888578837071
 32
0.0
 13
68.00508426347504
 23
241.888578837071
 33
0.0
  0
MTEXT
  5
BE
330
B6
100
AcDbEntity
  8
1
 62
     4
100
AcDbMText
 10
66.00508426347504
 20
238.338578892971
 30
0.0
 40
3.5
 41
0.0
 71
     7
 72
     1
  1
5
  7
CONVERTER_12
 11
0.0
 21
1.0
 31
0.0
 73
     1
 44
0.60024009603842
  0
ENDBLK
  5
C0
330
B6
100
AcDbEntity
  8
0
100
AcDbBlockEnd
  0
BLOCK
  5
CC
330
C3
100
AcDbEntity
  8
0
100
AcDbBlockBegin
  2
*D8
 70
     1
 10
0.0
 20
0.0
 30
0.0
  3
*D8
  1

  0
LINE
  5
C4
330
C3
100
AcDbEntity
  8
1
  6
Continuous
 62
     3
100
AcDbLine
 10
129.7550848296751
 20
215.8885787388711
 30
0.0
 11
136.7550848296751
 21
215.8885787388711
 31
0.0
  0
LINE
  5
C5
330
C3
100
AcDbEntity
  8
1
  6
Continuous
 62
     3
100
AcDbLine
 10
125.2550850234751
 20
215.8885787388711
 30
0.0
 11
129.7550848296751
 21
215.8885787388711
 31
0.0
  0
LINE
  5
C6
330
C3
100
AcDbEntity
  8
1
  6
Continuous
 62
     3
100
AcDbLine
 10
110.711333697275
 20
215.8885787388711
 30
0.0
 11
125.2550850234751
 21
215.8885787388711
 31
0.0
  0
LINE
  5
C7
330
C3
100
AcDbEntity
  8
1
  6
Continuous
 62
     3
100
AcDbLine
 10
129.7550848296751
 20
226.788578876571
 30
0.0
 11
129.7550848296751
 21
213.8885787388711
 31
0.0
  0
LINE
  5
C8
330
C3
100
AcDbEntity
  8
1
  6
Continuous
 62
     3
100
AcDbLine
 10
125.2550850234751
 20
226.788578876571
 30
0.0
 11
125.2550850234751
 21
213.8885787388711
 31
0.0
  0
SOLID
  5
C9
330
C3
100
AcDbEntity
  8
1
 62
     3
100
AcDbTrace
 10
121.7550850234751
 20
215.4277949973152
 30
0.0
 11
121.7550850234751
 21
216.349362480427
 31
0.0
 12
125.2550850234751
 22
215.8885787388711
 32
0.0
 13
125.2550850234751
 23
215.8885787388711
 33
0.0
  0
SOLID
  5
CA
330
C3
100
AcDbEntity
  8
1
 62
     3
100
AcDbTrace
 10
133.2550848296751
 20
216.349362480427
 30
0.0
 11
133.2550848296751
 21
215.4277949973152
 31
0.0
 12
129.7550848296751
 22
215.8885787388711
 32
0.0
 13
129.7550848296751
 23
215.8885787388711
 33
0.0
  0
MTEXT
  5
CB
330
C3
100
AcDbEntity
  8
1
 62
     4
100
AcDbMText
 10
112.0413336972834
 20
217.8885717817948
 30
0.0
 40
3.5
 41
0.0
 71
     7
 72
     1
  1
\C4;{\Fgdt;n}\C4;4.5
  7
CONVERTER_12
 11
0.9999999999970619
 21
2.424068405545306E-6
 31
0.0
 73
     1
 44
0.60024009603842
  0
ENDBLK
  5
CD
330
C3
100
AcDbEntity
  8
0
100
AcDbBlockEnd
  0
BLOCK
  5
D8
330
D0
100
AcDbEntity
  8
0
100
AcDbBlockBegin
  2
*D9
 70
     1
 10
0.0
 20
0.0
 30
0.0
  3
*D9
  1

  0
LINE
  5
D1
330
D0
100
AcDbEntity
  8
1
  6
Continuous
 62
     3
100
AcDbLine
 10
78.00508426347504
 20
258.888578837071
 30
0.0
 11
133.005083965475
 21
258.888578837071
 31
0.0
  0
LINE
  5
D2
330
D0
100
AcDbEntity
  8
1
  6
Continuous
 62
     3
100
AcDbLine
 10
78.00508426347504
 20
241.888578837071
 30
0.0
 11
78.00508426347504
 21
260.888578837071
 31
0.0
  0
LINE
  5
D3
330
D0
100
AcDbEntity
  8
1
  6
Continuous
 62
     3
100
AcDbLine
 10
133.005083965475
 20
251.664666885584
 30
0.0
 11
133.005083965475
 21
260.888578837071
 31
0.0
  0
LINE
  5
D4
330
D0
100
AcDbEntity
  8
1
  6
Continuous
 62
     3
100
AcDbLine
 10
133.005083965475
 20
241.888578837071
 30
0.0
 11
133.005083965475
 21
248.203852516368
 31
0.0
  0
SOLID
  5
D5
330
D0
100
AcDbEntity
  8
1
 62
     3
100
AcDbTrace
 10
81.50508426347504
 20
259.3493625786269
 30
0.0
 11
81.50508426347504
 21
258.4277950955151
 31
0.0
 12
78.00508426347504
 22
258.888578837071
 32
0.0
 13
78.00508426347504
 23
258.888578837071
 33
0.0
  0
SOLID
  5
D6
330
D0
100
AcDbEntity
  8
1
 62
     3
100
AcDbTrace
 10
129.505083965475
 20
258.4277950955151
 30
0.0
 11
129.505083965475
 21
259.3493625786269
 31
0.0
 12
133.005083965475
 22
258.888578837071
 32
0.0
 13
133.005083965475
 23
258.888578837071
 33
0.0
  0
MTEXT
  5
D7
330
D0
100
AcDbEntity
  8
1
 62
     4
100
AcDbMText
 10
100.9409219236654
 20
260.8885718799947
 30
0.0
 40
3.5
 41
0.0
 71
     7
 72
     1
  1
\C4;{\Fgdt;n}\C4;55
  7
CONVERTER_12
 11
0.9999999999970619
 21
2.424068405545306E-6
 31
0.0
 73
     1
 44
0.60024009603842
  0
ENDBLK
  5
D9
330
D0
100
AcDbEntity
  8
0
100
AcDbBlockEnd
  0
BLOCK
  5
E5
330
DC
100
AcDbEntity
  8
0
100
AcDbBlockBegin
  2
*D10
 70
     1
 10
0.0
 20
0.0
 30
0.0
  3
*D10
  1

  0
LINE
  5
DD
330
DC
100
AcDbEntity
  8
1
  6
Continuous
 62
     3
100
AcDbLine
 10
144.063855142558
 20
238.618852450831
 30
0.0
 11
144.063855142558
 21
228.888578568871
 31
0.0
  0
LINE
  5
DE
330
DC
100
AcDbEntity
  8
1
  6
Continuous
 62
     3
100
AcDbLine
 10
144.063855142558
 20
228.888578568871
 30
0.0
 11
144.063855142558
 21
226.788578876571
 31
0.0
  0
LINE
  5
DF
330
DC
100
AcDbEntity
  8
1
  6
Continuous
 62
     3
100
AcDbLine
 10
144.063855142558
 20
226.788578876571
 30
0.0
 11
144.063855142558
 21
219.788578876571
 31
0.0
  0
LINE
  5
E0
330
DC
100
AcDbEntity
  8
1
  6
Continuous
 62
     3
100
AcDbLine
 10
123.1550848654751
 20
228.888578568871
 30
0.0
 11
146.063855142558
 21
228.888578568871
 31
0.0
  0
LINE
  5
E1
330
DC
100
AcDbEntity
  8
1
  6
Continuous
 62
     3
100
AcDbLine
 10
125.2550850234751
 20
226.788578876571
 30
0.0
 11
146.063855142558
 21
226.788578876571
 31
0.0
  0
SOLID
  5
E2
330
DC
100
AcDbEntity
  8
1
 62
     3
100
AcDbTrace
 10
143.6030714010021
 20
232.388578568871
 30
0.0
 11
144.5246388841139
 21
232.388578568871
 31
0.0
 12
144.063855142558
 22
228.888578568871
 32
0.0
 13
144.063855142558
 23
228.888578568871
 33
0.0
  0
SOLID
  5
E3
330
DC
100
AcDbEntity
  8
1
 62
     3
100
AcDbTrace
 10
144.5246388841139
 20
223.288578876571
 30
0.0
 11
143.6030714010021
 21
223.288578876571
 31
0.0
 12
144.063855142558
 22
226.788578876571
 32
0.0
 13
144.063855142558
 23
226.788578876571
 33
0.0
  0
MTEXT
  5
E4
330
DC
100
AcDbEntity
  8
1
 62
     4
100
AcDbMText
 10
142.063855142558
 20
233.281352450831
 30
0.0
 40
3.5
 41
0.0
 71
     7
 72
     1
  1
2.1
  7
CONVERTER_12
 11
0.0
 21
1.0
 31
0.0
 73
     1
 44
0.60024009603842
  0
ENDBLK
  5
E6
330
DC
100
AcDbEntity
  8
0
100
AcDbBlockEnd
  0
BLOCK
  5
F3
330
E9
100
AcDbEntity
  8
0
100
AcDbBlockBegin
  2
*D11
 70
     1
 10
0.0
 20
0.0
 30
0.0
  3
*D11
  1

  0
LINE
  5
EA
330
E9
100
AcDbEntity
  8
1
  6
Continuous
 62
     3
100
AcDbLine
 10
152.063855142558
 20
216.888578738871
 30
0.0
 11
152.063855142558
 21
223.888578738871
 31
0.0
  0
LINE
  5
EB
330
E9
100
AcDbEntity
  8
1
  6
Continuous
 62
     3
100
AcDbLine
 10
152.063855142558
 20
223.888578738871
 30
0.0
 11
152.063855142558
 21
228.888578762571
 31
0.0
  0
LINE
  5
EC
330
E9
100
AcDbEntity
  8
1
  6
Continuous
 62
     3
100
AcDbLine
 10
152.063855142558
 20
228.888578762571
 30
0.0
 11
152.063855142558
 21
235.888578762571
 31
0.0
  0
LINE
  5
ED
330
E9
100
AcDbEntity
  8
1
  6
Continuous
 62
     3
100
AcDbLine
 10
145.641604420677
 20
223.888578738871
 30
0.0
 11
154.063855142558
 21
223.888578738871
 31
0.0
  0
LINE
  5
EE
330
E9
100
AcDbEntity
  8
1
  6
Continuous
 62
     3
100
AcDbLine
 10
133.005083965475
 20
223.888578738871
 30
0.0
 11
142.726414626272
 21
223.888578738871
 31
0.0
  0
LINE
  5
EF
330
E9
100
AcDbEntity
  8
1
  6
Continuous
 62
     3
100
AcDbLine
 10
132.005084114475
 20
228.888578762571
 30
0.0
 11
154.063855142558
 21
228.888578762571
 31
0.0
  0
SOLID
  5
F0
330
E9
100
AcDbEntity
  8
1
 62
     3
100
AcDbTrace
 10
152.5246388841139
 20
220.388578738871
 30
0.0
 11
151.6030714010021
 21
220.388578738871
 31
0.0
 12
152.063855142558
 22
223.888578738871
 32
0.0
 13
152.063855142558
 23
223.888578738871
 33
0.0
  0
SOLID
  5
F1
330
E9
100
AcDbEntity
  8
1
 62
     3
100
AcDbTrace
 10
151.6030714010021
 20
232.388578762571
 30
0.0
 11
152.5246388841139
 21
232.388578762571
 31
0.0
 12
152.063855142558
 22
228.888578762571
 32
0.0
 13
152.063855142558
 23
228.888578762571
 33
0.0
  0
MTEXT
  5
F2
330
E9
100
AcDbEntity
  8
1
 62
     4
100
AcDbMText
 10
150.063855142558
 20
225.18411327305
 30
0.0
 40
3.5
 41
0.0
 71
     7
 72
     1
  1
5
  7
CONVERTER_12
 11
0.0
 21
1.0
 31
0.0
 73
     1
 44
0.60024009603842
  0
ENDBLK
  5
F4
330
E9
100
AcDbEntity
  8
0
100
AcDbBlockEnd
  0
BLOCK
  5
FF
330
F7
100
AcDbEntity
  8
0
100
AcDbBlockBegin
  2
*D12
 70
     1
 10
0.0
 20
0.0
 30
0.0
  3
*D12
  1

  0
LINE
  5
F8
330
F7
100
AcDbEntity
  8
1
  6
Continuous
 62
     3
100
AcDbLine
 10
160.063855142558
 20
223.888578738871
 30
0.0
 11
160.063855142558
 21
241.888578837071
 31
0.0
  0
LINE
  5
F9
330
F7
100
AcDbEntity
  8
1
  6
Continuous
 62
     3
100
AcDbLine
 10
147.274110705543
 20
223.888578738871
 30
0.0
 11
162.063855142558
 21
223.888578738871
 31
0.0
  0
LINE
  5
FA
330
F7
100
AcDbEntity
  8
1
  6
Continuous
 62
     3
100
AcDbLine
 10
129.7550848296751
 20
223.888578738871
 30
0.0
 11
140.66634717156
 21
223.888578738871
 31
0.0
  0
LINE
  5
FB
330
F7
100
AcDbEntity
  8
1
  6
Continuous
 62
     3
100
AcDbLine
 10
133.005083965475
 20
241.888578837071
 30
0.0
 11
162.063855142558
 21
241.888578837071
 31
0.0
  0
SOLID
  5
FC
330
F7
100
AcDbEntity
  8
1
 62
     3
100
AcDbTrace
 10
159.6030714010021
 20
227.388578738871
 30
0.0
 11
160.5246388841139
 21
227.388578738871
 31
0.0
 12
160.063855142558
 22
223.888578738871
 32
0.0
 13
160.063855142558
 23
223.888578738871
 33
0.0
  0
SOLID
  5
FD
330
F7
100
AcDbEntity
  8
1
 62
     3
100
AcDbTrace
 10
160.5246388841139
 20
238.388578837071
 30
0.0
 11
159.6030714010021
 21
238.388578837071
 31
0.0
 12
160.063855142558
 22
241.888578837071
 32
0.0
 13
160.063855142558
 23
241.888578837071
 33
0.0
  0
MTEXT
  5
FE
330
F7
100
AcDbEntity
  8
1
 62
     4
100
AcDbMText
 10
158.063855142558
 20
229.788578762571
 30
0.0
 40
3.5
 41
0.0
 71
     7
 72
     1
  1
18
  7
CONVERTER_12
 11
0.0
 21
1.0
 31
0.0
 73
     1
 44
0.60024009603842
  0
ENDBLK
  5
100
330
F7
100
AcDbEntity
  8
0
100
AcDbBlockEnd
  0
BLOCK
  5
10E
330
103
100
AcDbEntity
  8
0
100
AcDbBlockBegin
  2
*D13
 70
     1
 10
0.0
 20
0.0
 30
0.0
  3
*D13
  1

  0
LINE
  5
104
330
103
100
AcDbEntity
  8
1
  6
Continuous
 62
     3
100
AcDbLine
 10
145.6818305383765
 20
242.7153210533268
 30
0.0
 11
147.0960442575589
 21
244.1295344588905
 31
0.0
  0
LINE
  5
105
330
103
100
AcDbEntity
  8
1
  6
Continuous
 62
     3
100
AcDbLine
 10
109.328339314774
 20
242.7153210533273
 30
0.0
 11
107.9141255955916
 21
244.129534458891
 31
0.0
  0
LINE
  5
106
330
103
100
AcDbEntity
  8
1
  6
Continuous
 62
     3
100
AcDbLine
 10
145.1459255651455
 20
242.1794161989392
 30
0.0
 11
145.6818305383765
 21
242.7153210533268
 31
0.0
  0
LINE
  5
107
330
103
100
AcDbEntity
  8
1
  6
Continuous
 62
     3
100
AcDbLine
 10
142.6908799369986
 20
239.7243711152279
 30
0.0
 11
144.3760828404023
 21
241.4095736449178
 31
0.0
  0
LINE
  5
108
330
103
100
AcDbEntity
  8
1
  6
Continuous
 62
     3
100
AcDbLine
 10
131.8550849876751
 20
228.8885785688711
 30
0.0
 11
137.5342659359085
 21
234.5677582576784
 31
0.0
  0
LINE
  5
109
330
103
100
AcDbEntity
  8
1
  6
Continuous
 62
     3
100
AcDbLine
 10
123.1550848654751
 20
228.8885785688711
 30
0.0
 11
109.328339314774
 21
242.7153210533273
 31
0.0
  0
ARC
  5
10A
330
103
100
AcDbEntity
  8
1
  6
Continuous
 62
     3
100
AcDbCircle
 10
127.505084926575
 20
224.5385794724353
 30
0.0
 40
25.70579731373166
100
AcDbArc
 50
44.99999364698833
 51
135.0000063530101
  0
SOLID
  5
10B
330
103
100
AcDbEntity
  8
1
 62
     3
100
AcDbTrace
 10
142.7414311544153
 20
244.668875024755
 30
0.0
 11
143.3472398072452
 21
245.3633406481557
 31
0.0
 12
145.6818305383765
 22
242.7153210533268
 32
0.0
 13
145.6818305383765
 23
242.7153210533268
 33
0.0
  0
SOLID
  5
10C
330
103
100
AcDbEntity
  8
1
 62
     3
100
AcDbTrace
 10
111.6629300459054
 20
245.3633406481561
 30
0.0
 11
112.2687386987353
 21
244.6688750247554
 31
0.0
 12
109.328339314774
 22
242.7153210533273
 32
0.0
 13
109.328339314774
 23
242.7153210533273
 33
0.0
  0
MTEXT
  5
10D
330
103
100
AcDbEntity
  8
1
 62
     4
100
AcDbMText
 10
123.6527362439539
 20
252.244050311551
 30
0.0
 40
3.5
 41
0.0
 71
     7
 72
     1
  1
90{\Fgdt;~}
  7
CONVERTER_12
 11
0.9999999999970619
 21
2.424068405545306E-6
 31
0.0
 73
     1
 44
0.60024009603842
  0
ENDBLK
  5
10F
330
103
100
AcDbEntity
  8
0
100
AcDbBlockEnd
  0
BLOCK
  5
13C
330
135
100
AcDbEntity
  8
0
100
AcDbBlockBegin
  2
*D14
 70
     1
 10
0.0
 20
0.0
 30
0.0
  3
*D14
  1

  0
LINE
  5
136
330
135
100
AcDbEntity
  8
1
  6
Continuous
 62
     3
100
AcDbLine
 10
143.005084114475
 20
186.1130873166
 30
0.0
 11
143.005084114475
 21
142.1130873166
 31
0.0
  0
LINE
  5
137
330
135
100
AcDbEntity
  8
1
  6
Continuous
 62
     3
100
AcDbLine
 10
132.355084263475
 20
186.1130873166
 30
0.0
 11
145.005084114475
 21
186.1130873166
 31
0.0
  0
LINE
  5
138
330
135
100
AcDbEntity
  8
1
  6
Continuous
 62
     3
100
AcDbLine
 10
132.3550842634748
 20
142.1130873166
 30
0.0
 11
145.005084114475
 21
142.1130873166
 31
0.0
  0
SOLID
  5
139
330
135
100
AcDbEntity
  8
1
 62
     3
100
AcDbTrace
 10
143.4658678560309
 20
182.6130873166
 30
0.0
 11
142.5443003729191
 21
182.6130873166
 31
0.0
 12
143.005084114475
 22
186.1130873166
 32
0.0
 13
143.005084114475
 23
186.1130873166
 33
0.0
  0
SOLID
  5
13A
330
135
100
AcDbEntity
  8
1
 62
     3
100
AcDbTrace
 10
142.5443003729191
 20
145.6130873166
 30
0.0
 11
143.4658678560309
 21
145.6130873166
 31
0.0
 12
143.005084114475
 22
142.1130873166
 32
0.0
 13
143.005084114475
 23
142.1130873166
 33
0.0
  0
MTEXT
  5
13B
330
135
100
AcDbEntity
  8
1
 62
     4
100
AcDbMText
 10
141.005084114475
 20
161.98808739855
 30
0.0
 40
3.5
 41
0.0
 71
     7
 72
     1
  1
44
  7
CONVERTER_12
 11
0.0
 21
1.0
 31
0.0
 73
     1
 44
0.60024009603842
  0
ENDBLK
  5
13D
330
135
100
AcDbEntity
  8
0
100
AcDbBlockEnd
  0
BLOCK
  5
147
330
140
100
AcDbEntity
  8
0
100
AcDbBlockBegin
  2
*D15
 70
     1
 10
0.0
 20
0.0
 30
0.0
  3
*D15
  1

  0
LINE
  5
141
330
140
100
AcDbEntity
  8
1
  6
Continuous
 62
     3
100
AcDbLine
 10
151.005084114475
 20
191.6130871676
 30
0.0
 11
151.005084114475
 21
136.6130873166
 31
0.0
  0
LINE
  5
142
330
140
100
AcDbEntity
  8
1
  6
Continuous
 62
     3
100
AcDbLine
 10
132.005083950575
 20
191.6130871676
 30
0.0
 11
153.005084114475
 21
191.6130871676
 31
0.0
  0
LINE
  5
143
330
140
100
AcDbEntity
  8
1
  6
Continuous
 62
     3
100
AcDbLine
 10
131.005084263475
 20
136.6130873166
 30
0.0
 11
153.005084114475
 21
136.6130873166
 31
0.0
  0
SOLID
  5
144
330
140
100
AcDbEntity
  8
1
 62
     3
100
AcDbTrace
 10
151.4658678560309
 20
188.1130871676
 30
0.0
 11
150.5443003729191
 21
188.1130871676
 31
0.0
 12
151.005084114475
 22
191.6130871676
 32
0.0
 13
151.005084114475
 23
191.6130871676
 33
0.0
  0
SOLID
  5
145
330
140
100
AcDbEntity
  8
1
 62
     3
100
AcDbTrace
 10
150.5443003729191
 20
140.1130873166
 30
0.0
 11
151.4658678560309
 21
140.1130873166
 31
0.0
 12
151.005084114475
 22
136.6130873166
 32
0.0
 13
151.005084114475
 23
136.6130873166
 33
0.0
  0
MTEXT
  5
146
330
140
100
AcDbEntity
  8
1
 62
     4
100
AcDbMText
 10
149.005084114475
 20
161.98808739855
 30
0.0
 40
3.5
 41
0.0
 71
     7
 72
     1
  1
55
  7
CONVERTER_12
 11
0.0
 21
1.0
 31
0.0
 73
     1
 44
0.60024009603842
  0
ENDBLK
  5
148
330
140
100
AcDbEntity
  8
0
100
AcDbBlockEnd
  0
BLOCK
  5
152
330
14B
100
AcDbEntity
  8
0
100
AcDbBlockBegin
  2
*D16
 70
     1
 10
0.0
 20
0.0
 30
0.0
  3
*D16
  1

  0
LINE
  5
14C
330
14B
100
AcDbEntity
  8
1
  6
Continuous
 62
     3
100
AcDbLine
 10
83.5050842634751
 20
126.6130873166
 30
0.0
 11
127.5050842634751
 21
126.6130873166
 31
0.0
  0
LINE
  5
14D
330
14B
100
AcDbEntity
  8
1
  6
Continuous
 62
     3
100
AcDbLine
 10
83.5050842634751
 20
137.2630873166001
 30
0.0
 11
83.5050842634751
 21
124.6130873166
 31
0.0
  0
LINE
  5
14E
330
14B
100
AcDbEntity
  8
1
  6
Continuous
 62
     3
100
AcDbLine
 10
127.5050842634751
 20
137.2630873166002
 30
0.0
 11
127.5050842634751
 21
124.6130873166
 31
0.0
  0
SOLID
  5
14F
330
14B
100
AcDbEntity
  8
1
 62
     3
100
AcDbTrace
 10
87.0050842634751
 20
127.0738710581559
 30
0.0
 11
87.0050842634751
 21
126.1523035750441
 31
0.0
 12
83.5050842634751
 22
126.6130873166
 32
0.0
 13
83.5050842634751
 23
126.6130873166
 33
0.0
  0
SOLID
  5
150
330
14B
100
AcDbEntity
  8
1
 62
     3
100
AcDbTrace
 10
124.0050842634751
 20
126.1523035750441
 30
0.0
 11
124.0050842634751
 21
127.0738710581559
 31
0.0
 12
127.5050842634751
 22
126.6130873166
 32
0.0
 13
127.5050842634751
 23
126.6130873166
 33
0.0
  0
MTEXT
  5
151
330
14B
100
AcDbEntity
  8
1
 62
     4
100
AcDbMText
 10
102.8800842634751
 20
128.6130873166
 30
0.0
 40
3.5
 41
0.0
 71
     7
 72
     1
  1
44
  7
CONVERTER_12
 11
0.9999999999970619
 21
2.424068405545306E-6
 31
0.0
 73
     1
 44
0.60024009603842
  0
ENDBLK
  5
153
330
14B
100
AcDbEntity
  8
0
100
AcDbBlockEnd
  0
BLOCK
  5
15D
330
156
100
AcDbEntity
  8
0
100
AcDbBlockBegin
  2
*D17
 70
     1
 10
0.0
 20
0.0
 30
0.0
  3
*D17
  1

  0
LINE
  5
157
330
156
100
AcDbEntity
  8
1
  6
Continuous
 62
     3
100
AcDbLine
 10
78.005084412475
 20
118.6130873166
 30
0.0
 11
133.0050841144751
 21
118.6130873166
 31
0.0
  0
LINE
  5
158
330
156
100
AcDbEntity
  8
1
  6
Continuous
 62
     3
100
AcDbLine
 10
78.005084412475
 20
138.6130877934
 30
0.0
 11
78.005084412475
 21
116.6130873166
 31
0.0
  0
LINE
  5
159
330
156
100
AcDbEntity
  8
1
  6
Continuous
 62
     3
100
AcDbLine
 10
133.0050841144751
 20
138.6130877934
 30
0.0
 11
133.0050841144751
 21
116.6130873166
 31
0.0
  0
SOLID
  5
15A
330
156
100
AcDbEntity
  8
1
 62
     3
100
AcDbTrace
 10
81.505084412475
 20
119.0738710581559
 30
0.0
 11
81.505084412475
 21
118.1523035750441
 31
0.0
 12
78.005084412475
 22
118.6130873166
 32
0.0
 13
78.005084412475
 23
118.6130873166
 33
0.0
  0
SOLID
  5
15B
330
156
100
AcDbEntity
  8
1
 62
     3
100
AcDbTrace
 10
129.5050841144751
 20
118.1523035750441
 30
0.0
 11
129.5050841144751
 21
119.0738710581559
 31
0.0
 12
133.0050841144751
 22
118.6130873166
 32
0.0
 13
133.0050841144751
 23
118.6130873166
 33
0.0
  0
MTEXT
  5
15C
330
156
100
AcDbEntity
  8
1
 62
     4
100
AcDbMText
 10
103.3952619762141
 20
120.6130873166
 30
0.0
 40
3.5
 41
0.0
 71
     7
 72
     1
  1
55
  7
CONVERTER_12
 11
0.9999999999970619
 21
2.424068405545306E-6
 31
0.0
 73
     1
 44
0.60024009603842
  0
ENDBLK
  5
15E
330
156
100
AcDbEntity
  8
0
100
AcDbBlockEnd
  0
ENDSEC
  0
SECTION
  2
ENTITIES
  0
INSERT
  5
7C
330
1F
100
AcDbEntity
  8
1
100
AcDbBlockReference
  2
Mat_-Nr_Tabelle
 10
154.0
 20
54.0
 30
0.0
  0
INSERT
  5
7D
330
1F
100
AcDbEntity
  8
1
100
AcDbBlockReference
  2
Untersicht
 10
77.93008411447508
 20
213.5594475186025
 30
0.0
  0
INSERT
  5
7E
330
1F
100
AcDbEntity
  8
1
100
AcDbBlockReference
  2
Vorderansicht
 10
75.505084263475
 20
120.0441180731315
 30
0.0
  0
INSERT
  5
7F
330
1F
100
AcDbEntity
  8
1
100
AcDbBlockReference
  2
ISO_Ansicht
 10
30.31386642442333
 20
59.84240148163617
 30
0.0
  0
INSERT
  5
80
330
1F
100
AcDbEntity
  8
0
100
AcDbBlockReference
  2
Rahmen
 10
0.0
 20
0.0
 30
0.0
  0
ENDSEC
  0
SECTION
  2
OBJECTS
  0
DICTIONARY
  5
C
330
0
100
AcDbDictionary
281
     1
  3
ACAD_GROUP
350
D
  3
ACAD_LAYOUT
350
1A
  3
ACAD_MATERIAL
350
3B
  3
ACAD_MLEADERSTYLE
350
3D8
  3
ACAD_MLINESTYLE
350
17
  3
ACAD_PLOTSETTINGS
350
19
  3
ACAD_PLOTSTYLENAME
350
E
  3
ACAD_SCALELIST
350
57
  3
ACAD_VISUALSTYLE
350
2A
  3
AcDbVariableDictionary
350
3D6
  0
DICTIONARY
  5
D
102
{ACAD_REACTORS
330
C
102
}
330
C
100
AcDbDictionary
281
     1
  0
DICTIONARY
  5
1A
102
{ACAD_REACTORS
330
C
102
}
330
C
100
AcDbDictionary
281
     1
  3
Layout1
350
1E
  3
Layout2
350
26
  3
Model
350
22
  0
DICTIONARY
  5
3B
102
{ACAD_REACTORS
330
C
102
}
330
C
100
AcDbDictionary
281
     1
  3
ByBlock
350
3D
  3
ByLayer
350
3C
  3
Global
350
3E
  0
DICTIONARY
  5
3D8
102
{ACAD_REACTORS
330
C
102
}
330
C
100
AcDbDictionary
281
     1
  0
DICTIONARY
  5
17
102
{ACAD_REACTORS
330
C
102
}
330
C
100
AcDbDictionary
281
     1
  3
Standard
350
18
  0
DICTIONARY
  5
19
102
{ACAD_REACTORS
330
C
102
}
330
C
100
AcDbDictionary
281
     1
  0
ACDBDICTIONARYWDFLT
  5
E
102
{ACAD_REACTORS
330
C
102
}
330
C
100
AcDbDictionary
281
     1
  3
Normal
350
F
100
AcDbDictionaryWithDefault
340
F
  0
DICTIONARY
  5
57
102
{ACAD_REACTORS
330
C
102
}
330
C
100
AcDbDictionary
281
     1
  3
A0
350
58
  3
A1
350
59
  3
A2
350
5A
  3
A3
350
5B
  3
A4
350
5C
  3
A5
350
5D
  3
A6
350
5E
  3
A7
350
5F
  3
A8
350
60
  3
A9
350
61
  3
B0
350
62
  3
B1
350
63
  3
B2
350
64
  3
B3
350
65
  3
B4
350
66
  3
B5
350
67
  3
B6
350
68
  3
B7
350
69
  3
B8
350
6A
  3
B9
350
6B
  3
C0
350
6C
  3
C1
350
6D
  3
C2
350
6E
  3
C3
350
6F
  3
C4
350
70
  3
C5
350
71
  3
C6
350
72
  3
C7
350
73
  3
C8
350
74
  3
C9
350
75
  3
D0
350
76
  3
D1
350
77
  3
D2
350
78
  0
DICTIONARY
  5
2A
102
{ACAD_REACTORS
330
C
102
}
330
C
100
AcDbDictionary
281
     1
  3
2dWireframe
350
2F
  3
3D Hidden
350
31
  3
3dWireframe
350
30
  3
Basic
350
32
  3
Brighten
350
36
  3
ColorChange
350
3A
  3
Conceptual
350
34
  3
Dim
350
35
  3
Facepattern
350
39
  3
Flat
350
2B
  3
FlatWithEdges
350
2C
  3
Gouraud
350
2D
  3
GouraudWithEdges
350
2E
  3
Linepattern
350
38
  3
Realistic
350
33
  3
Thicken
350
37
  0
DICTIONARY
  5
3D6
102
{ACAD_REACTORS
330
C
102
}
330
C
100
AcDbDictionary
281
     1
  3
CANNOSCALE
350
3D9
  3
DIMASSOC
350
3DA
  3
HIDETEXT
350
3DB
  0
LAYOUT
  5
1E
102
{ACAD_REACTORS
330
1A
102
}
330
1A
100
AcDbPlotSettings
  1

  2
none_device
  4

  6

 40
0.0
 41
0.0
 42
0.0
 43
0.0
 44
0.0
 45
0.0
 46
0.0
 47
0.0
 48
0.0
 49
0.0
140
0.0
141
0.0
142
1.0
143
1.0
 70
   688
 72
     0
 73
     0
 74
     5
  7

 75
    16
147
1.0
148
0.0
149
0.0
100
AcDbLayout
  1
Layout1
 70
     1
 71
     1
 10
0.0
 20
0.0
 11
12.0
 21
9.0
 12
0.0
 22
0.0
 32
0.0
 14
1.00000000000000E+20
 24
1.00000000000000E+20
 34
1.00000000000000E+20
 15
-1.00000000000000E+20
 25
-1.00000000000000E+20
 35
-1.00000000000000E+20
146
0.0
 13
0.0
 23
0.0
 33
0.0
 16
1.0
 26
0.0
 36
0.0
 17
0.0
 27
1.0
 37
0.0
 76
     0
330
1B
  0
LAYOUT
  5
26
102
{ACAD_REACTORS
330
1A
102
}
330
1A
100
AcDbPlotSettings
  1

  2
none_device
  4

  6

 40
0.0
 41
0.0
 42
0.0
 43
0.0
 44
0.0
 45
0.0
 46
0.0
 47
0.0
 48
0.0
 49
0.0
140
0.0
141
0.0
142
1.0
143
1.0
 70
   688
 72
     0
 73
     0
 74
     5
  7

 75
    16
147
1.0
148
0.0
149
0.0
100
AcDbLayout
  1
Layout2
 70
     1
 71
     2
 10
0.0
 20
0.0
 11
0.0
 21
0.0
 12
0.0
 22
0.0
 32
0.0
 14
0.0
 24
0.0
 34
0.0
 15
0.0
 25
0.0
 35
0.0
146
0.0
 13
0.0
 23
0.0
 33
0.0
 16
1.0
 26
0.0
 36
0.0
 17
0.0
 27
1.0
 37
0.0
 76
     0
330
23
  0
LAYOUT
  5
22
102
{ACAD_REACTORS
330
1A
102
}
330
1A
100
AcDbPlotSettings
  1

  2
none_device
  4

  6

 40
0.0
 41
0.0
 42
0.0
 43
0.0
 44
0.0
 45
0.0
 46
0.0
 47
0.0
 48
0.0
 49
0.0
140
0.0
141
0.0
142
1.0
143
1.0
 70
  1712
 72
     0
 73
     0
 74
     0
  7

 75
     0
147
1.0
148
0.0
149
0.0
100
AcDbLayout
  1
Model
 70
     1
 71
     0
 10
0.0
 20
0.0
 11
12.0
 21
9.0
 12
0.0
 22
0.0
 32
0.0
 14
0.0
 24
0.0
 34
0.0
 15
197.5066684218749
 25
287.0
 35
0.0
146
0.0
 13
0.0
 23
0.0
 33
0.0
 16
1.0
 26
0.0
 36
0.0
 17
0.0
 27
1.0
 37
0.0
 76
     0
330
1F
331
29
  0
MATERIAL
  5
3D
102
{ACAD_REACTORS
330
3B
102
}
102
{ACAD_XDICTIONARY
360
3FE
102
}
330
3B
100
AcDbMaterial
  1
ByBlock
  0
MATERIAL
  5
3C
102
{ACAD_REACTORS
330
3B
102
}
102
{ACAD_XDICTIONARY
360
3FC
102
}
330
3B
100
AcDbMaterial
  1
ByLayer
  0
MATERIAL
  5
3E
102
{ACAD_REACTORS
330
3B
102
}
102
{ACAD_XDICTIONARY
360
400
102
}
330
3B
100
AcDbMaterial
  1
Global
  0
MLINESTYLE
  5
18
102
{ACAD_REACTORS
330
17
102
}
330
17
100
AcDbMlineStyle
  2
Standard
 70
     0
  3

 62
   256
 51
90.0
 52
90.0
 71
     2
 49
0.5
 62
   256
  6
BYLAYER
 49
-0.5
 62
   256
  6
BYLAYER
  0
ACDBPLACEHOLDER
  5
F
102
{ACAD_REACTORS
330
E
102
}
330
E
  0
SCALE
  5
58
102
{ACAD_REACTORS
330
57
102
}
330
57
100
AcDbScale
 70
     0
300
1:1
140
1.0
141
1.0
290
     1
  0
SCALE
  5
59
102
{ACAD_REACTORS
330
57
102
}
330
57
100
AcDbScale
 70
     0
300
1:2
140
1.0
141
2.0
290
     0
  0
SCALE
  5
5A
102
{ACAD_REACTORS
330
57
102
}
330
57
100
AcDbScale
 70
     0
300
1:4
140
1.0
141
4.0
290
     0
  0
SCALE
  5
5B
102
{ACAD_REACTORS
330
57
102
}
330
57
100
AcDbScale
 70
     0
300
1:5
140
1.0
141
5.0
290
     0
  0
SCALE
  5
5C
102
{ACAD_REACTORS
330
57
102
}
330
57
100
AcDbScale
 70
     0
300
1:8
140
1.0
141
8.0
290
     0
  0
SCALE
  5
5D
102
{ACAD_REACTORS
330
57
102
}
330
57
100
AcDbScale
 70
     0
300
1:10
140
1.0
141
10.0
290
     0
  0
SCALE
  5
5E
102
{ACAD_REACTORS
330
57
102
}
330
57
100
AcDbScale
 70
     0
300
1:16
140
1.0
141
16.0
290
     0
  0
SCALE
  5
5F
102
{ACAD_REACTORS
330
57
102
}
330
57
100
AcDbScale
 70
     0
300
1:20
140
1.0
141
20.0
290
     0
  0
SCALE
  5
60
102
{ACAD_REACTORS
330
57
102
}
330
57
100
AcDbScale
 70
     0
300
1:30
140
1.0
141
30.0
290
     0
  0
SCALE
  5
61
102
{ACAD_REACTORS
330
57
102
}
330
57
100
AcDbScale
 70
     0
300
1:40
140
1.0
141
40.0
290
     0
  0
SCALE
  5
62
102
{ACAD_REACTORS
330
57
102
}
330
57
100
AcDbScale
 70
     0
300
1:50
140
1.0
141
50.0
290
     0
  0
SCALE
  5
63
102
{ACAD_REACTORS
330
57
102
}
330
57
100
AcDbScale
 70
     0
300
1:100
140
1.0
141
100.0
290
     0
  0
SCALE
  5
64
102
{ACAD_REACTORS
330
57
102
}
330
57
100
AcDbScale
 70
     0
300
2:1
140
2.0
141
1.0
290
     0
  0
SCALE
  5
65
102
{ACAD_REACTORS
330
57
102
}
330
57
100
AcDbScale
 70
     0
300
4:1
140
4.0
141
1.0
290
     0
  0
SCALE
  5
66
102
{ACAD_REACTORS
330
57
102
}
330
57
100
AcDbScale
 70
     0
300
8:1
140
8.0
141
1.0
290
     0
  0
SCALE
  5
67
102
{ACAD_REACTORS
330
57
102
}
330
57
100
AcDbScale
 70
     0
300
10:1
140
10.0
141
1.0
290
     0
  0
SCALE
  5
68
102
{ACAD_REACTORS
330
57
102
}
330
57
100
AcDbScale
 70
     0
300
100:1
140
100.0
141
1.0
290
     0
  0
SCALE
  5
69
102
{ACAD_REACTORS
330
57
102
}
330
57
100
AcDbScale
 70
     0
300
1/128" = 1'-0"
140
0.0078125
141
12.0
290
     0
  0
SCALE
  5
6A
102
{ACAD_REACTORS
330
57
102
}
330
57
100
AcDbScale
 70
     0
300
1/64" = 1'-0"
140
0.015625
141
12.0
290
     0
  0
SCALE
  5
6B
102
{ACAD_REACTORS
330
57
102
}
330
57
100
AcDbScale
 70
     0
300
1/32" = 1'-0"
140
0.03125
141
12.0
290
     0
  0
SCALE
  5
6C
102
{ACAD_REACTORS
330
57
102
}
330
57
100
AcDbScale
 70
     0
300
1/16" = 1'-0"
140
0.0625
141
12.0
290
     0
  0
SCALE
  5
6D
102
{ACAD_REACTORS
330
57
102
}
330
57
100
AcDbScale
 70
     0
300
3/32" = 1'-0"
140
0.09375
141
12.0
290
     0
  0
SCALE
  5
6E
102
{ACAD_REACTORS
330
57
102
}
330
57
100
AcDbScale
 70
     0
300
1/8" = 1'-0"
140
0.125
141
12.0
290
     0
  0
SCALE
  5
6F
102
{ACAD_REACTORS
330
57
102
}
330
57
100
AcDbScale
 70
     0
300
3/16" = 1'-0"
140
0.1875
141
12.0
290
     0
  0
SCALE
  5
70
102
{ACAD_REACTORS
330
57
102
}
330
57
100
AcDbScale
 70
     0
300
1/4" = 1'-0"
140
0.25
141
12.0
290
     0
  0
SCALE
  5
71
102
{ACAD_REACTORS
330
57
102
}
330
57
100
AcDbScale
 70
     0
300
3/8" = 1'-0"
140
0.375
141
12.0
290
     0
  0
SCALE
  5
72
102
{ACAD_REACTORS
330
57
102
}
330
57
100
AcDbScale
 70
     0
300
1/2" = 1'-0"
140
0.5
141
12.0
290
     0
  0
SCALE
  5
73
102
{ACAD_REACTORS
330
57
102
}
330
57
100
AcDbScale
 70
     0
300
3/4" = 1'-0"
140
0.75
141
12.0
290
     0
  0
SCALE
  5
74
102
{ACAD_REACTORS
330
57
102
}
330
57
100
AcDbScale
 70
     0
300
1" = 1'-0"
140
1.0
141
12.0
290
     0
  0
SCALE
  5
75
102
{ACAD_REACTORS
330
57
102
}
330
57
100
AcDbScale
 70
     0
300
1-1/2" = 1'-0"
140
1.5
141
12.0
290
     0
  0
SCALE
  5
76
102
{ACAD_REACTORS
330
57
102
}
330
57
100
AcDbScale
 70
     0
300
3" = 1'-0"
140
3.0
141
12.0
290
     0
  0
SCALE
  5
77
102
{ACAD_REACTORS
330
57
102
}
330
57
100
AcDbScale
 70
     0
300
6" = 1'-0"
140
6.0
141
12.0
290
     0
  0
SCALE
  5
78
102
{ACAD_REACTORS
330
57
102
}
330
57
100
AcDbScale
 70
     0
300
1'-0" = 1'-0"
140
12.0
141
12.0
290
     0
  0
VISUALSTYLE
  5
2F
102
{ACAD_REACTORS
330
2A
102
}
102
{ACAD_XDICTIONARY
360
3E4
102
}
330
2A
100
AcDbVisualStyle
  2
2dWireframe
 70
     4
 71
     0
 72
     2
 73
     0
 90
        0
 40
-0.6
 41
-30.0
 62
     5
 63
     7
 74
     1
 91
        4
 64
     7
 65
   257
 75
     1
175
     1
 42
1.0
 92
        0
 66
   257
 43
1.0
 76
     1
 77
     6
 78
     2
 67
     7
 79
     5
170
     0
171
     0
290
     0
174
     0
 93
        1
 44
0.0
173
     0
291
     0
 45
0.0
1001
ACAD
1000
AcDbSavedByObjectVersion
1070
     0
  0
VISUALSTYLE
  5
31
102
{ACAD_REACTORS
330
2A
102
}
102
{ACAD_XDICTIONARY
360
3E8
102
}
330
2A
100
AcDbVisualStyle
  2
3D Hidden
 70
     6
 71
     1
 72
     2
 73
     2
 90
        0
 40
-0.6
 41
-30.0
 62
     5
 63
     7
 74
     2
 91
        2
 64
     7
 65
   257
 75
     2
175
     1
 42
40.0
 92
        0
 66
   257
 43
1.0
 76
     1
 77
     6
 78
     2
 67
     7
 79
     3
170
     0
171
     0
290
     0
174
     0
 93
        1
 44
0.0
173
     0
291
     0
 45
0.0
1001
ACAD
1000
AcDbSavedByObjectVersion
1070
     0
  0
VISUALSTYLE
  5
30
102
{ACAD_REACTORS
330
2A
102
}
102
{ACAD_XDICTIONARY
360
3E6
102
}
330
2A
100
AcDbVisualStyle
  2
3dWireframe
 70
     5
 71
     0
 72
     2
 73
     0
 90
        0
 40
-0.6
 41
-30.0
 62
     5
 63
     7
 74
     1
 91
        4
 64
     7
 65
   257
 75
     1
175
     1
 42
1.0
 92
        0
 66
   257
 43
1.0
 76
     1
 77
     6
 78
     2
 67
     7
 79
     5
170
     0
171
     0
290
     0
174
     0
 93
        1
 44
0.0
173
     0
291
     0
 45
0.0
1001
ACAD
1000
AcDbSavedByObjectVersion
1070
     0
  0
VISUALSTYLE
  5
32
102
{ACAD_REACTORS
330
2A
102
}
102
{ACAD_XDICTIONARY
360
3EA
102
}
330
2A
100
AcDbVisualStyle
  2
Basic
 70
     7
 71
     1
 72
     0
 73
     1
 90
        0
 40
-0.6
 41
-30.0
 62
     5
 63
     7
 74
     0
 91
        4
 64
     7
 65
   257
 75
     1
175
     1
 42
1.0
 92
        8
 66
     7
 43
1.0
 76
     1
 77
     6
 78
     2
 67
     7
 79
     5
170
     0
171
     0
290
     0
174
     0
 93
        1
 44
0.0
173
     0
291
     1
 45
0.0
1001
ACAD
1000
AcDbSavedByObjectVersion
1070
     0
  0
VISUALSTYLE
  5
36
102
{ACAD_REACTORS
330
2A
102
}
102
{ACAD_XDICTIONARY
360
3F2
102
}
330
2A
100
AcDbVisualStyle
  2
Brighten
 70
    12
 71
     2
 72
     2
 73
     0
 90
        0
 40
-0.6
 41
-30.0
 62
     5
 63
     7
 74
     1
 91
        4
 64
     7
 65
   257
 75
     1
175
     1
 42
1.0
 92
        8
 66
     7
 43
1.0
 76
     1
 77
     6
 78
     2
 67
     7
 79
     5
170
     0
171
     0
290
     0
174
     0
 93
        1
 44
50.0
173
     0
291
     1
 45
0.0
1001
ACAD
1000
AcDbSavedByObjectVersion
1070
     0
  0
VISUALSTYLE
  5
3A
102
{ACAD_REACTORS
330
2A
102
}
102
{ACAD_XDICTIONARY
360
3FA
102
}
330
2A
100
AcDbVisualStyle
  2
ColorChange
 70
    16
 71
     2
 72
     2
 73
     3
 90
        0
 40
-0.6
 41
-30.0
 62
     5
 63
     8
 74
     1
 91
        4
 64
     7
 65
   257
 75
     1
175
     1
 42
1.0
 92
        8
 66
     8
 43
1.0
 76
     1
 77
     6
 78
     2
 67
     7
 79
     5
170
     0
171
     0
290
     0
174
     0
 93
        1
 44
0.0
173
     0
291
     1
 45
0.0
1001
ACAD
1000
AcDbSavedByObjectVersion
1070
     0
  0
VISUALSTYLE
  5
34
102
{ACAD_REACTORS
330
2A
102
}
102
{ACAD_XDICTIONARY
360
3EE
102
}
330
2A
100
AcDbVisualStyle
  2
Conceptual
 70
     9
 71
     3
 72
     2
 73
     0
 90
        0
 40
-0.6
 41
-30.0
 62
     5
 63
     7
 74
     2
 91
        2
 64
     7
 65
   257
 75
     1
175
     1
 42
40.0
 92
        8
 66
     7
 43
1.0
 76
     1
 77
     6
 78
     2
 67
     7
 79
     3
170
     0
171
     0
290
     0
174
     0
 93
        1
 44
0.0
173
     0
291
     0
 45
0.0
1001
ACAD
1000
AcDbSavedByObjectVersion
1070
     0
  0
VISUALSTYLE
  5
35
102
{ACAD_REACTORS
330
2A
102
}
102
{ACAD_XDICTIONARY
360
3F0
102
}
330
2A
100
AcDbVisualStyle
  2
Dim
 70
    11
 71
     2
 72
     2
 73
     0
 90
        0
 40
-0.6
 41
-30.0
 62
     5
 63
     7
 74
     1
 91
        4
 64
     7
 65
   257
 75
     1
175
     1
 42
1.0
 92
        8
 66
     7
 43
1.0
 76
     1
 77
     6
 78
     2
 67
     7
 79
     5
170
     0
171
     0
290
     0
174
     0
 93
        1
 44
-50.0
173
     0
291
     1
 45
0.0
1001
ACAD
1000
AcDbSavedByObjectVersion
1070
     0
  0
VISUALSTYLE
  5
39
102
{ACAD_REACTORS
330
2A
102
}
102
{ACAD_XDICTIONARY
360
3F8
102
}
330
2A
100
AcDbVisualStyle
  2
Facepattern
 70
    15
 71
     2
 72
     2
 73
     0
 90
        0
 40
-0.6
 41
-30.0
 62
     5
 63
     7
 74
     1
 91
        4
 64
     7
 65
   257
 75
     1
175
     1
 42
1.0
 92
        8
 66
     7
 43
1.0
 76
     1
 77
     6
 78
     2
 67
     7
 79
     5
170
     0
171
     0
290
     0
174
     0
 93
        1
 44
0.0
173
     0
291
     1
 45
0.0
1001
ACAD
1000
AcDbSavedByObjectVersion
1070
     0
  0
VISUALSTYLE
  5
2B
102
{ACAD_REACTORS
330
2A
102
}
102
{ACAD_XDICTIONARY
360
3DC
102
}
330
2A
100
AcDbVisualStyle
  2
Flat
 70
     0
 71
     2
 72
     1
 73
     1
 90
        2
 40
-0.6
 41
30.0
 62
     5
 63
     7
 74
     0
 91
        4
 64
     7
 65
   257
 75
     1
175
     1
 42
1.0
 92
        8
 66
     7
 43
1.0
 76
     1
 77
     6
 78
     2
 67
     7
 79
     5
170
     0
171
     0
290
     0
174
     0
 93
       13
 44
0.0
173
     0
291
     1
 45
0.0
1001
ACAD
1000
AcDbSavedByObjectVersion
1070
     0
  0
VISUALSTYLE
  5
2C
102
{ACAD_REACTORS
330
2A
102
}
102
{ACAD_XDICTIONARY
360
3DE
102
}
330
2A
100
AcDbVisualStyle
  2
FlatWithEdges
 70
     1
 71
     2
 72
     1
 73
     1
 90
        2
 40
-0.6
 41
30.0
 62
     5
 63
     7
 74
     1
 91
        4
 64
     7
 65
   257
 75
     1
175
     1
 42
1.0
 92
        0
 66
   257
 43
1.0
 76
     1
 77
     6
 78
     2
 67
     7
 79
     5
170
     0
171
     0
290
     0
174
     0
 93
       13
 44
0.0
173
     0
291
     1
 45
0.0
1001
ACAD
1000
AcDbSavedByObjectVersion
1070
     0
  0
VISUALSTYLE
  5
2D
102
{ACAD_REACTORS
330
2A
102
}
102
{ACAD_XDICTIONARY
360
3E0
102
}
330
2A
100
AcDbVisualStyle
  2
Gouraud
 70
     2
 71
     2
 72
     2
 73
     1
 90
        2
 40
-0.6
 41
30.0
 62
     5
 63
     7
 74
     0
 91
        4
 64
     7
 65
   257
 75
     1
175
     1
 42
1.0
 92
        0
 66
     7
 43
1.0
 76
     1
 77
     6
 78
     2
 67
     7
 79
     5
170
     0
171
     0
290
     0
174
     0
 93
       13
 44
0.0
173
     0
291
     1
 45
0.0
1001
ACAD
1000
AcDbSavedByObjectVersion
1070
     0
  0
VISUALSTYLE
  5
2E
102
{ACAD_REACTORS
330
2A
102
}
102
{ACAD_XDICTIONARY
360
3E2
102
}
330
2A
100
AcDbVisualStyle
  2
GouraudWithEdges
 70
     3
 71
     2
 72
     2
 73
     1
 90
        2
 40
-0.6
 41
30.0
 62
     5
 63
     7
 74
     1
 91
        4
 64
     7
 65
   257
 75
     1
175
     1
 42
1.0
 92
        0
 66
   257
 43
1.0
 76
     1
 77
     6
 78
     2
 67
     7
 79
     5
170
     0
171
     0
290
     0
174
     0
 93
       13
 44
0.0
173
     0
291
     1
 45
0.0
1001
ACAD
1000
AcDbSavedByObjectVersion
1070
     0
  0
VISUALSTYLE
  5
38
102
{ACAD_REACTORS
330
2A
102
}
102
{ACAD_XDICTIONARY
360
3F6
102
}
330
2A
100
AcDbVisualStyle
  2
Linepattern
 70
    14
 71
     2
 72
     2
 73
     0
 90
        0
 40
-0.6
 41
-30.0
 62
     5
 63
     7
 74
     1
 91
        4
 64
     7
 65
   257
 75
     7
175
     7
 42
1.0
 92
        8
 66
     7
 43
1.0
 76
     1
 77
     6
 78
     2
 67
     7
 79
     5
170
     0
171
     0
290
     0
174
     0
 93
        1
 44
0.0
173
     0
291
     1
 45
0.0
1001
ACAD
1000
AcDbSavedByObjectVersion
1070
     0
  0
VISUALSTYLE
  5
33
102
{ACAD_REACTORS
330
2A
102
}
102
{ACAD_XDICTIONARY
360
3EC
102
}
330
2A
100
AcDbVisualStyle
  2
Realistic
 70
     8
 71
     2
 72
     2
 73
     0
 90
        0
 40
-0.6
 41
-30.0
 62
     5
 63
     7
 74
     1
 91
        0
 64
     7
 65
   257
 75
     1
175
     1
 42
1.0
 92
        8
 66
     8
 43
1.0
 76
     1
 77
     6
 78
     2
 67
     7
 79
     5
170
     0
171
     0
290
     0
174
     0
 93
       13
 44
0.0
173
     0
291
     0
 45
0.0
1001
ACAD
1000
AcDbSavedByObjectVersion
1070
     0
  0
VISUALSTYLE
  5
37
102
{ACAD_REACTORS
330
2A
102
}
102
{ACAD_XDICTIONARY
360
3F4
102
}
330
2A
100
AcDbVisualStyle
  2
Thicken
 70
    13
 71
     2
 72
     2
 73
     0
 90
        0
 40
-0.6
 41
-30.0
 62
     5
 63
     7
 74
     1
 91
        4
 64
     7
 65
   257
 75
     1
175
     1
 42
1.0
 92
       12
 66
     7
 43
1.0
 76
     1
 77
     6
 78
     2
 67
     7
 79
     5
170
     0
171
     0
290
     0
174
     0
 93
        1
 44
0.0
173
     0
291
     1
 45
0.0
1001
ACAD
1000
AcDbSavedByObjectVersion
1070
     0
  0
DICTIONARYVAR
  5
3D9
102
{ACAD_REACTORS
330
3D6
102
}
330
3D6
100
DictionaryVariables
280
     0
  1
1:1
  0
DICTIONARYVAR
  5
3DA
102
{ACAD_REACTORS
330
3D6
102
}
330
3D6
100
DictionaryVariables
280
     0
  1
2
  0
DICTIONARYVAR
  5
3DB
102
{ACAD_REACTORS
330
3D6
102
}
330
3D6
100
DictionaryVariables
280
     0
  1
1
  0
DICTIONARY
  5
3FE
330
3D
100
AcDbDictionary
280
     1
281
     1
  3
ACAD_XREC_ROUNDTRIP
360
3FF
  0
DICTIONARY
  5
3FC
330
3C
100
AcDbDictionary
280
     1
281
     1
  3
ACAD_XREC_ROUNDTRIP
360
3FD
  0
DICTIONARY
  5
400
330
3E
100
AcDbDictionary
280
     1
281
     1
  3
ACAD_XREC_ROUNDTRIP
360
401
  0
DICTIONARY
  5
3E4
330
2F
100
AcDbDictionary
280
     1
281
     1
  3
ACAD_XREC_ROUNDTRIP
360
3E5
  0
DICTIONARY
  5
3E8
330
31
100
AcDbDictionary
280
     1
281
     1
  3
ACAD_XREC_ROUNDTRIP
360
3E9
  0
DICTIONARY
  5
3E6
330
30
100
AcDbDictionary
280
     1
281
     1
  3
ACAD_XREC_ROUNDTRIP
360
3E7
  0
DICTIONARY
  5
3EA
330
32
100
AcDbDictionary
280
     1
281
     1
  3
ACAD_XREC_ROUNDTRIP
360
3EB
  0
DICTIONARY
  5
3F2
330
36
100
AcDbDictionary
280
     1
281
     1
  3
ACAD_XREC_ROUNDTRIP
360
3F3
  0
DICTIONARY
  5
3FA
330
3A
100
AcDbDictionary
280
     1
281
     1
  3
ACAD_XREC_ROUNDTRIP
360
3FB
  0
DICTIONARY
  5
3EE
330
34
100
AcDbDictionary
280
     1
281
     1
  3
ACAD_XREC_ROUNDTRIP
360
3EF
  0
DICTIONARY
  5
3F0
330
35
100
AcDbDictionary
280
     1
281
     1
  3
ACAD_XREC_ROUNDTRIP
360
3F1
  0
DICTIONARY
  5
3F8
330
39
100
AcDbDictionary
280
     1
281
     1
  3
ACAD_XREC_ROUNDTRIP
360
3F9
  0
DICTIONARY
  5
3DC
330
2B
100
AcDbDictionary
280
     1
281
     1
  3
ACAD_XREC_ROUNDTRIP
360
3DD
  0
DICTIONARY
  5
3DE
330
2C
100
AcDbDictionary
280
     1
281
     1
  3
ACAD_XREC_ROUNDTRIP
360
3DF
  0
DICTIONARY
  5
3E0
330
2D
100
AcDbDictionary
280
     1
281
     1
  3
ACAD_XREC_ROUNDTRIP
360
3E1
  0
DICTIONARY
  5
3E2
330
2E
100
AcDbDictionary
280
     1
281
     1
  3
ACAD_XREC_ROUNDTRIP
360
3E3
  0
DICTIONARY
  5
3F6
330
38
100
AcDbDictionary
280
     1
281
     1
  3
ACAD_XREC_ROUNDTRIP
360
3F7
  0
DICTIONARY
  5
3EC
330
33
100
AcDbDictionary
280
     1
281
     1
  3
ACAD_XREC_ROUNDTRIP
360
3ED
  0
DICTIONARY
  5
3F4
330
37
100
AcDbDictionary
280
     1
281
     1
  3
ACAD_XREC_ROUNDTRIP
360
3F5
  0
XRECORD
  5
3FF
102
{ACAD_REACTORS
330
3FE
102
}
330
3FE
100
AcDbXrecord
280
     1
102
MATERIAL
148
0.0
149
0.0
149
0.0
 93
        0
 94
      127
282
     0
 72
     1
 77
     1
171
     1
175
     1
179
     1
273
     0
  0
XRECORD
  5
3FD
102
{ACAD_REACTORS
330
3FC
102
}
330
3FC
100
AcDbXrecord
280
     1
102
MATERIAL
148
0.0
149
0.0
149
0.0
 93
        0
 94
      127
282
     0
 72
     1
 77
     1
171
     1
175
     1
179
     1
273
     0
  0
XRECORD
  5
401
102
{ACAD_REACTORS
330
400
102
}
330
400
100
AcDbXrecord
280
     1
102
MATERIAL
148
0.0
149
0.0
149
0.0
 93
        0
 94
      127
282
     0
 72
     1
 77
     1
171
     1
175
     1
179
     1
273
     0
  0
XRECORD
  5
3E5
102
{ACAD_REACTORS
330
3E4
102
}
330
3E4
100
AcDbXrecord
280
     1
102
RTVSPropertyOp0
 70
     1
102
RTVSPropertyOp1
 70
     1
102
RTVSPropertyOp2
 70
     1
102
RTVSPropertyOp3
 70
     1
102
RTVSPropertyOp4
 70
     1
102
RTVSPropertyOp5
 70
     1
102
RTVSPropertyOp6
 70
     1
102
RTVSPropertyOp7
 70
     1
102
RTVSPropertyOp8
 70
     1
102
RTVSPropertyOp9
 70
     1
102
RTVSPropertyOp10
 70
     1
102
RTVSPropertyOp11
 70
     1
102
RTVSPropertyOp12
 70
     1
102
RTVSPropertyOp13
 70
     1
102
RTVSPropertyOp14
 70
     1
102
RTVSPropertyOp15
 70
     1
102
RTVSPropertyOp16
 70
     1
102
RTVSPropertyOp17
 70
     1
102
RTVSPropertyOp18
 70
     1
102
RTVSPropertyOp19
 70
     1
102
RTVSPropertyOp20
 70
     1
102
RTVSPropertyOp21
 70
     1
102
RTVSPropertyOp22
 70
     1
102
RTVSPropertyOp23
 70
     1
102
RTVSPropertyOp24
 70
     1
102
RTVSPropertyOp25
 70
     1
102
RTVSPropertyOp26
 70
     1
102
RTVSPropertyOp27
 70
     1
  0
XRECORD
  5
3E9
102
{ACAD_REACTORS
330
3E8
102
}
330
3E8
100
AcDbXrecord
280
     1
102
RTVSPropertyOp0
 70
     1
102
RTVSPropertyOp1
 70
     1
102
RTVSPropertyOp2
 70
     1
102
RTVSPropertyOp3
 70
     1
102
RTVSPropertyOp4
 70
     1
102
RTVSPropertyOp5
 70
     1
102
RTVSPropertyOp6
 70
     1
102
RTVSPropertyOp7
 70
     1
102
RTVSPropertyOp8
 70
     1
102
RTVSPropertyOp9
 70
     1
102
RTVSPropertyOp10
 70
     1
102
RTVSPropertyOp11
 70
     1
102
RTVSPropertyOp12
 70
     1
102
RTVSPropertyOp13
 70
     1
102
RTVSPropertyOp14
 70
     1
102
RTVSPropertyOp15
 70
     1
102
RTVSPropertyOp16
 70
     1
102
RTVSPropertyOp17
 70
     1
102
RTVSPropertyOp18
 70
     1
102
RTVSPropertyOp19
 70
     1
102
RTVSPropertyOp20
 70
     1
102
RTVSPropertyOp21
 70
     1
102
RTVSPropertyOp22
 70
     1
102
RTVSPropertyOp23
 70
     1
102
RTVSPropertyOp24
 70
     1
102
RTVSPropertyOp25
 70
     1
102
RTVSPropertyOp26
 70
     1
102
RTVSPropertyOp27
 70
     1
  0
XRECORD
  5
3E7
102
{ACAD_REACTORS
330
3E6
102
}
330
3E6
100
AcDbXrecord
280
     1
102
RTVSPropertyOp0
 70
     1
102
RTVSPropertyOp1
 70
     1
102
RTVSPropertyOp2
 70
     1
102
RTVSPropertyOp3
 70
     1
102
RTVSPropertyOp4
 70
     1
102
RTVSPropertyOp5
 70
     1
102
RTVSPropertyOp6
 70
     1
102
RTVSPropertyOp7
 70
     1
102
RTVSPropertyOp8
 70
     1
102
RTVSPropertyOp9
 70
     1
102
RTVSPropertyOp10
 70
     1
102
RTVSPropertyOp11
 70
     1
102
RTVSPropertyOp12
 70
     1
102
RTVSPropertyOp13
 70
     1
102
RTVSPropertyOp14
 70
     1
102
RTVSPropertyOp15
 70
     1
102
RTVSPropertyOp16
 70
     1
102
RTVSPropertyOp17
 70
     1
102
RTVSPropertyOp18
 70
     1
102
RTVSPropertyOp19
 70
     1
102
RTVSPropertyOp20
 70
     1
102
RTVSPropertyOp21
 70
     1
102
RTVSPropertyOp22
 70
     1
102
RTVSPropertyOp23
 70
     1
102
RTVSPropertyOp24
 70
     1
102
RTVSPropertyOp25
 70
     1
102
RTVSPropertyOp26
 70
     1
102
RTVSPropertyOp27
 70
     1
  0
XRECORD
  5
3EB
102
{ACAD_REACTORS
330
3EA
102
}
330
3EA
100
AcDbXrecord
280
     1
102
RTVSPropertyOp0
 70
     1
102
RTVSPropertyOp1
 70
     1
102
RTVSPropertyOp2
 70
     1
102
RTVSPropertyOp3
 70
     1
102
RTVSPropertyOp4
 70
     1
102
RTVSPropertyOp5
 70
     1
102
RTVSPropertyOp6
 70
     1
102
RTVSPropertyOp7
 70
     1
102
RTVSPropertyOp8
 70
     1
102
RTVSPropertyOp9
 70
     1
102
RTVSPropertyOp10
 70
     1
102
RTVSPropertyOp11
 70
     1
102
RTVSPropertyOp12
 70
     1
102
RTVSPropertyOp13
 70
     1
102
RTVSPropertyOp14
 70
     1
102
RTVSPropertyOp15
 70
     1
102
RTVSPropertyOp16
 70
     1
102
RTVSPropertyOp17
 70
     1
102
RTVSPropertyOp18
 70
     1
102
RTVSPropertyOp19
 70
     1
102
RTVSPropertyOp20
 70
     1
102
RTVSPropertyOp21
 70
     1
102
RTVSPropertyOp22
 70
     1
102
RTVSPropertyOp23
 70
     1
102
RTVSPropertyOp24
 70
     1
102
RTVSPropertyOp25
 70
     1
102
RTVSPropertyOp26
 70
     1
102
RTVSPropertyOp27
 70
     1
  0
XRECORD
  5
3F3
102
{ACAD_REACTORS
330
3F2
102
}
330
3F2
100
AcDbXrecord
280
     1
102
RTVSPropertyOp0
 70
     1
102
RTVSPropertyOp1
 70
     1
102
RTVSPropertyOp2
 70
     1
102
RTVSPropertyOp3
 70
     1
102
RTVSPropertyOp4
 70
     1
102
RTVSPropertyOp5
 70
     1
102
RTVSPropertyOp6
 70
     1
102
RTVSPropertyOp7
 70
     1
102
RTVSPropertyOp8
 70
     1
102
RTVSPropertyOp9
 70
     1
102
RTVSPropertyOp10
 70
     1
102
RTVSPropertyOp11
 70
     1
102
RTVSPropertyOp12
 70
     1
102
RTVSPropertyOp13
 70
     1
102
RTVSPropertyOp14
 70
     1
102
RTVSPropertyOp15
 70
     1
102
RTVSPropertyOp16
 70
     1
102
RTVSPropertyOp17
 70
     1
102
RTVSPropertyOp18
 70
     1
102
RTVSPropertyOp19
 70
     1
102
RTVSPropertyOp20
 70
     1
102
RTVSPropertyOp21
 70
     1
102
RTVSPropertyOp22
 70
     1
102
RTVSPropertyOp23
 70
     1
102
RTVSPropertyOp24
 70
     1
102
RTVSPropertyOp25
 70
     1
102
RTVSPropertyOp26
 70
     1
102
RTVSPropertyOp27
 70
     1
  0
XRECORD
  5
3FB
102
{ACAD_REACTORS
330
3FA
102
}
330
3FA
100
AcDbXrecord
280
     1
102
RTVSPropertyOp0
 70
     1
102
RTVSPropertyOp1
 70
     1
102
RTVSPropertyOp2
 70
     1
102
RTVSPropertyOp3
 70
     1
102
RTVSPropertyOp4
 70
     1
102
RTVSPropertyOp5
 70
     1
102
RTVSPropertyOp6
 70
     1
102
RTVSPropertyOp7
 70
     1
102
RTVSPropertyOp8
 70
     1
102
RTVSPropertyOp9
 70
     1
102
RTVSPropertyOp10
 70
     1
102
RTVSPropertyOp11
 70
     1
102
RTVSPropertyOp12
 70
     1
102
RTVSPropertyOp13
 70
     1
102
RTVSPropertyOp14
 70
     1
102
RTVSPropertyOp15
 70
     1
102
RTVSPropertyOp16
 70
     1
102
RTVSPropertyOp17
 70
     1
102
RTVSPropertyOp18
 70
     1
102
RTVSPropertyOp19
 70
     1
102
RTVSPropertyOp20
 70
     1
102
RTVSPropertyOp21
 70
     1
102
RTVSPropertyOp22
 70
     1
102
RTVSPropertyOp23
 70
     1
102
RTVSPropertyOp24
 70
     1
102
RTVSPropertyOp25
 70
     1
102
RTVSPropertyOp26
 70
     1
102
RTVSPropertyOp27
 70
     1
  0
XRECORD
  5
3EF
102
{ACAD_REACTORS
330
3EE
102
}
330
3EE
100
AcDbXrecord
280
     1
102
RTVSPropertyOp0
 70
     1
102
RTVSPropertyOp1
 70
     1
102
RTVSPropertyOp2
 70
     1
102
RTVSPropertyOp3
 70
     1
102
RTVSPropertyOp4
 70
     1
102
RTVSPropertyOp5
 70
     1
102
RTVSPropertyOp6
 70
     1
102
RTVSPropertyOp7
 70
     1
102
RTVSPropertyOp8
 70
     1
102
RTVSPropertyOp9
 70
     1
102
RTVSPropertyOp10
 70
     1
102
RTVSPropertyOp11
 70
     1
102
RTVSPropertyOp12
 70
     1
102
RTVSPropertyOp13
 70
     1
102
RTVSPropertyOp14
 70
     1
102
RTVSPropertyOp15
 70
     1
102
RTVSPropertyOp16
 70
     1
102
RTVSPropertyOp17
 70
     1
102
RTVSPropertyOp18
 70
     1
102
RTVSPropertyOp19
 70
     1
102
RTVSPropertyOp20
 70
     1
102
RTVSPropertyOp21
 70
     1
102
RTVSPropertyOp22
 70
     1
102
RTVSPropertyOp23
 70
     1
102
RTVSPropertyOp24
 70
     1
102
RTVSPropertyOp25
 70
     1
102
RTVSPropertyOp26
 70
     1
102
RTVSPropertyOp27
 70
     1
  0
XRECORD
  5
3F1
102
{ACAD_REACTORS
330
3F0
102
}
330
3F0
100
AcDbXrecord
280
     1
102
RTVSPropertyOp0
 70
     1
102
RTVSPropertyOp1
 70
     1
102
RTVSPropertyOp2
 70
     1
102
RTVSPropertyOp3
 70
     1
102
RTVSPropertyOp4
 70
     1
102
RTVSPropertyOp5
 70
     1
102
RTVSPropertyOp6
 70
     1
102
RTVSPropertyOp7
 70
     1
102
RTVSPropertyOp8
 70
     1
102
RTVSPropertyOp9
 70
     1
102
RTVSPropertyOp10
 70
     1
102
RTVSPropertyOp11
 70
     1
102
RTVSPropertyOp12
 70
     1
102
RTVSPropertyOp13
 70
     1
102
RTVSPropertyOp14
 70
     1
102
RTVSPropertyOp15
 70
     1
102
RTVSPropertyOp16
 70
     1
102
RTVSPropertyOp17
 70
     1
102
RTVSPropertyOp18
 70
     1
102
RTVSPropertyOp19
 70
     1
102
RTVSPropertyOp20
 70
     1
102
RTVSPropertyOp21
 70
     1
102
RTVSPropertyOp22
 70
     1
102
RTVSPropertyOp23
 70
     1
102
RTVSPropertyOp24
 70
     1
102
RTVSPropertyOp25
 70
     1
102
RTVSPropertyOp26
 70
     1
102
RTVSPropertyOp27
 70
     1
  0
XRECORD
  5
3F9
102
{ACAD_REACTORS
330
3F8
102
}
330
3F8
100
AcDbXrecord
280
     1
102
RTVSPropertyOp0
 70
     1
102
RTVSPropertyOp1
 70
     1
102
RTVSPropertyOp2
 70
     1
102
RTVSPropertyOp3
 70
     1
102
RTVSPropertyOp4
 70
     1
102
RTVSPropertyOp5
 70
     1
102
RTVSPropertyOp6
 70
     1
102
RTVSPropertyOp7
 70
     1
102
RTVSPropertyOp8
 70
     1
102
RTVSPropertyOp9
 70
     1
102
RTVSPropertyOp10
 70
     1
102
RTVSPropertyOp11
 70
     1
102
RTVSPropertyOp12
 70
     1
102
RTVSPropertyOp13
 70
     1
102
RTVSPropertyOp14
 70
     1
102
RTVSPropertyOp15
 70
     1
102
RTVSPropertyOp16
 70
     1
102
RTVSPropertyOp17
 70
     1
102
RTVSPropertyOp18
 70
     1
102
RTVSPropertyOp19
 70
     1
102
RTVSPropertyOp20
 70
     1
102
RTVSPropertyOp21
 70
     1
102
RTVSPropertyOp22
 70
     1
102
RTVSPropertyOp23
 70
     1
102
RTVSPropertyOp24
 70
     1
102
RTVSPropertyOp25
 70
     1
102
RTVSPropertyOp26
 70
     1
102
RTVSPropertyOp27
 70
     1
  0
XRECORD
  5
3DD
102
{ACAD_REACTORS
330
3DC
102
}
330
3DC
100
AcDbXrecord
280
     1
102
RTVSPropertyOp0
 70
     1
102
RTVSPropertyOp1
 70
     1
102
RTVSPropertyOp2
 70
     1
102
RTVSPropertyOp3
 70
     1
102
RTVSPropertyOp4
 70
     1
102
RTVSPropertyOp5
 70
     1
102
RTVSPropertyOp6
 70
     1
102
RTVSPropertyOp7
 70
     1
102
RTVSPropertyOp8
 70
     1
102
RTVSPropertyOp9
 70
     1
102
RTVSPropertyOp10
 70
     1
102
RTVSPropertyOp11
 70
     1
102
RTVSPropertyOp12
 70
     1
102
RTVSPropertyOp13
 70
     1
102
RTVSPropertyOp14
 70
     1
102
RTVSPropertyOp15
 70
     1
102
RTVSPropertyOp16
 70
     1
102
RTVSPropertyOp17
 70
     1
102
RTVSPropertyOp18
 70
     1
102
RTVSPropertyOp19
 70
     1
102
RTVSPropertyOp20
 70
     1
102
RTVSPropertyOp21
 70
     1
102
RTVSPropertyOp22
 70
     1
102
RTVSPropertyOp23
 70
     1
102
RTVSPropertyOp24
 70
     1
102
RTVSPropertyOp25
 70
     1
102
RTVSPropertyOp26
 70
     1
102
RTVSPropertyOp27
 70
     1
  0
XRECORD
  5
3DF
102
{ACAD_REACTORS
330
3DE
102
}
330
3DE
100
AcDbXrecord
280
     1
102
RTVSPropertyOp0
 70
     1
102
RTVSPropertyOp1
 70
     1
102
RTVSPropertyOp2
 70
     1
102
RTVSPropertyOp3
 70
     1
102
RTVSPropertyOp4
 70
     1
102
RTVSPropertyOp5
 70
     1
102
RTVSPropertyOp6
 70
     1
102
RTVSPropertyOp7
 70
     1
102
RTVSPropertyOp8
 70
     1
102
RTVSPropertyOp9
 70
     1
102
RTVSPropertyOp10
 70
     1
102
RTVSPropertyOp11
 70
     1
102
RTVSPropertyOp12
 70
     1
102
RTVSPropertyOp13
 70
     1
102
RTVSPropertyOp14
 70
     1
102
RTVSPropertyOp15
 70
     1
102
RTVSPropertyOp16
 70
     1
102
RTVSPropertyOp17
 70
     1
102
RTVSPropertyOp18
 70
     1
102
RTVSPropertyOp19
 70
     1
102
RTVSPropertyOp20
 70
     1
102
RTVSPropertyOp21
 70
     1
102
RTVSPropertyOp22
 70
     1
102
RTVSPropertyOp23
 70
     1
102
RTVSPropertyOp24
 70
     1
102
RTVSPropertyOp25
 70
     1
102
RTVSPropertyOp26
 70
     1
102
RTVSPropertyOp27
 70
     1
  0
XRECORD
  5
3E1
102
{ACAD_REACTORS
330
3E0
102
}
330
3E0
100
AcDbXrecord
280
     1
102
RTVSPropertyOp0
 70
     1
102
RTVSPropertyOp1
 70
     1
102
RTVSPropertyOp2
 70
     1
102
RTVSPropertyOp3
 70
     1
102
RTVSPropertyOp4
 70
     1
102
RTVSPropertyOp5
 70
     1
102
RTVSPropertyOp6
 70
     1
102
RTVSPropertyOp7
 70
     1
102
RTVSPropertyOp8
 70
     1
102
RTVSPropertyOp9
 70
     1
102
RTVSPropertyOp10
 70
     1
102
RTVSPropertyOp11
 70
     1
102
RTVSPropertyOp12
 70
     1
102
RTVSPropertyOp13
 70
     1
102
RTVSPropertyOp14
 70
     1
102
RTVSPropertyOp15
 70
     1
102
RTVSPropertyOp16
 70
     1
102
RTVSPropertyOp17
 70
     1
102
RTVSPropertyOp18
 70
     1
102
RTVSPropertyOp19
 70
     1
102
RTVSPropertyOp20
 70
     1
102
RTVSPropertyOp21
 70
     1
102
RTVSPropertyOp22
 70
     1
102
RTVSPropertyOp23
 70
     1
102
RTVSPropertyOp24
 70
     1
102
RTVSPropertyOp25
 70
     1
102
RTVSPropertyOp26
 70
     1
102
RTVSPropertyOp27
 70
     1
  0
XRECORD
  5
3E3
102
{ACAD_REACTORS
330
3E2
102
}
330
3E2
100
AcDbXrecord
280
     1
102
RTVSPropertyOp0
 70
     1
102
RTVSPropertyOp1
 70
     1
102
RTVSPropertyOp2
 70
     1
102
RTVSPropertyOp3
 70
     1
102
RTVSPropertyOp4
 70
     1
102
RTVSPropertyOp5
 70
     1
102
RTVSPropertyOp6
 70
     1
102
RTVSPropertyOp7
 70
     1
102
RTVSPropertyOp8
 70
     1
102
RTVSPropertyOp9
 70
     1
102
RTVSPropertyOp10
 70
     1
102
RTVSPropertyOp11
 70
     1
102
RTVSPropertyOp12
 70
     1
102
RTVSPropertyOp13
 70
     1
102
RTVSPropertyOp14
 70
     1
102
RTVSPropertyOp15
 70
     1
102
RTVSPropertyOp16
 70
     1
102
RTVSPropertyOp17
 70
     1
102
RTVSPropertyOp18
 70
     1
102
RTVSPropertyOp19
 70
     1
102
RTVSPropertyOp20
 70
     1
102
RTVSPropertyOp21
 70
     1
102
RTVSPropertyOp22
 70
     1
102
RTVSPropertyOp23
 70
     1
102
RTVSPropertyOp24
 70
     1
102
RTVSPropertyOp25
 70
     1
102
RTVSPropertyOp26
 70
     1
102
RTVSPropertyOp27
 70
     1
  0
XRECORD
  5
3F7
102
{ACAD_REACTORS
330
3F6
102
}
330
3F6
100
AcDbXrecord
280
     1
102
RTVSPropertyOp0
 70
     1
102
RTVSPropertyOp1
 70
     1
102
RTVSPropertyOp2
 70
     1
102
RTVSPropertyOp3
 70
     1
102
RTVSPropertyOp4
 70
     1
102
RTVSPropertyOp5
 70
     1
102
RTVSPropertyOp6
 70
     1
102
RTVSPropertyOp7
 70
     1
102
RTVSPropertyOp8
 70
     1
102
RTVSPropertyOp9
 70
     1
102
RTVSPropertyOp10
 70
     1
102
RTVSPropertyOp11
 70
     1
102
RTVSPropertyOp12
 70
     1
102
RTVSPropertyOp13
 70
     1
102
RTVSPropertyOp14
 70
     1
102
RTVSPropertyOp15
 70
     1
102
RTVSPropertyOp16
 70
     1
102
RTVSPropertyOp17
 70
     1
102
RTVSPropertyOp18
 70
     1
102
RTVSPropertyOp19
 70
     1
102
RTVSPropertyOp20
 70
     1
102
RTVSPropertyOp21
 70
     1
102
RTVSPropertyOp22
 70
     1
102
RTVSPropertyOp23
 70
     1
102
RTVSPropertyOp24
 70
     1
102
RTVSPropertyOp25
 70
     1
102
RTVSPropertyOp26
 70
     1
102
RTVSPropertyOp27
 70
     1
  0
XRECORD
  5
3ED
102
{ACAD_REACTORS
330
3EC
102
}
330
3EC
100
AcDbXrecord
280
     1
102
RTVSPropertyOp0
 70
     1
102
RTVSPropertyOp1
 70
     1
102
RTVSPropertyOp2
 70
     1
102
RTVSPropertyOp3
 70
     1
102
RTVSPropertyOp4
 70
     1
102
RTVSPropertyOp5
 70
     1
102
RTVSPropertyOp6
 70
     1
102
RTVSPropertyOp7
 70
     1
102
RTVSPropertyOp8
 70
     1
102
RTVSPropertyOp9
 70
     1
102
RTVSPropertyOp10
 70
     1
102
RTVSPropertyOp11
 70
     1
102
RTVSPropertyOp12
 70
     1
102
RTVSPropertyOp13
 70
     1
102
RTVSPropertyOp14
 70
     1
102
RTVSPropertyOp15
 70
     1
102
RTVSPropertyOp16
 70
     1
102
RTVSPropertyOp17
 70
     1
102
RTVSPropertyOp18
 70
     1
102
RTVSPropertyOp19
 70
     1
102
RTVSPropertyOp20
 70
     1
102
RTVSPropertyOp21
 70
     1
102
RTVSPropertyOp22
 70
     1
102
RTVSPropertyOp23
 70
     1
102
RTVSPropertyOp24
 70
     1
102
RTVSPropertyOp25
 70
     1
102
RTVSPropertyOp26
 70
     1
102
RTVSPropertyOp27
 70
     1
  0
XRECORD
  5
3F5
102
{ACAD_REACTORS
330
3F4
102
}
330
3F4
100
AcDbXrecord
280
     1
102
RTVSPropertyOp0
 70
     1
102
RTVSPropertyOp1
 70
     1
102
RTVSPropertyOp2
 70
     1
102
RTVSPropertyOp3
 70
     1
102
RTVSPropertyOp4
 70
     1
102
RTVSPropertyOp5
 70
     1
102
RTVSPropertyOp6
 70
     1
102
RTVSPropertyOp7
 70
     1
102
RTVSPropertyOp8
 70
     1
102
RTVSPropertyOp9
 70
     1
102
RTVSPropertyOp10
 70
     1
102
RTVSPropertyOp11
 70
     1
102
RTVSPropertyOp12
 70
     1
102
RTVSPropertyOp13
 70
     1
102
RTVSPropertyOp14
 70
     1
102
RTVSPropertyOp15
 70
     1
102
RTVSPropertyOp16
 70
     1
102
RTVSPropertyOp17
 70
     1
102
RTVSPropertyOp18
 70
     1
102
RTVSPropertyOp19
 70
     1
102
RTVSPropertyOp20
 70
     1
102
RTVSPropertyOp21
 70
     1
102
RTVSPropertyOp22
 70
     1
102
RTVSPropertyOp23
 70
     1
102
RTVSPropertyOp24
 70
     1
102
RTVSPropertyOp25
 70
     1
102
RTVSPropertyOp26
 70
     1
102
RTVSPropertyOp27
 70
     1
  0
ENDSEC
  0
EOF
